#TITLE:ブラックホール;
#SUBTITLE:;
#ARTIST:達見 恵 featured by 佐野宏晃;
#TITLETRANSLIT:Black Hole;
#SUBTITLETRANSLIT:;
#ARTISTTRANSLIT:Hiroaki Sano featured by Megumi Tatsumi;
#GENRE:;
#CREDIT:;
#BANNER:[Key Change] - Black Hole.png;
#BACKGROUND:[Key Change] - Black Hole-bg.png;
#LYRICSPATH:;
#CDTITLE:;
#MUSIC:Black Hole.ogg;
#OFFSET:0.403553;
#SAMPLESTART:60.080002;
#SAMPLELENGTH:12.000000;
#SELECTABLE:YES;
#BPMS:0.000000=172.000000
;
#STOPS:
;
#BGCHANGES:;
#KEYSOUNDS:;
#ATTACKS:;

//---------------dance-single - ----------------
#NOTES:
     dance-single:
     :
     Hard:
     8:
     0.571884,0.600715,0.189725,0.502770,0.123321,422.000000,402.000000,20.000000,53.000000,0.000000,0.000000,0.571884,0.600715,0.189725,0.502770,0.123321,422.000000,402.000000,20.000000,53.000000,0.000000,0.000000:
0000
0000
0000
0000
,
0000
0000
0000
0000
,
0000
0000
0000
0000
,
0000
0000
0000
0000
,
0000
0000
0000
0000
,
1100
0000
0001
2000
0000
3100
0010
0002
,
0000
1003
0010
0200
0000
0301
1000
0000
,
0100
0010
0100
0010
0000
0001
0000
2000
,
0000
0000
3010
0100
0000
0001
0000
2000
,
0000
0000
0000
3000
,
1000
0002
0000
0103
0020
0000
1030
0000
,
0001
0000
0000
0010
0000
0000
0100
0000
0000
1000
0000
0000
0001
0000
1000
0000
,
0000
0000
0010
0000
0000
1000
0000
0000
0100
0000
0000
0010
0000
0000
0001
0000
,
1000
0010
1000
0010
0100
0001
1000
0100
,
0000
0000
0010
0000
0000
0001
0000
0000
1000
0000
0000
0001
0000
0000
0100
0000
,
0010
1000
0010
0100
0001
0100
0010
1000
,
0000
0000
0100
0000
0000
0100
0000
0000
0010
0000
0000
0001
0000
0000
1000
0000
,
0110
0000
0000
0000
,
0001
0100
0001
0100
0010
1000
0100
0010
,
0000
0100
1000
0100
1000
0001
0100
0010
,
1000
0010
1000
0010
0100
0001
1000
0100
,
0000
0010
0100
1000
0000
0001
2000
0000
,
3001
0010
0001
0010
0100
1000
0001
0100
,
0000
0010
0100
0001
0000
1000
0001
0010
,
0100
1000
0100
1000
0001
1000
0010
0200
,
0000
0301
0010
0200
0000
0310
0002
0000
,
1003
0010
1000
0010
0100
0001
0010
0100
,
0000
0010
0001
1000
0000
0001
0200
0310
,
1000
0100
1000
0100
0010
0001
1000
0010
,
0000
0100
0010
1000
0000
0001
2000
0000
,
3100
0010
0001
1000
0000
0001
0100
0010
,
0000
1000
0001
1000
0000
0001
1000
0100
,
0010
0001
0010
0001
0000
1000
0000
0002
,
0000
0013
0100
2000
0000
3001
1000
0001
,
0100
0100
0010
1000
0000
0100
0010
0002
,
0000
1003
0001
0200
0000
0320
0000
1030
,
0001
1000
0001
0100
0000
0110
0000
1010
,
0000
0000
1000
0000
0001
0000
0000
0020
0000
0000
0000
0000
0130
0000
0010
0000
,
0001
0100
0001
0100
0010
1000
0001
1000
,
0100
0010
0100
0010
0001
0100
0010
1000
,
0001
1000
0001
0100
0010
0100
0010
1000
,
0010
0000
1000
0000
0001
0000
1000
0000
0001
0000
0000
0100
0000
0000
0010
0000
,
2000
0000
3010
0020
0000
0130
0001
2000
,
0000
0000
3100
0000
0000
0010
0000
0000
0001
0000
1000
0000
0010
0000
0120
0000
,
0000
1030
0001
1000
0100
0010
0001
1002
,
0000
0000
0103
0000
0010
0000
1000
0000
0100
0000
0000
0010
0000
0000
0001
0000
,
2001
0000
0100
3100
0000
0010
0001
1002
,
0000
0103
0010
0100
0001
0100
0010
1000
,
0001
0010
0100
0020
0000
0130
1000
0002
,
0000
0103
0000
0120
0000
1030
0000
0001
,
0020
0000
0130
1000
0000
0001
0100
0210
,
0000
0000
0301
0000
0000
1000
0000
0000
0001
0000
0000
0100
0000
0000
0010
0000
,
1000
0000
2100
0000
3010
0100
0001
1002
,
0000
0000
0003
0000
0100
0000
0010
0000
1000
0000
0000
0100
0000
0000
0010
0000
,
0001
0000
0001
0100
0000
0010
0000
1010
,
0000
1000
0001
1000
0200
0000
0310
0001
,
0011
0000
1000
0001
0100
0000
0001
0010
,
0100
1000
0100
0001
0100
1000
0001
0100
,
0001
0001
0010
0100
0000
1000
0000
0002
,
0000
0003
0100
0010
0000
1000
0000
0001
,
2000
0000
0000
0000
3100
0000
0020
0000
0000
0030
0200
0000
0310
0000
0002
0000
,
0000
0000
1003
0000
0000
0000
0001
0000
0200
0000
0000
0002
0300
0000
0023
0000
,
0230
0000
1300
0001
1000
0010
0100
0001
,
0000
0000
1000
0000
0000
0001
0000
0000
2000
0000
0000
3000
0000
0000
0000
0000
,
0100
0100
0010
0100
0010
0001
1000
0001
,
0100
0100
0010
0100
0010
1000
0001
2002
,
0000
0000
3003
0000
0000
0000
0100
0000
0000
1000
0000
0000
0100
0000
0000
0010
,
0000
0000
0001
0000
0000
1000
0000
0000
0001
0000
0000
0100
0000
0000
0010
0000
,
0110
0000
0000
1000
0000
0000
0100
0000
0000
0010
0000
0000
0001
0000
2000
0000
,
0000
0000
3010
0000
0000
0100
0000
0000
0001
0000
0000
1000
0000
0000
0100
0000
,
0010
0000
0000
0000
1002
0000
0000
0100
0003
0000
0010
0000
0000
0000
2010
0000
,
0000
3100
0010
0001
0100
0010
0100
0001
,
0202
0000
0000
0000
,
0000
0000
0000
0303
,
2200
0000
3300
0000
;

//---------------dance-single - ----------------
#NOTES:
     dance-single:
     :
     Challenge:
     10:
     0.781936,1.024750,0.749412,0.455339,0.455339,577.000000,498.000000,79.000000,48.000000,0.000000,0.000000,0.781936,1.024750,0.749412,0.455339,0.455339,577.000000,498.000000,79.000000,48.000000,0.000000,0.000000:
0000
0000
0000
0000
,
0000
0000
0000
0000
,
0000
0000
0000
0000
,
0000
0000
0000
0000
,
0000
0000
0000
0000
0000
1000
0100
0020
,
0000
0031
0100
0020
0000
1030
0001
0200
,
0000
0310
0000
2001
0000
3100
0000
0010
,
0001
0001
0100
0010
0000
1000
0000
0002
,
0000
0000
0013
0100
0000
1000
0000
0002
,
0000
0000
0000
0003
,
0100
0000
0010
0100
0010
0000
1000
0000
0001
1000
0001
1000
0001
0000
1000
0000
,
0001
0000
0010
0100
0000
0010
0001
0000
0010
0100
0000
1000
0001
0000
2002
0000
,
3003
0000
1010
0000
0000
0110
0000
0000
0101
0000
0000
1100
0000
0000
1001
0000
,
1100
0100
0010
0001
1000
0010
0001
0020
,
0000
0000
1030
0000
0001
1000
0000
0100
1000
0000
0001
1000
0000
0100
1000
0000
,
0001
1000
0001
1000
0001
0000
0010
0001
0010
0001
0010
0000
0100
0000
2000
0000
,
0000
0000
3010
0000
0100
0001
0000
1000
0001
0000
0100
0001
0000
0100
0010
0000
,
1001
0000
0100
0001
0100
0001
0100
0000
0010
1000
0001
1000
0010
0000
0000
0000
,
1010
1000
0100
0010
0100
1000
0010
0110
,
0000
0100
1000
0100
0001
0010
1000
0010
,
0011
0001
0100
0010
0100
0001
0010
0110
,
0000
0010
0001
1001
0000
1000
0201
0300
,
0110
0010
1000
0010
0001
0010
1000
1001
,
0000
0001
0100
0110
0000
0010
1000
0100
,
1100
0100
0010
0001
1000
0001
0100
0020
,
0000
1030
0010
0002
0000
0013
0200
0300
,
0101
0100
1000
0100
0001
0011
0010
0110
,
0000
0100
1000
1010
0000
0010
0210
0310
,
1010
1000
0100
0001
0100
0110
0010
0011
,
0000
1000
0001
0101
0000
0100
1001
0000
,
0010
1000
0100
0001
0000
0001
0100
0010
,
0000
0010
0001
1000
0000
1000
0010
0100
,
0001
0010
0001
0100
0000
0010
0000
2000
,
0000
0000
3001
0000
0010
0000
0100
0000
1000
0001
1000
0001
1000
0001
1000
0001
,
2000
0010
0010
0010
0000
3100
0010
0012
,
0000
1003
0001
0101
0000
0120
0000
1030
,
1001
0001
0010
0110
0000
1100
0000
0101
,
0000
0000
1000
0000
0001
0100
0001
0100
0001
0000
0100
0000
1000
0000
0100
0000
,
0001
0000
0100
0001
0100
0000
0001
0100
0001
0000
0100
0010
1000
0000
0001
0000
,
1000
0000
0100
1000
0100
0000
1000
0100
1000
0000
0100
0010
0001
0000
1000
0000
,
0001
0100
0001
0100
0001
0000
0100
0010
0100
0010
0100
0000
0010
1000
0010
1000
,
0010
0000
1000
0001
1000
0001
1000
0000
0100
0010
0100
0010
0001
1000
0001
1000
,
0002
0000
0103
0010
0000
1000
0001
0101
,
0000
0000
0110
0000
0000
1010
0000
0000
2002
0000
0000
0000
3003
0000
0110
0000
,
0000
1000
0100
0001
0100
1000
0010
0120
,
0000
0000
0031
0000
0010
0000
1000
0000
0100
0000
0000
0010
0000
0000
0001
0000
,
1002
0000
0100
0103
0000
0010
1000
0002
,
0000
0013
0100
0010
0001
0001
0001
0001
,
0011
1000
0010
0200
0000
1300
0100
0002
,
0000
1003
0000
0220
0000
0330
0000
1000
,
0001
0100
0001
0100
0010
0100
0001
0100
0001
0100
0010
0100
0001
0000
1000
0000
,
0000
0000
0011
0000
0000
0110
0000
0000
1100
0000
0000
0101
0000
0000
0110
0000
,
1010
0000
1001
0000
0100
0110
0010
1002
,
0000
0000
0013
0000
1000
0000
0010
0000
0001
0000
0000
0100
0000
0000
0010
0000
,
1000
0000
1000
0100
0000
0010
0001
0200
,
0000
0000
0310
0000
0000
0100
0000
0000
0101
0000
0000
0000
1100
0000
0000
0000
,
0011
0001
0010
0001
0100
0010
0100
0001
,
0010
0000
0100
0000
0010
0000
0100
0000
1000
0001
1000
0001
1000
0001
1000
0001
,
1000
0001
1000
0110
0000
0100
0000
1002
,
0000
0000
0013
0000
0000
0100
0000
0000
1100
0000
0000
0101
0000
0000
0110
0000
,
0020
0000
1030
0020
0000
0130
0010
0002
,
0000
0000
0013
0000
0000
0000
1000
0000
0100
0000
0000
0001
0000
0000
0100
0000
,
0020
0000
0000
0000
0031
0000
1000
0001
0200
0000
0320
0000
2030
0000
3002
0000
,
0003
0000
0020
0000
0000
0002
0030
0000
2003
0000
0000
0000
3100
0000
0000
0000
,
0010
0001
0010
0000
0001
0000
0100
0001
0100
0000
0010
0000
1000
0001
1000
0000
,
0100
0010
0100
0000
1000
0000
0001
0100
0001
0000
0100
0010
1000
0001
2000
0000
,
0000
0000
3010
0000
0000
0100
0010
0000
0000
1010
0000
0000
1000
0000
0000
0001
,
0000
0000
0011
0000
0000
0101
0000
0000
1100
0000
0000
1010
0000
0000
0110
0000
,
1001
0000
1000
0100
0000
1000
0001
0000
1000
0010
0000
0100
0001
0000
0110
0000
,
0000
0000
1100
0000
0000
0110
0000
0000
0011
0000
0000
1001
0000
0000
0101
0000
,
0110
0000
0000
0000
0201
0000
0000
0310
0000
0000
1000
0000
0000
0000
0110
0000
,
0000
0000
1000
0100
0010
0001
0100
0010
0100
0010
1000
0010
1000
0010
0100
0001
,
0020
0000
0000
0000
,
0000
0000
0000
0030
,
2002
0000
3003
0000
;

//---------------dance-single - ----------------
#NOTES:
     dance-single:
     :
     Medium:
     7:
     0.433656,0.565379,0.151780,0.369963,0.033202,320.000000,304.000000,16.000000,39.000000,0.000000,0.000000,0.433656,0.565379,0.151780,0.369963,0.033202,320.000000,304.000000,16.000000,39.000000,0.000000,0.000000:
0000
0000
0000
0000
,
0000
0000
0000
0000
,
0000
0000
0000
0000
,
0000
0000
0000
0000
,
0000
0000
0000
0000
,
1100
0001
0100
0001
,
0011
0100
1000
0010
,
0100
0010
0100
0010
0000
1000
0000
0002
,
0000
0000
0013
0100
0000
1000
0000
0002
,
0000
0000
0000
0000
0000
0000
0000
0003
,
1000
0010
0000
1000
0010
0000
0100
0000
,
0001
0000
0010
0000
0100
0000
1000
0001
,
0000
1000
0000
0000
0100
0000
0010
0000
,
0002
0000
1000
0000
1003
0001
1000
0200
,
0000
0010
1000
1300
,
0001
0000
0000
0100
0000
0000
0010
1000
,
0000
0100
0000
0000
0010
0000
0000
0000
,
1001
0000
0000
0000
,
0110
0000
0001
0100
0000
0010
1000
0001
,
0000
0010
0100
0000
1000
0100
0010
0100
,
1000
0000
0010
0100
0000
0001
0000
2000
,
0000
3100
0000
1000
0002
0000
0103
0000
,
0010
1000
0010
0100
0000
0001
1000
0100
,
0000
0010
0100
0010
0000
0001
0000
1000
,
0001
0000
0100
0010
0000
1000
0000
0200
,
0000
0310
0001
0020
0000
0130
2000
0000
,
3001
0100
0010
1000
0000
0001
0010
0001
,
0000
0010
0100
1000
0000
0010
1000
0010
,
0100
0001
0100
0001
0000
1000
0000
0002
,
0000
0013
0000
0100
0200
0000
1300
0000
,
0010
1000
0010
0200
0000
1000
0000
0302
,
0000
0013
0100
0020
0000
1000
0000
0130
,
0020
0000
0031
1000
0000
0010
0000
0200
,
0000
0310
1000
0002
0000
0000
0010
0000
,
1003
0100
1000
0100
0000
0010
0001
1000
,
0000
0001
0100
0020
0000
0000
0030
1000
,
0001
1000
0001
0010
0000
0100
0000
0010
,
0000
0010
0001
1000
0000
0000
0000
0001
,
0100
0000
0010
0100
0000
0100
0001
0000
,
0010
0000
0000
0100
1000
0000
0001
0200
,
0000
0000
0000
0000
0000
0000
0000
0300
,
0000
0000
0000
0000
0000
0000
0010
0000
1000
0000
0000
0100
0000
0000
0010
0000
,
0002
0000
0000
0023
0000
0030
0100
2000
,
0000
3000
0000
0001
0000
0010
0000
1001
,
0000
0000
0100
0000
0010
1000
0100
0010
,
0000
0000
0000
0000
0100
0000
0010
0000
0001
0000
0000
1000
0000
0000
0001
0000
,
0100
0000
0100
0020
0000
0000
1030
0002
,
0000
0000
0000
0000
0000
0003
0000
0000
0000
0000
1000
0000
0001
0000
1000
0000
,
0000
0100
1000
0100
0000
0010
0100
0010
,
0000
0001
0000
0022
0000
0033
0000
1000
,
0001
0000
0100
0010
0000
1000
0001
2000
,
0000
3000
0000
0100
0010
0100
1000
0002
,
0000
0003
0000
0000
0100
0010
0100
0002
,
0000
0000
0003
0000
0000
0000
1000
0000
0100
0000
0000
0010
0000
0000
0001
0000
,
1000
0000
1000
0010
0000
0100
0000
0110
,
0000
0000
0000
1000
0002
0000
0000
0000
,
0023
0000
0030
0010
0100
0000
1000
0100
,
0000
0001
0000
0100
0000
0000
0000
1000
,
0001
0100
0001
0100
0000
1000
0000
0200
,
0000
0000
0310
1000
0000
0001
0000
0010
,
0100
0000
1000
0000
0010
1000
0100
0010
,
0000
0010
0100
0000
0010
0000
0001
0100
,
0010
0000
0100
0000
0010
1000
0100
0010
,
0100
0000
1000
0001
0200
0000
0310
0000
,
1010
0110
1010
0101
,
0011
0000
0110
0000
0011
0000
0001
2000
,
0000
0000
0000
0000
0000
3000
0000
0000
0000
0000
0000
0000
0000
0000
0000
0010
,
0000
0000
0100
0000
0000
0001
0000
0000
1000
0000
0000
0001
0000
0000
1000
0000
,
0001
0000
0010
0000
0100
0000
1000
0001
,
0000
1000
0100
0010
,
0001
0000
0000
0000
0100
0000
0000
0010
0000
0000
1000
0000
0000
0000
0002
0000
,
0000
0013
0100
0010
0001
0100
0010
0000
,
2002
0000
0000
0000
,
0000
0000
0000
3003
,
0220
0000
0330
0000
;

//---------------dance-single - ----------------
#NOTES:
     dance-single:
     :
     Easy:
     4:
     0.204631,0.282690,0.018972,0.170752,0.000000,151.000000,149.000000,2.000000,18.000000,0.000000,0.000000,0.204631,0.282690,0.018972,0.170752,0.000000,151.000000,149.000000,2.000000,18.000000,0.000000,0.000000:
0000
0000
0000
0000
,
0000
0000
0000
0000
,
0000
0000
0000
0000
,
0000
0000
0000
0000
,
0000
0000
0000
0000
,
0011
0000
1000
0000
,
0010
0000
0100
0000
,
0002
0000
0000
0000
0003
0000
0000
1000
,
0000
0000
0000
0010
0000
0000
0000
0200
,
0000
0000
0000
0000
0000
0000
0000
0300
,
0000
0000
0000
0000
,
0001
0000
0000
0000
0000
0000
0000
0010
,
0000
0000
0000
0000
,
0100
0000
1000
0000
0010
0000
0000
1000
,
0000
0000
0001
0000
,
0100
0000
0000
0000
0000
0000
0000
0010
,
0000
0000
1000
0000
,
0001
0000
0000
0000
,
1000
0000
0000
0000
0100
0000
0000
0010
,
0000
0001
1000
0001
,
0100
0000
0000
0000
0010
0000
0000
1000
,
0000
0000
0000
0001
0000
0000
1000
0000
,
0001
0000
0000
0000
0010
0000
0000
0100
,
0000
0000
0000
1000
0000
0000
1000
0000
,
0001
0000
0000
0000
1000
1000
0000
0020
,
0000
0000
0000
0230
0000
0000
0302
0000
,
1003
0000
0000
0000
0000
0001
0000
0010
,
0000
0000
0000
0100
0000
0000
0020
0000
,
0031
0000
0000
0000
0000
1000
0000
0010
,
0000
0000
0000
0100
0000
0000
0002
0000
,
2003
0000
3000
0100
0000
0000
0000
0010
,
0000
0000
0000
0001
0000
0002
0000
0000
,
1003
0000
0000
0010
0000
0000
0000
0100
,
0000
0000
0000
0001
0000
0000
0000
0000
,
2000
0000
0000
0000
0000
0000
3000
0002
,
0000
0000
0000
0013
0000
0200
0000
0300
,
2000
0000
3000
0010
0000
0100
0000
0010
,
0000
1000
0001
0100
,
0002
0000
0000
0000
0000
0003
0000
0000
,
2000
0000
0000
3000
,
0100
0000
0000
0010
0000
0000
0001
0000
,
0000
1000
0000
0000
0010
0000
0100
0000
,
0020
0000
0000
0000
0000
0000
0000
1030
,
0000
0001
0000
0000
1001
0000
0000
0010
,
0000
0000
0000
0000
0100
0000
0000
1000
,
0000
0000
0010
0000
,
0100
0000
0000
0000
0001
0000
0000
1000
,
0000
0000
0100
0000
,
0010
0000
0000
0001
0000
0000
0000
1000
,
0000
0000
0000
0010
0000
0000
0000
0000
,
0100
0000
0000
0000
0000
0000
0000
0001
,
0000
1000
0000
0000
0001
0000
0000
0000
,
0000
0000
0100
0000
0000
0010
0000
1000
,
0000
0000
0001
0000
,
1000
0000
0000
0100
0000
1000
0000
0010
,
0000
0000
0100
0000
,
0001
0000
1000
0000
,
0100
0000
0010
0000
,
0001
0000
0000
1000
0000
0000
0000
0001
,
0000
0100
0000
0000
0001
0000
0000
0000
,
1000
0000
0000
0010
0000
0000
0000
1000
,
0000
0000
0100
0000
,
0010
0000
0000
0000
0001
0000
0000
1000
,
0000
0000
0001
0000
,
0100
0001
0100
0001
,
1000
0000
0010
0000
1000
0000
0000
0001
,
0000
0000
0000
0010
0000
0000
0000
0100
,
0000
0000
1000
0000
,
0001
0000
0000
0100
0000
0000
0000
0010
,
0000
1000
0000
0000
0100
0000
0000
0000
,
0010
0000
0001
0000
0000
0000
0000
1000
,
0000
0010
0100
0001
,
0020
0000
0000
0000
,
0000
0000
0000
0000
,
0200
0000
0330
0000
;

//---------------dance-single - ----------------
#NOTES:
     dance-single:
     :
     Beginner:
     1:
     0.088086,0.176088,0.009486,0.113835,0.000000,65.000000,64.000000,1.000000,12.000000,0.000000,0.000000,0.088086,0.176088,0.009486,0.113835,0.000000,65.000000,64.000000,1.000000,12.000000,0.000000,0.000000:
0000
0000
0000
0000
,
0000
0000
0000
0000
,
0000
0000
0000
0000
,
0000
0000
0000
0000
,
0000
0000
0000
0000
,
0001
0000
0000
0000
,
1000
0000
0000
0000
,
0010
0000
0000
0000
,
0100
0000
0000
0000
,
0001
0000
0000
0000
,
0000
0000
0000
0000
,
1000
0000
0000
0000
,
0000
0000
0000
0000
,
0100
0000
0000
0000
,
0000
0000
0000
0000
,
0010
0000
0000
0000
,
0000
0000
0000
0000
,
1001
0000
0000
0000
,
0001
0000
0000
0000
,
0100
0000
0000
0000
,
0010
0000
0000
0000
,
1000
0000
0001
0000
,
1000
0000
0000
0000
,
0100
0000
0000
0000
,
0010
0000
0000
0000
,
0001
0000
1000
0000
,
0001
0000
0000
0000
,
0100
0000
0000
0000
,
0010
0000
0000
0000
,
1000
0000
0000
0000
,
0002
0000
0003
0000
,
2000
0000
3000
0000
,
0200
0000
0300
0000
,
0020
0000
0030
0000
,
0002
0000
0003
0000
,
2000
0000
3000
0000
,
0020
0030
0000
0000
,
0000
0000
0000
0000
,
0200
0000
0000
0300
,
0002
0000
0000
0003
,
1000
0000
0000
0000
,
0000
0000
0000
0000
,
0200
0000
0000
0300
,
0000
0000
0000
0000
,
0010
0000
0000
0000
,
0001
0000
0000
0000
,
1000
0000
0000
0000
,
0010
0000
0100
0000
,
0010
0000
0000
0000
,
1000
0000
0000
0000
,
0001
0000
0000
0000
,
0000
0000
0000
0000
,
0000
0010
0000
0000
,
0000
0000
0000
0000
,
0100
0000
0000
0000
,
0000
0000
0000
0000
,
1000
0000
1000
0000
,
1000
0000
1000
0000
,
0001
0000
0000
0000
,
0100
0000
0000
0000
,
0001
0000
0000
0000
,
0010
0000
0000
0000
,
0100
0000
0000
0000
,
1000
0000
0000
0000
,
0001
0000
0001
0000
,
1000
0000
1000
0000
,
0000
0000
0000
0000
,
0010
0000
0000
0000
,
0100
0000
0000
0000
,
0000
0000
0100
0000
,
0100
0000
0000
0000
,
0000
0000
0000
0000
,
0002
0000
0000
0000
,
0000
0000
0000
0003
,
2000
3000
0000
0000
;
