#TITLE:Whenever, Wherever;
#SUBTITLE:;
#ARTIST:Shakira;
#TITLETRANSLIT:;
#SUBTITLETRANSLIT:;
#ARTISTTRANSLIT:;
#GENRE:;
#CREDIT:;
#BANNER:Whenever Wherever-banner.png;
#BACKGROUND:Whenever Wherever-bg.jpg;
#LYRICSPATH:;
#CDTITLE:;
#MUSIC:Whenever Wherever.mp3;
#OFFSET:-0.003000;
#SAMPLESTART:43.419998;
#SAMPLELENGTH:10.459999;
#SELECTABLE:YES;
#DISPLAYBPM:108.000000;
#BPMS:0.000000=108.206001
,18.000000=107.767998
,22.000000=107.462997
,28.000000=107.767998
,32.000000=108.011002
,36.000000=107.207001
,42.000000=107.623001
,48.000000=108.206001
,54.000000=107.603996
,59.000000=107.015999
,62.000000=107.938004
,70.000000=107.079002
,73.000000=107.399002
,76.000000=108.042999
,82.000000=108.075996
,88.000000=107.880997
,94.000000=107.334999
,98.000000=107.623001
,104.000000=107.334999
,108.000000=107.527000
,113.000000=107.858002
,120.000000=107.366997
,126.000000=107.773003
,137.000000=107.449997
,142.000000=107.720001
,145.000000=108.029999
,150.000000=107.551003
,158.000000=107.987000
,166.000000=107.817001
,172.000000=107.574997
,184.000000=107.720001
,190.000000=107.623001
,196.000000=107.655998
,202.000000=107.095001
,206.000000=107.914001
,212.000000=108.156998
,216.000000=107.334999
,220.000000=108.108002
,223.000000=107.334999
,229.000000=107.591003
,232.000000=108.108002
,236.000000=107.142998
,237.000000=108.172997
,238.500000=104.529999
;
#STOPS:
;
#BGCHANGES:-0.080=Whenever Wherever.avi=1.000=1=0=0=StretchNoLoop==CrossFade==,
99999=-nosongbg-=1.000=0=0=0 // don't automatically add -songbackground-
;
#KEYSOUNDS:;
#ATTACKS:;

//---------------dance-single - ----------------
#NOTES:
     dance-single:
     :
     Hard:
     8:
     0.466289,0.543556,0.042948,0.007158,0.393687,456.000000,450.000000,6.000000,1.000000,0.000000,0.000000,0.466289,0.543556,0.042948,0.007158,0.393687,456.000000,450.000000,6.000000,1.000000,0.000000,0.000000:
// measure 0
0000
0000
0000
0000
,  // measure 1
0000
0000
0000
0000
,  // measure 2
0000
0000
0000
0000
,  // measure 3
0000
0000
0000
0000
0000
0000
0000
0000
0110
0000
0000
0010
0100
0000
0001
0000
,  // measure 4
0100
0000
0010
1000
0100
1000
0100
0000
0010
0000
0000
0001
0010
0000
0100
0000
,  // measure 5
1000
0000
0001
0100
0001
0000
0100
0000
0010
0000
0000
0100
0001
0000
0100
0000
,  // measure 6
0010
0000
1000
0100
1000
0100
0010
0000
0100
0000
0000
1000
0100
0000
0010
0000
,  // measure 7
0100
0000
0000
1000
0010
0000
0100
0000
0001
0100
0010
0100
0010
0000
1000
0000
,  // measure 8
0001
0000
0100
0000
0001
0000
0010
0000
0000
0000
0001
0100
0010
0000
1000
0000
,  // measure 9
0100
0000
0010
0000
0100
0000
0001
0000
0100
0010
0100
0010
0100
0000
1000
0000
,  // measure 10
0010
0000
0001
0000
0010
0000
1000
0000
0000
0100
0010
0100
0010
0000
0001
0000
,  // measure 11
0100
0000
1000
0000
0010
0000
1000
0000
0100
0010
0100
0010
0100
0000
0001
0000
,  // measure 12
0010
0000
1000
0000
0010
0000
0001
0000
0000
1000
0100
1000
0100
0000
0010
0000
,  // measure 13
0001
0000
0100
0000
0010
0000
1000
0000
0001
0100
0001
0100
0001
0000
0010
0000
,  // measure 14
0100
0000
1000
0000
0001
0000
0100
0000
0000
0010
0100
0010
0100
0000
0001
0000
,  // measure 15
0100
0000
0010
0000
1000
0000
0100
0000
0010
0100
0000
1000
0100
0000
1000
0100
,  // measure 16
0000
0000
0000
0000
0010
0000
0100
0000
0010
0001
0000
0100
0001
0000
0100
0001
,  // measure 17
0000
0000
0000
0000
1000
0000
0100
0000
1000
0000
0000
0001
0000
0000
0010
0000
,  // measure 18
0001
0000
0000
0100
0000
0000
0010
0000
0100
0000
0000
0001
0000
0000
1000
0000
,  // measure 19
0100
0000
0000
1000
0100
0000
0010
0000
0001
0000
0100
0010
0000
0000
0100
0000
,  // measure 20
0001
0000
1000
0100
0000
0000
0010
0000
0100
0000
1000
0100
0000
0000
0010
0000
,  // measure 21
0001
0000
0100
0000
0001
0000
0100
0000
0010
0000
0100
0010
0000
0000
0100
0000
,  // measure 22
0010
0000
1000
0000
0001
0000
0000
0000
0000
0000
0010
0001
0000
0000
0010
0000
,  // measure 23
0010
0000
0001
0000
0100
0000
0000
0000
0010
0000
1000
0100
0000
0000
1000
0000
,  // measure 24
0000
0000
0010
1000
0000
0000
0001
0000
0000
0000
0001
0100
0000
0000
0001
0000
,  // measure 25
0010
0000
0001
0000
0100
0000
1000
0000
0100
0000
0010
0100
0000
0000
0010
0000
,  // measure 26
0010
0000
1000
0000
1000
0000
0000
0000
0000
0000
0001
0010
0000
0000
0001
0000
,  // measure 27
0001
0000
0100
0000
0010
0000
1010
0000
0100
0000
0001
0100
0000
0010
0100
0000
,  // measure 28
0001
0000
1000
0000
0100
0000
0010
0000
0100
0000
1000
0100
0000
1000
0010
0000
,  // measure 29
0100
0000
0100
0000
0010
0000
1000
0000
0010
0000
0100
0001
0000
1000
0001
0000
,  // measure 30
0010
0000
0010
0000
0001
0000
0100
0000
0010
0000
0001
0010
0000
0001
0010
0000
,  // measure 31
0001
0000
0010
0000
1000
0000
1000
0000
0010
0100
0000
0010
0100
0000
0010
0100
,  // measure 32
0000
0000
0000
0000
0000
0000
0000
0000
0010
1000
0000
0001
0100
0000
0010
1000
,  // measure 33
0000
0000
0010
0000
0100
0000
0010
0000
0010
0000
0000
1000
0000
0000
0100
0000
,  // measure 34
0010
0000
0000
0000
0001
0000
0001
0000
0100
0000
0000
0010
0000
0000
1000
0000
,  // measure 35
0100
0000
0000
0000
1000
0000
0000
0000
0001
0100
0000
0001
0100
0000
0010
1000
,  // measure 36
0000
0010
0000
0100
0000
0000
0000
0000
0010
0000
0000
1000
0000
0000
0100
0000
,  // measure 37
0000
1000
0000
0000
0001
0000
0100
0000
0001
0000
0000
0010
0000
0000
0100
0000
,  // measure 38
0010
0000
0000
0000
0001
0000
0001
0000
0001
0000
0000
1000
0000
0000
0010
0000
,  // measure 39
0010
0000
0000
0000
0101
0000
0000
0000
0010
0100
0010
1000
0010
0100
0010
1000
,  // measure 40
0100
0010
0100
1000
0100
0010
0100
0001
0100
0000
1000
0100
0000
0000
0010
0000
,  // measure 41
0010
0000
0001
0100
0000
0000
0010
0000
0010
0000
0010
0100
0000
0000
0010
0000
,  // measure 42
1000
0000
1000
0000
0010
0000
0010
0000
0100
0000
0001
0100
0000
0000
0010
0000
,  // measure 43
1000
0000
1000
0000
0010
0000
0000
0000
1010
0000
0010
0100
0000
0000
0001
0000
,  // measure 44
1000
0000
1000
0000
0001
0000
0000
0000
0000
0000
0010
0100
0000
0000
0001
0000
,  // measure 45
0100
0000
0100
0001
0000
0000
1000
0000
0011
0000
0000
0000
0001
0000
0001
0000
,  // measure 46
0001
0000
0001
0010
0001
0100
0010
1000
,  // measure 47
0010
0000
1000
0000
0100
0000
0000
0000
0000
0000
1000
0010
1000
0010
1000
0010
,  // measure 48
1000
0000
0000
0000
0100
0000
0000
0000
0010
0000
0010
0001
0000
0000
0100
0000
,  // measure 49
0010
0000
0010
1000
0000
0000
0100
0000
0010
0000
0010
0001
0000
0000
0100
0000
,  // measure 50
0001
0000
0001
0000
1000
0000
1000
0000
0010
0000
0100
0010
0000
0000
0100
0000
,  // measure 51
0001
0000
0001
0000
0100
0000
0000
0000
0000
0000
0010
1000
0000
0000
0100
0000
,  // measure 52
1000
0000
0010
0000
0010
0000
0000
0000
0000
0000
1000
0100
0000
0000
0010
0000
,  // measure 53
0000
0000
0100
1000
0000
0000
0001
0000
1010
0000
0000
0000
1000
0000
1000
0000
,  // measure 54
1000
0000
0000
0000
0010
0000
0010
0100
0000
0000
0001
0000
1000
0000
0010
0000
,  // measure 55
1000
0000
0010
0000
0100
0000
0000
0000
0000
0000
0001
0100
0001
0100
0001
0100
,  // measure 56
0001
0000
0000
0000
0010
0000
0000
0000
0100
0000
1000
0100
0000
1000
0100
0000
,  // measure 57
0010
0000
0010
0000
0001
0000
0001
0000
0010
0000
0001
0100
0000
0100
0010
0000
,  // measure 58
0100
0000
0010
0000
1000
0000
0100
0000
0010
0000
0010
0001
0000
0100
0001
0000
,  // measure 59
0100
0000
0010
0000
1000
0000
0001
0000
0100
0000
0010
0100
0000
0010
0100
0000
,  // measure 60
0000
0000
0100
0000
0000
0000
0000
0000
0000
0000
0000
0000
0000
0000
0000
0000
0000
0000
0000
0000
0000
0000
0000
0000
0000
0000
0000
0000
0000
0000
0000
0000
0000
0000
0000
0000
0000
0000
0001
0000
0000
0000
0000
0000
0000
0000
0000
0000
0000
0000
0000
0000
0000
0000
0000
0000
0000
0000
0000
0000
0000
0000
0000
0000
0000
0000
0000
0000
0000
0000
0000
0000
0000
0000
0000
0000
0000
0000
0000
0000
0200
0000
0000
0000
0000
0000
0000
0000
0000
0000
0000
0000
0000
0000
0000
0000
0000
0000
0000
0000
0000
0000
0000
0000
0000
0000
0000
0000
0000
0000
0000
0000
0000
0000
0000
0000
0000
0000
0000
0000
0000
0000
0000
0000
0000
0000
0000
0000
0000
0000
0000
0000
0000
0000
0000
0000
0000
0000
0000
0000
0000
0000
0000
0000
0300
0000
0000
0000
0000
0000
0000
0000
0000
0000
0000
0000
0000
0000
0000
0000
0000
0000
0000
0000
0000
0000
0000
0000
0000
0000
0000
0000
0000
0000
0000
0000
0000
0000
0000
0000
0000
0000
0000
0000
0000
0000
0000
0000
0000
0000
0000
0000
;

//---------------dance-single - ----------------
#NOTES:
     dance-single:
     :
     Medium:
     5:
     0.266889,0.326134,0.093053,0.114527,0.010737,261.000000,248.000000,13.000000,16.000000,0.000000,0.000000,0.266889,0.326134,0.093053,0.114527,0.010737,261.000000,248.000000,13.000000,16.000000,0.000000,0.000000:
0000
0000
0000
0000
,
0000
0000
0000
0000
,
0000
0000
0000
0000
,
0000
0000
0000
0000
0110
0000
1000
0100
,
1000
0000
0001
0001
0010
0000
0100
0000
,
1000
0001
1000
0000
0010
0000
0001
0000
,
0010
0100
0010
0000
1000
0000
1000
0000
,
0010
0010
0100
0100
,
0001
0100
0001
0000
1000
0000
1000
0000
,
0010
0100
0001
0000
1000
0000
1000
0000
,
0001
0010
0001
0000
0011
0000
0000
0000
,
1000
1000
0010
0010
,
0100
0001
0100
0000
0001
0000
0001
0000
,
1000
0100
1000
0000
0010
0000
0010
0000
,
1000
1000
0101
0000
,
0010
0100
0020
0000
,
1000
0000
0100
0030
2000
0000
0000
0000
,
0010
0000
0100
3000
0020
0000
0000
0000
,
0200
0000
0000
0030
0001
0000
0001
0000
,
0010
0310
1001
0000
,
1001
0000
0100
0100
,
0010
0000
0010
0000
1000
0100
1000
0000
,
0010
1000
0010
0000
0100
0000
0100
0000
,
0001
1000
0100
0000
0010
0000
0010
0000
,
0001
0000
0001
0000
1000
0100
1000
0000
,
0100
0010
0001
0000
1000
0000
1000
0000
,
0010
0010
1100
0000
,
0001
0010
1000
1000
,
0001
0000
0001
0000
0010
0001
0100
0000
,
0010
0000
0100
0000
0010
1000
0100
0000
,
0010
0000
0010
0000
2002
0000
0000
3003
,
1001
1001
0020
0000
,
1000
0000
0100
0030
0200
0000
0000
0000
,
0010
0000
0010
0000
0002
0000
0000
0300
,
2000
0000
0000
3000
1000
0003
1000
0000
,
0010
0100
0002
0000
,
1000
0000
1000
0003
2000
0000
0000
0000
,
0001
0000
0010
3000
0020
0000
0000
0000
,
1000
0000
0001
0030
2000
0000
0000
0000
,
3002
0000
0000
0003
1000
0100
1000
0010
,
0100
0001
0010
0100
1001
0000
1001
0000
,
0010
0000
0010
0000
0100
0010
1000
0000
,
0010
0000
0100
0000
0001
0010
0001
0000
,
0010
0001
0100
0000
0010
0000
1000
0000
,
0100
1000
0010
0000
0100
0000
0100
0000
,
0010
0000
0010
0000
1000
0010
0100
0000
,
0101
0000
0101
0000
0001
0010
0001
1000
,
0001
0010
0100
0000
1000
0000
1000
0000
,
0001
0100
0100
0001
,
1000
0000
0010
0010
0100
0000
0001
0000
,
0010
0001
0010
0000
0100
0000
1000
0000
,
0001
0010
0100
0000
1000
0000
1000
0000
,
0010
1000
0100
0000
0010
0000
0010
0000
,
0001
0100
0010
0000
1000
0000
1000
0000
,
0010
0000
0100
0001
0010
0000
0001
0000
,
0100
0010
1000
0000
0010
0000
0010
0000
,
0100
0001
1000
1000
,
0001
0010
0001
0000
1000
0000
0100
0000
,
0010
1000
0010
0000
1000
0000
0100
0000
,
0010
0001
1000
0000
0010
0000
0100
0000
,
0000
0000
0100
0000
0000
0000
0000
0000
0000
0000
0000
0000
0000
0000
0000
0000
0000
0000
0000
0000
0000
0000
0000
0000
0000
0000
0000
0000
0000
0000
0000
0000
0000
0000
0000
0000
0000
0000
0001
0000
0000
0000
0000
0000
0000
0000
0000
0000
0000
0000
0000
0000
0000
0000
0000
0000
0000
0000
0000
0000
0000
0000
0000
0000
0000
0000
0000
0000
0000
0000
0000
0000
0000
0000
0000
0000
0000
0000
0000
0000
0200
0000
0000
0000
0000
0000
0000
0000
0000
0000
0000
0000
0000
0000
0000
0000
0000
0000
0000
0000
0000
0000
0000
0000
0000
0000
0000
0000
0000
0000
0000
0000
0000
0000
0000
0000
0000
0000
0000
0000
0000
0000
0000
0000
0000
0000
0000
0000
0000
0000
0000
0000
0000
0000
0000
0000
0000
0000
0000
0000
0000
0000
0000
0000
0300
0000
0000
0000
0000
0000
0000
0000
0000
0000
0000
0000
0000
0000
0000
0000
0000
0000
0000
0000
0000
0000
0000
0000
0000
0000
0000
0000
0000
0000
0000
0000
0000
0000
0000
0000
0000
0000
0000
0000
0000
0000
0000
0000
0000
0000
0000
0000
;

//---------------dance-single - ----------------
#NOTES:
     dance-single:
     :
     Easy:
     3:
     0.154407,0.195680,0.050106,0.100211,0.000000,151.000000,144.000000,7.000000,14.000000,0.000000,0.000000,0.154407,0.195680,0.050106,0.100211,0.000000,151.000000,144.000000,7.000000,14.000000,0.000000,0.000000:
0000
0000
0000
0000
,
0000
0000
0000
0000
,
0000
0000
0000
0000
,
0000
0000
0110
0000
,
1000
1000
0010
0000
,
1000
1000
0001
0000
,
0010
0000
0001
0000
,
0001
0000
1000
1000
,
1000
0000
0001
0001
,
1000
1000
0010
0000
,
0010
0000
0100
0100
,
0001
0001
1000
0000
,
0010
0000
0100
0100
,
0010
0010
0100
0000
,
0001
0000
1000
1000
,
0010
0010
2000
0000
,
0000
0000
0000
3000
0002
0000
0000
0000
,
0000
0000
0000
0003
2000
0000
0000
0000
,
0000
0000
0000
3000
0010
0000
0010
0000
,
0100
0100
1001
0000
,
1001
0000
1000
1000
,
0010
0010
1000
0000
,
1000
0000
0000
0000
0002
0000
0000
0003
,
2000
0000
0000
3000
0110
0000
0000
0000
,
0110
0000
1000
1000
,
0010
0010
1000
0000
,
0010
0000
0100
0000
,
0100
0100
0100
0000
,
0001
0001
0001
0000
,
0100
0100
0100
0000
,
0010
0010
0010
0000
,
1000
0000
2000
0000
,
0000
0000
0000
3000
0002
0000
0000
0000
,
0000
0000
0000
0003
0020
0000
0000
0000
,
0000
0000
0000
0030
0001
0000
0001
0000
,
1000
1000
0020
0000
,
0000
0000
0000
0030
0100
0000
0100
0000
,
0010
0010
2000
0000
,
3002
0000
0203
0000
,
0000
0000
0000
0300
0020
0000
0000
0000
,
0000
0000
0000
0030
1010
0000
0000
0000
,
1010
0000
1000
1000
,
0001
0001
1000
0000
,
0010
0000
0100
0100
,
0100
0100
0001
0000
,
1000
0000
0010
0010
,
0010
0000
1000
0000
,
1000
0000
0001
0001
,
0100
0100
0010
0000
,
1000
0000
0010
0010
,
0100
0100
0001
0000
,
0010
0000
0100
0100
,
0010
0010
0001
0000
,
0010
0000
0001
0001
,
0001
0000
0100
0000
,
0010
0010
0010
0000
,
1000
0000
0100
0000
,
0010
0000
0010
0010
,
0100
0100
1000
0000
,
1000
0000
0002
0000
,
0000
0000
0000
0003
;
