#TITLE:Turn It Into Love;
#SUBTITLE:;
#ARTIST:Kylie Minogue;
#TITLETRANSLIT:;
#SUBTITLETRANSLIT:;
#ARTISTTRANSLIT:;
#CREDIT:;
#BANNER:Turn It Into Love.png;
#BACKGROUND:Turn It Into Love-bg.png;
#LYRICSPATH:;
#CDTITLE:Dance Mania Super Classics 1.png;
#MUSIC:Turn It Into Love.ogg;
#OFFSET:-1.063;
#SAMPLESTART:50.411;
#SAMPLELENGTH:12.000;
#SELECTABLE:YES;
#BPMS:0.000=116.082;
#STOPS:;
#BGCHANGES:;

//---------------dance-single - ----------------
#NOTES:
     dance-single:
     :
     Hard:
     6:
     0.395,0.369,0.244,0.000,0.023:
0000
0000
0000
0000
,
0000
0000
0000
0000
,
0000
0000
0000
0000
,
0000
0000
0000
0000
,
0000
1000
0100
0010
0000
0010
0100
1000
,
0000
0001
0100
0010
0000
0010
0100
0001
,
0000
1000
0100
0001
0000
0001
0100
1000
,
0000
1000
0010
0001
0000
0001
0010
1000
,
0001
0000
1000
0000
0100
0010
0001
0100
,
0000
0010
0000
0000
0010
1000
0001
1000
,
0100
0000
0010
0000
0001
0100
1000
0100
,
0000
0000
0001
0000
0010
0000
0100
0000
1000
0000
0010
0000
1000
0000
0000
1000
,
0100
0000
0010
0000
0001
0100
1000
0100
,
0001
0010
0000
0100
1000
0100
0000
0000
,
1100
0000
1000
0010
0100
0001
0010
0100
,
1000
0000
0001
0000
1000
0000
0010
0100
,
0001
0000
0101
0000
0001
0010
0100
1000
,
0000
0010
0000
1000
0100
0010
0001
1000
,
0001
0000
0100
0000
0010
1000
0100
0001
,
1000
0000
0001
0000
0100
0000
1000
0000
0010
0000
1000
0000
0100
0000
0000
0100
,
0010
0000
0001
0000
0100
0010
1000
0100
,
0000
1000
0100
0001
0000
0001
0100
0000
,
0100
1000
0100
0010
0001
0100
1000
0100
,
0001
0100
1000
0100
0001
0010
0000
0011
,
0000
0001
0100
0010
1000
0000
0000
1100
,
0000
1000
0010
0100
0001
0010
0000
0011
,
0000
0001
0100
0010
1000
0100
0010
0011
,
0000
0001
0100
1000
0100
0001
0100
0101
,
0000
0101
0000
1100
0000
1100
0000
0011
,
0000
0011
0000
1010
0000
1010
0000
1001
,
0000
0000
0000
1000
0100
0000
0000
0100
0010
0000
0000
0000
0011
0000
0000
0000
,
0001
0100
0010
1000
0000
1000
0010
0100
,
0001
0001
0010
0100
1000
1000
0000
1000
,
0010
1000
0001
0010
0001
0000
1001
0000
,
0001
0001
1000
0100
0010
0010
0000
0110
,
0000
0010
0001
0100
1000
0100
0001
1000
,
0001
0010
0010
0100
0000
0100
0100
1000
,
0000
1000
1000
0010
0000
0010
0010
0001
,
0000
0001
0001
0100
0000
0100
0100
1000
,
0000
1100
0000
0101
0000
1001
0000
0000
;

//---------------dance-double - ----------------
#NOTES:
     dance-double:
     :
     Medium:
     6:
     0.354,0.323,0.140,0.000,0.000:
00000000
00000000
00000000
00000000
,
00000000
00000000
00000000
00000000
,
00000000
00000000
00000000
00000000
,
00000000
00000000
00000000
00000000
,
00000000
10000000
01000000
00010000
00000000
00010000
01000000
10000000
,
00000000
10000000
00100000
00010000
00000000
00010000
00100000
10000000
,
00000000
10000000
01000000
00010000
00000000
00001000
00000100
00000001
,
00000000
00000001
00000010
00001000
00000000
00001000
00000010
00000001
,
00001000
00000000
00000100
00000000
00010000
00001000
00100000
00010000
,
00000000
10000000
00000000
00100000
01000000
00010000
00100000
00010000
,
10000000
00000000
01000000
00000000
00010000
00001000
00000100
00001000
,
00000000
00000100
00000001
00000010
00000100
00010000
00001000
00010000
,
00000100
00000000
00000010
00000000
00000001
00000100
00001000
00010000
,
00000000
01000000
00000000
10000000
00100000
10000000
00000000
00000000
,
10100000
00000000
10000000
01000000
00010000
00001000
00000100
00000001
,
00000100
00001000
00010000
00100000
,
10010000
00000000
10000000
00000000
01000000
00100000
00001000
00010000
,
00000000
00000100
00000000
00001000
00000010
00000100
00000001
00000010
,
00000001
00000000
00000100
00000000
00000010
00010000
00001000
00010000
,
00000000
00001000
00100000
00010000
00100000
01000000
10000000
00010000
,
10000000
00000000
00100000
00000000
00010000
00001000
00010000
00000100
,
00000000
00001000
00000001
00000001
00000000
00000100
00000010
00000000
,
00001001
00000000
00000001
00000100
00000010
00010000
00001000
00010000
,
01000000
00000000
10000000
00000000
00100000
01000000
00000000
01100000
,
00000000
01000000
00010000
00100000
01000000
00000000
00000000
11000000
,
00000000
10000000
00100000
00010000
00001000
00000100
00000000
00000011
,
00000000
00000001
00000010
00001000
00010000
00100000
10000000
01000000
,
00000000
01000000
10000000
00100000
00010000
00001000
00000100
00000001
,
00000000
00000001
00000000
00001000
00000000
00001000
00000000
00100000
,
00000000
00100000
00000000
00001000
00000000
00001000
00000000
00011000
,
00000000
00100100
00011000
00010000
,
01000000
00000000
10000000
00000000
00100000
00010000
00000000
00001000
,
00010000
00000000
00000100
00000000
00001000
00000100
00000000
00000110
,
00000000
00000010
00000001
00000100
00000010
00000000
00001000
00000000
,
00000100
00000000
00010000
00000000
00001000
00100000
00000000
00010000
,
00000000
01000000
00100000
10000000
01000000
00000000
00100000
00100000
,
00100000
00000000
00001000
00000000
00010000
00001000
00000000
00011000
,
00000000
00010000
00000100
00001000
00000010
00000000
00000100
00000000
,
00000001
00000010
00001000
00010000
00000000
00001000
00000000
00011000
,
00000000
00001000
00100000
00010000
01000000
00100000
00000000
00000000
;

//---------------dance-double - ----------------
#NOTES:
     dance-double:
     :
     Hard:
     7:
     0.453,0.416,0.023,0.000,0.023:
00000000
00000000
00000000
00000000
,
00000000
00000000
00000000
00000000
,
00000000
00000000
00000000
00000000
,
00000000
00000000
00000000
00000000
,
00000000
10000000
01000000
00010000
00000000
00001000
00000100
00000001
,
00000001
00000010
00001000
00010000
00000000
00010000
00100000
10000000
,
10000000
01000000
00010000
00001000
00000000
00000100
00001000
00010000
,
00000000
00000000
00100000
00000000
00010000
00000000
00001000
00000000
00000000
00000000
00000010
00000000
00001000
00000000
00010000
00001000
,
00010000
00001000
00010000
00001000
00100000
00010000
10000000
00100000
,
01000000
00010000
00100000
00001000
00010000
00000100
00001000
00000100
,
00000010
00000100
00000010
00000100
00000010
00000001
00000100
00001000
,
00000100
00000001
00000100
00001000
00010000
00100000
10000000
01000000
,
00100000
01000000
00100000
01000000
10000000
00100000
01000000
00010000
,
00100000
00001000
00010000
00001000
00000100
00000001
00001000
00000000
,
00001001
00000000
00000001
00000100
00000010
00001000
00000100
00010000
,
00001000
00000000
00000000
00000000
00001000
00000000
00100000
00000000
00010000
00000000
10000000
00000000
00100000
00000000
10000000
00100000
,
10000000
00100000
10000000
00100000
10000000
00100000
01000000
00001000
,
00010000
00001000
00100000
00001000
00010000
00000100
00001000
00000010
,
00000100
00000010
00000100
00000010
00000100
00000001
00000010
00000100
,
00010000
00001000
00100000
00010000
10000000
00100000
01000000
00010000
,
00100000
00010000
00100000
00010000
00100000
00001000
00000100
00001000
,
00010000
00100000
00010000
00001000
00010000
00000100
00010000
00000000
,
00011000
00001000
00100000
00010000
10000000
00100000
01000000
00010000
,
00100000
00000000
00001000
00000000
00010000
00000000
00000100
00000000
00001000
00000000
00000010
00000000
00000000
00000000
00000010
00000100
,
00000010
00000100
00000001
00000010
00001000
00010000
01000000
10000000
,
00000000
10000000
00100000
00010000
00001000
00000100
00000001
00001000
,
00000000
00001000
00000001
00001000
00000001
00000010
00001000
00010000
,
00000000
00010000
10000000
00010000
01000000
10000000
00100000
00010000
,
00100000
10000000
00000000
00100000
10000000
01000000
00000000
10000000
,
01000000
00010000
00000000
01000000
00010000
00100000
00000000
00010000
,
00100000
10000000
01000000
00010000
00001000
00000100
00000001
00000010
,
00000100
00000000
00010000
00000000
00001000
00000000
00100000
00000000
01000000
00000000
00100000
00000000
00010000
00000000
01000000
00100000
,
01000000
00010000
10000000
00010000
10000000
01000000
00000000
01000000
,
00010000
00000100
00001000
00000010
00000001
00000010
00000100
00001000
,
00000100
00000010
00000100
00000010
00000100
00000001
00000000
00001000
,
00000100
00001000
00010000
00100000
00010000
10000000
01000000
00100000
,
00010000
10000000
00010000
10000000
00010000
00100000
01000000
10000000
,
00100000
00010000
00001000
00000100
00000001
00000010
00000100
00001000
,
00000001
00001000
00000001
00001000
00000001
00000100
00000010
00010000
,
00001000
00100000
00010000
10000000
00100000
00010000
00001000
00000000
;

//---------------dance-single - ----------------
#NOTES:
     dance-single:
     :
     Challenge:
     8:
     0.510,0.532,0.128,0.000,0.395:
0000
0000
0000
0000
,
0000
0000
0000
0000
,
0000
0000
0000
0000
,
0000
0000
0000
0000
,
0000
1000
0100
0001
0000
0001
0010
1000
,
0000
1000
0010
0001
0000
0001
0100
1000
,
0000
0010
1000
0100
0000
0100
0001
0010
,
0000
0000
0010
0000
0001
0000
0100
0000
0000
0000
0100
0000
1000
0000
0010
0100
,
0010
0000
1000
0100
0000
0000
0100
0010
0000
0000
0010
0001
0000
0000
0001
1000
,
0000
0000
1000
0010
0000
0000
0010
0100
0000
0000
0100
0001
0000
0000
0001
1000
,
0000
0000
1000
0001
0000
0000
0001
0100
0000
0000
0100
0010
0000
0000
0010
1000
,
0000
0000
1000
0100
0000
0000
0100
0010
0000
0000
0010
0001
0000
0000
1000
0100
,
0000
0000
0100
1000
0000
0000
1000
0001
0000
0000
0001
0100
0000
0000
0100
0010
,
0000
0000
0010
1000
0000
0000
1000
0001
0000
0000
0001
0100
0000
0000
0100
0010
,
0100
0001
0010
0100
1000
0010
0001
0010
,
1000
0000
0100
0000
0010
0000
0001
0000
0100
0000
1000
0000
0100
0000
0001
1000
,
0001
0000
1000
0001
0000
0000
0001
0100
0000
0000
0100
0010
0000
0000
0010
1000
,
0000
0000
1000
0100
0000
0000
0100
0010
0000
0000
0010
0001
0000
0000
0001
1000
,
0000
0000
1000
0001
0000
0000
0001
0100
0000
0000
0100
0010
0000
0000
0010
1000
,
0000
0000
1000
0001
0000
0000
0001
1000
0000
0000
1000
0100
0000
0000
0010
0001
,
0000
0000
0001
0010
0000
0000
0010
0100
0000
0000
0100
1000
0000
0000
1000
0010
,
0000
0000
0010
0100
0000
0000
0100
0001
0000
0000
0001
0010
0100
0000
0000
0000
,
0010
0001
0100
1000
0100
0001
0010
0100
,
1000
0000
0010
0000
0001
0000
0010
0000
1000
0001
0010
0001
1000
0000
1001
0000
,
0000
0000
1000
0100
0010
0000
0001
0000
0100
0000
1000
0000
0100
0000
0101
0000
,
0000
0000
0001
0010
0100
0000
1000
0000
0010
0000
1000
0000
0100
0000
1100
0000
,
0000
0000
1000
0100
0010
0000
0001
0000
0100
0000
1000
0000
0100
0000
0101
0000
,
0000
0000
0001
0010
0100
0000
1000
0000
0010
0100
0001
0000
1000
0000
0100
0000
,
1000
0000
0100
1000
0100
0000
0001
0000
0100
0000
0001
0100
0001
0000
0010
0000
,
0001
0000
0010
0001
0010
0000
1000
0000
0010
0000
1000
0010
1000
0000
0001
0000
,
1000
0000
0001
1000
0001
0000
1000
0001
1000
0000
0100
0000
0010
0000
0001
0000
,
1000
0000
0001
1000
0001
0000
1000
0001
1000
0001
0000
0001
0100
0000
0100
0001
,
1000
0100
0010
0100
1000
0100
0010
0001
,
0100
1000
0100
0001
0010
0100
1000
0001
,
1000
0010
0001
0010
1000
0010
0001
0010
,
1000
0100
0010
0001
0100
1000
0100
0001
,
0010
0100
1000
1100
1000
0010
0100
0101
,
0001
0010
0100
1100
1000
0010
0100
0101
,
0001
0010
0001
1010
1000
0010
1000
0011
,
0001
0000
0100
0000
0010
0000
1000
0000
0001
1000
0001
0000
1001
0000
0000
0000
;

//---------------dance-single - ----------------
#NOTES:
     dance-single:
     :
     Easy:
     4:
     0.257,0.324,0.267,0.000,0.000:
0000
0000
0000
0000
,
0000
0000
0000
0000
,
0000
0000
0000
0000
,
0000
0000
0000
0000
,
0000
1000
0000
0100
,
0000
0001
0000
0100
,
0000
1000
0000
0010
,
0000
0001
0000
0010
,
1000
0100
1000
0100
,
1000
0001
0100
0001
,
0100
0010
1000
0010
,
1000
0001
0010
0001
,
0010
0100
0010
0100
,
1000
0001
1000
0001
,
1001
1000
0010
0100
,
0001
1000
0010
0100
,
1001
1000
0100
0001
,
0100
1000
0010
0001
,
0010
1000
0100
0010
,
0001
0100
0010
1000
,
1100
1000
0010
0100
,
0001
0010
0100
0010
,
0110
0100
1000
0010
,
0110
0000
0100
0000
0001
0000
0000
0101
,
0000
0000
0001
0000
1000
0000
0000
1100
,
0000
0000
1000
0000
0001
0000
0000
0011
,
0000
0000
0001
0000
1000
0000
0000
1010
,
0000
1000
0001
0100
,
1000
0100
0001
0010
,
1000
0010
0001
0100
,
1000
0010
0001
0100
,
0001
0010
1000
0100
,
0001
0101
1000
1100
,
1000
0010
0100
0001
,
0010
0011
1000
1010
,
1000
0010
0100
0001
,
0010
0011
1000
1100
,
0001
0101
1000
1100
,
1000
1010
0001
0011
,
1001
0110
1001
0110
;

//---------------dance-single - ----------------
#NOTES:
     dance-single:
     :
     Medium:
     5:
     0.309,0.324,0.233,0.000,0.000: // measure 1
0000
0000
0000
0000
,  // measure 2
0000
0000
0000
0000
,  // measure 3
0000
0000
0000
0000
,  // measure 4
0000
0000
0000
0000
,  // measure 5
0000
1000
0000
1100
0000
0001
0000
0101
,  // measure 6
0000
1000
0000
1001
0000
0001
0000
1001
,  // measure 7
0000
1000
0000
1010
0000
0001
0000
0011
,  // measure 8
0000
0001
0000
1001
0000
1000
0000
0100
,  // measure 9
0010
0000
0001
0000
0100
0010
0100
0000
,  // measure 10
0010
0000
1000
0000
0100
0010
0100
0000
,  // measure 11
1001
0000
0000
0000
1000
0010
1000
0000
,  // measure 12
0001
0000
0100
0000
0001
0010
0001
0000
,  // measure 13
1001
0000
0000
0000
1000
0100
0010
0000
,  // measure 14
0001
0000
0100
0000
0001
0010
0100
0000
,  // measure 15
1100
0000
1000
0001
1000
0000
0001
0000
,  // measure 16
0101
0100
0010
1000
,  // measure 17
0001
0000
0001
0000
0001
0010
0100
0000
,  // measure 18
1000
0000
0010
0000
1000
0100
0010
0000
,  // measure 19
0001
0000
1000
0000
0010
1000
0001
0000
,  // measure 20
0001
0000
0010
0000
0001
0100
1000
0000
,  // measure 21
1001
0000
1000
0100
,  // measure 22
0001
0010
0001
1000
,  // measure 23
1100
0000
1000
0100
1000
0100
0010
0000
,  // measure 24
0001
0000
0101
0000
0001
0100
0000
0110
,  // measure 25
0000
0000
0100
0010
0100
0000
0000
1001
,  // measure 26
0000
0000
0001
1000
0001
0000
0000
1010
,  // measure 27
0000
0000
1000
0010
1000
0000
0000
0011
,  // measure 28
0000
0000
0001
0010
0001
0000
0100
0010
,  // measure 29
0100
0000
0001
0010
0100
0000
1000
0010
,  // measure 30
0100
0000
0100
1000
0010
0000
0010
0001
,  // measure 31
0100
0110
1001
0000
,  // measure 32
1000
0000
0100
0000
0001
0100
1000
0000
,  // measure 33
0010
0001
0010
1000
,  // measure 34
0001
0010
1000
0000
0010
0000
0001
0000
,  // measure 35
0100
1000
0100
0001
,  // measure 36
0010
1000
0010
0000
0001
0000
0100
0000
,  // measure 37
0010
1000
0100
0001
,  // measure 38
0001
0100
1000
0000
1000
0100
0001
0000
,  // measure 39
0100
1000
0010
0001
,  // measure 40
0001
0010
1000
0000
1000
0010
0001
0000
;

//---------------dance-double - ----------------
#NOTES:
     dance-double:
     :
     Easy:
     5:
     0.236,0.253,0.116,0.000,0.000:
00000000
00000000
00000000
00000000
,
00000000
00000000
00000000
00000000
,
00000000
00000000
00000000
00000000
,
00000000
00000000
00000000
00000000
,
00000000
10000000
00000000
01000000
00000000
00010000
00000000
01000000
,
00000000
10000000
00000000
01000000
00000000
00010000
00000000
00001000
,
00000000
00011000
00000000
00000100
00000000
00000001
00000000
00000100
,
00000000
00001000
00000000
00000100
00000000
00000001
00000000
00000100
,
00000000
00000000
00001000
00100000
,
00010000
10000000
00100000
01000000
,
00010000
00000000
00010000
00100000
,
01000000
10000000
00100000
00010000
,
00001000
00000000
00000100
00000001
,
00000010
00000001
00000100
00001000
,
00011000
00000000
00001000
00010000
,
00011000
00000000
00010000
01000000
,
11000000
10000000
00100000
00010000
,
00100000
10000000
01000000
00010000
,
00001000
00000100
00000001
00000010
,
00001000
00000010
00000001
00000100
,
00000010
00001000
00000100
00001000
,
00000010
00001000
00010000
00001000
,
00001010
00000010
00000100
00000001
,
00000011
00000000
00000001
00000000
00000100
00000000
00000000
00011000
,
00000000
00000000
00010000
00000000
01000000
00000000
00000000
00011000
,
00000000
00000000
00001000
00000000
00000100
00000000
00000000
00100100
,
00000000
00000000
00010000
00000000
00100000
00000000
00000000
01000010
,
00000000
00001000
00000010
00001000
,
00010000
01000000
10000000
00100000
,
00010000
00001000
00000100
00000001
,
00000010
00000010
00000010
00000000
,
00000100
00001000
00010000
00001000
,
00000100
00010000
00001000
00010000
,
00100000
10000000
01000000
00100000
,
01000000
10000000
00100000
01000000
,
00001000
00010000
00001000
00000100
,
00000001
00000010
00000001
00000100
,
00001000
00010000
01000000
10000000
,
00100000
00000000
10000000
00000000
01000000
00000000
00000000
00010000
,
00000000
00001000
00000000
00000100
00000000
00001000
00000000
00000000
;

//---------------dance-solo - ----------------
#NOTES:
     dance-solo:
     :
     Hard:
     7:
     0.440,0.462,0.337,0.000,0.058:
000000
000000
000000
000000
,
000000
000000
000000
000000
,
000000
000000
000000
000000
,
000000
000000
000000
000000
,
000000
100000
001000
010000
000000
010000
001000
100000
,
000000
000001
001000
000010
000000
000010
001000
000001
,
000000
000001
001000
100000
000000
100000
001000
000001
,
000000
000000
000001
000000
000100
000000
100000
000000
000000
000000
100000
000000
000100
000000
000001
100000
,
000001
000000
001001
000000
000001
001000
000100
100000
,
000000
100010
000000
100000
000100
100000
001000
000001
,
001000
000000
101000
000000
100000
000100
001000
000010
,
000000
000000
000010
000000
000100
000000
000010
000000
100000
000000
000100
000000
100000
000000
000000
100000
,
001000
000000
001100
000000
000100
000001
001000
100000
,
001000
000001
000100
001000
100000
000100
010000
000000
,
010100
000000
010000
000010
000100
000010
100000
000100
,
010010
000000
010000
000000
000010
000000
100000
000000
000001
000000
000100
000000
001000
000000
000100
001000
,
000100
000000
000101
000000
000001
000100
001000
100000
,
000000
101000
000000
100000
000100
100000
001000
000010
,
000001
000000
000011
000000
000001
001000
000100
010000
,
000000
000000
010000
000000
001000
000000
000010
000000
001000
000000
100000
000000
000100
000000
000000
001000
,
000001
000000
001001
000000
000001
001000
000100
100000
,
000001
100000
001000
100000
000000
100000
001000
000000
,
001100
000000
001000
010000
001000
000100
000010
000001
,
000010
000000
000100
000000
001000
000000
100000
000000
000100
001000
000100
000000
001100
000000
001000
000100
,
100000
000001
100000
000100
001100
000000
000000
001001
,
000000
000001
000100
001000
100000
101000
000000
100001
,
000000
000001
000100
000001
100000
000100
100000
110000
,
000000
100000
010000
100000
001000
000100
001000
101000
,
000000
001001
000000
101000
000000
001001
000000
011000
,
000000
001010
000000
010100
000000
000110
000000
001100
,
000000
000000
000000
000100
000001
000000
000000
000001
100000
000000
001000
000000
000100
000000
000001
000000
,
000000
000000
000001
000000
001000
000000
100000
000000
001000
000001
001000
000000
000001
000000
100000
000001
,
100000
001000
100000
000001
100000
000010
000000
100010
,
000000
000010
100000
001000
000100
000001
000100
001000
,
100000
000001
100000
000010
100000
000100
000000
001100
,
000000
001000
000001
000100
001000
100000
000100
100000
,
001000
000001
001000
100000
000000
001000
100000
000100
,
000000
100000
000100
000001
000000
000100
000001
001000
,
000000
000001
001000
100000
000000
001000
100000
000100
,
000000
100000
000001
010000
000010
000100
100001
000000
;

//---------------dance-solo - ----------------
#NOTES:
     dance-solo:
     :
     Medium:
     5:
     0.314,0.324,0.198,0.000,0.000:
000000
000000
000000
000000
,
000000
000000
000000
000000
,
000000
000000
000000
000000
,
000000
000000
000000
000000
,
000000
100000
001000
000100
000000
000100
001000
100000
,
000000
100000
001000
000001
000000
000001
001000
100000
,
000000
100000
001000
000010
000000
000010
001000
100000
,
000000
100000
001000
010000
000000
010000
001000
100000
,
000001
000000
001000
000000
000001
001000
000100
100000
,
000000
100000
000000
000000
100000
001000
000000
101000
,
000000
000000
000000
000000
100000
000000
001000
000100
,
000000
000001
001000
000000
000100
100000
000010
100000
,
000001
000000
001000
000000
000001
000000
000100
001000
,
000000
100000
000000
000100
000000
001000
000001
000000
,
100001
000000
000001
001000
000000
001000
000100
000000
,
010100
010000
001000
000100
,
100001
000000
000000
000000
000001
001000
000100
000000
,
100000
000000
001000
000000
000100
000001
100000
000000
,
100001
000000
100000
000000
001000
000100
000001
001000
,
000000
000000
001000
000100
100000
000010
100000
000001
,
100000
000000
001000
000000
100000
000000
001000
000100
,
000000
000001
000000
001000
000000
000100
100000
000000
,
100001
000000
100000
001000
000100
000001
000000
000000
,
100001
000000
000000
000000
000000
000010
000000
010010
,
000000
000000
010000
001000
000100
000000
000000
010010
,
000000
000000
000010
001000
000100
000000
000000
100001
,
000000
000000
100000
001000
000100
000000
000000
100001
,
000000
000000
000001
001000
000100
000000
100000
001000
,
000001
001000
000000
000001
000100
000001
000000
000100
,
100000
000100
000000
100000
001000
100000
000000
101000
,
000000
001000
010000
000000
,
010000
000010
000100
001100
,
001000
000000
100000
000000
000100
100000
000000
100100
,
000000
000000
000100
100000
000001
000000
000100
000000
,
000001
000000
100000
000000
000001
000100
000000
000101
,
000000
000000
000100
000001
100000
000000
000000
000000
,
100001
000000
100000
000000
001000
000100
000000
001100
,
000000
000000
000100
000001
100000
000000
000100
000000
,
100000
000000
001000
000000
000100
000001
000000
000001
,
100000
000100
001000
000001
000100
001000
100000
000000
;

//---------------dance-solo - ----------------
#NOTES:
     dance-solo:
     :
     Easy:
     3:
     0.193,0.231,0.081,0.000,0.000:
000000
000000
000000
000000
,
000000
000000
000000
000000
,
000000
000000
000000
000000
,
000000
000000
000000
000000
,
000000
100000
001000
000100
,
001000
100000
001000
000010
,
001000
100000
001000
000001
,
001000
100000
000100
001000
,
100001
000000
100000
001000
,
000100
000000
000100
000001
,
100000
000000
100000
001000
,
000010
000000
000010
000001
,
001000
000000
001000
000001
,
010000
000000
010000
000000
,
010010
000000
000010
100000
,
000100
000000
000000
000000
,
100000
000000
001000
000100
,
000001
000000
000001
001000
,
100000
000000
100000
001000
,
000010
000000
000010
100000
,
001000
000000
001000
100000
,
000001
000000
000000
000001
,
010000
000000
010000
000010
,
000100
000000
000000
000000
000000
000000
000000
100010
,
000000
000000
100000
000000
000001
000000
000000
010001
,
000000
000000
000001
000000
100000
000000
000000
100100
,
000000
000000
100000
000000
000001
000000
000000
000101
,
000000
000001
001000
000100
,
100000
100000
001000
001000
,
000001
000001
000100
000100
,
100000
001000
100000
000000
,
100000
001000
000010
001000
,
100000
000001
100000
000000
,
100000
001000
100000
001000
,
000010
000010
000010
000000
,
000001
001000
000001
001000
,
010000
000000
010000
000000
,
001000
000000
001000
000000
,
000010
000000
000010
000000
,
100000
000001
100000
100001
;

//---------------dance-couple - ----------------
#NOTES:
     dance-couple:
     :
     Hard:
     7:
     0.738,0.740,1.000,0.000,0.023:
00000000
00000000
00000000
00000000
,
00000000
00000000
00000000
00000000
,
00000000
00000000
00000000
00000000
,
00000000
00000000
00000000
00000000
,
00000000
10000000
01000000
00010000
00000000
00010000
01000000
10000000
,
00011000
00000001
00000100
00001000
00000000
00001000
00000100
00000001
,
00011000
10000000
01000000
00100000
00000000
00100000
01000000
10000000
,
00000000
00000001
00000100
00000010
00000000
00000010
00000100
00000001
,
10011001
00000000
01000100
00000000
10001000
00100000
01000010
00010000
,
00001000
00100000
00000100
00010000
01000001
10000000
01000010
00010000
,
00001000
00000000
10011100
00000000
00011000
01000000
00100010
10000000
,
00000100
00000000
10000000
00000000
00010001
00000000
10000000
00000000
01000010
00000000
00010000
00000000
01001000
00000000
00000000
01000100
,
10000001
00000000
10011001
00000000
10000001
01000000
00100100
00010000
,
00000010
00110000
00001000
00010000
01000100
10000000
00000001
00000000
,
11000001
00000100
10000010
01001000
00010001
10000100
00011000
00100010
,
10000001
00000000
00100100
00000000
00010010
00000000
10001000
10000000
,
10011001
00000000
10000000
00000000
01000001
00000100
00010010
00001000
,
00100000
00001001
10000000
00001000
01000010
00001000
00100100
00000001
,
00010100
00000000
01010101
00000000
00010001
00000100
01000010
00001000
,
00100000
00000000
00001000
00000000
10000001
00000000
00000100
00000000
01001000
00000000
00000001
00000000
00011000
00000000
00000000
00101000
,
10000010
00000000
10101010
00000000
10001000
00000100
01001000
00000010
,
00100000
00000010
00010100
00000001
01000000
00000001
10001000
00000000
,
00101001
00010000
01000001
00100100
10000010
01001000
00100001
00011000
,
10000010
00100001
00010010
00000000
00011000
01000100
10000001
10011001
,
00000000
10000001
01000100
00011000
00011000
00000000
00000000
10011001
,
00000000
10000001
01000100
00011000
00011000
01000100
00000000
10011001
,
00000000
10000001
00100010
00011000
00011000
01000100
10000001
10011001
,
00000000
10000001
01000100
00011000
00011000
00100010
10000001
10011001
,
00000000
10011001
00000000
01011100
00000000
01011100
00000000
00111010
,
00000000
00111010
00000000
10100011
00000000
10100011
00000000
11000101
,
00000000
00000000
00000000
10000001
01000100
00000000
00000000
01000100
00100010
00000000
00010000
00000000
10001001
00000000
01000000
00000000
,
00000001
01000000
10001000
00100000
00000001
10000100
01001000
00010100
,
01000001
00000100
10000001
00000100
00100001
01000100
00000001
01100100
,
00000001
01000100
00011000
10000100
01001000
00000100
00011000
00000100
,
01001000
00000010
10001000
00000010
00101000
01000010
00001000
01100010
,
00000001
01000010
00010001
00100010
01000001
00000010
01000001
01000010
,
10000100
01001000
10000100
01000000
10000000
01001000
10000010
01001000
,
00010000
01000010
00010001
01000010
00010000
01000001
00010100
01000001
,
00010000
00100100
00011000
00100100
00010000
00101000
00010010
00101000
,
10000000
01001010
00100000
00010011
10000000
10001001
10010000
00000000
;

//---------------dance-couple - ----------------
#NOTES:
     dance-couple:
     :
     Medium:
     5:
     0.535,0.647,1.000,0.000,0.000:
00000000
00000000
00000000
00000000
,
00000000
00000000
00000000
00000000
,
00000000
00000000
00000000
00000000
,
00000000
00000000
00000000
00000000
,
00000000
10000000
00001000
01000000
00000100
00010000
00000001
00010000
,
00000001
01000000
00000100
10000000
00001000
10000000
00000010
00100000
,
00000001
00010000
00000001
00010000
00000010
00100000
00001000
10000000
,
00000001
00010000
00001000
10000000
00000100
01000000
00000010
00100000
,
00011001
00000000
01000000
00000000
00011000
00000100
01001000
00000000
,
00010010
00000000
01000100
00000000
00010001
00000100
01000001
00000000
,
00010101
00000000
00100000
00000000
01000001
00000100
00100010
00000000
,
01001000
00000000
10000100
00000000
00100001
00000100
10001000
00000000
,
00101100
00000000
01000000
00000000
10001000
00000010
01000100
00000001
,
10000000
00000100
01000000
00000100
00100000
00000001
01001000
00000000
,
00011001
00000000
01001000
00000000
10000100
00000010
01000001
00000000
,
00010011
00100000
10000000
00100000
,
10010101
00000000
10000100
00000000
00010001
01000000
00010100
00000000
,
10000001
00000000
00101000
00000000
10000001
01000000
10001000
00000000
,
00100010
00000000
10001000
00000000
00010010
01000000
00101000
00000000
,
10000100
00000000
01001000
00000000
10000100
00100000
01001000
00000000
,
01010100
00000000
00000001
00000000
01000100
00010000
10000001
00100000
,
00000100
10000000
00000010
00010000
00000100
01000000
00010010
00000000
,
00110100
00000000
00011000
00100000
01000100
00000000
10000001
00000000
,
10100100
00000000
10001000
00000000
01000010
00100000
00000000
01101010
,
00000000
00100010
00011000
00011000
00100010
00000000
00000000
00111010
,
00000000
00011000
01000100
00011000
00011000
01000100
00000000
01100110
,
00000000
00100010
10000001
01000100
00011000
00011000
01000100
10000001
,
00000000
10000001
00100010
00011000
00011000
00100010
10000001
00011000
,
00000000
00011000
00000000
10000001
00000000
10000001
00000000
00100010
,
00000000
00100010
00000000
10000001
00000000
10000001
00000000
01000100
,
00000000
00011000
00011000
00000000
,
00000100
00000000
00000001
00000000
00000010
01000000
00000100
00000000
,
10001001
00000000
01000000
00000000
00100000
00001000
01000000
00000100
,
10000000
00001000
00100001
00001000
01000100
00000000
00100000
00000000
,
10001000
00000000
01000000
00000000
00100000
00000001
01000000
00000100
,
10000000
00000001
00101000
00000001
01000100
00000000
00100000
00000000
,
10011001
00000000
00000001
00000000
00000100
10000000
00000010
01000000
,
00000100
10000000
00010001
10000000
01000010
00000000
00000100
00000000
,
10000010
00000000
00000001
00000000
00000100
00010000
00000010
10000000
,
00000100
00010000
01000001
00010000
10000010
01000000
00000100
00000000
;

//---------------dance-single - ----------------
#NOTES:
     dance-single:
     :
     Beginner:
     1:
     0.095,0.139,0.047,0.000,0.000:
0000
0000
0000
0000
,
0000
0000
0000
0000
,
0000
0000
0000
0000
,
0000
0000
0000
0000
,
0000
0000
0000
0000
,
1000
0000
0000
0000
,
0001
0000
0000
0000
,
0000
0000
0000
0000
,
1001
0000
1000
0000
,
1000
0000
1000
0000
,
0100
0000
0001
0000
,
0001
0000
0001
0000
,
0100
0000
1000
0000
,
0001
0000
1000
0000
,
1001
0000
0000
0000
,
0010
0000
0000
0000
,
1000
0000
0001
0000
,
0001
0000
0001
0000
,
0100
0000
1000
0000
,
1000
0000
1000
0000
,
0100
0000
0001
0000
,
1000
0000
0001
0000
,
1001
0000
0000
0000
,
0010
0000
0000
0000
,
1000
0000
0000
0000
,
0001
0000
0000
0000
,
0010
0000
0000
0000
,
0100
0000
0000
0000
,
1000
0000
1000
0000
,
0010
0000
1000
0000
,
0100
0000
0010
0000
,
0001
0000
0001
0000
,
1001
0000
0000
0000
,
0001
0000
0000
0000
,
0000
0000
0000
0000
,
1000
0000
0000
0000
,
0000
1000
0000
0100
,
0000
0001
0000
0100
,
0000
1000
0000
0010
,
0000
0001
0000
0010
;

//---------------dance-couple - ----------------
#NOTES:
     dance-couple:
     :
     Easy:
     4:
     0.362,0.624,0.802,0.000,0.000:
00000000
00000000
00000000
00000000
,
00000000
00000000
00000000
00000000
,
00000000
00000000
00000000
00000000
,
00000000
00000000
00000000
00000000
,
00000000
10001000
00000100
01000001
,
00000100
00101000
00000010
01000001
,
00000010
00101000
00000100
00010001
,
00000100
10001000
00000010
00011000
,
10011001
01000001
10000000
01000001
,
00100000
00010001
00100000
00010001
,
01000000
00010001
01000000
00010001
,
00100000
01000001
00100000
01000001
,
10000000
00100001
10000000
00100001
,
10000000
00010001
10000000
00010001
,
00100000
01000001
10000000
00010001
,
00110000
00000001
00000000
00000001
,
10011001
10000001
00000100
10000001
,
00000100
10000010
00001000
10000010
,
00001000
10000100
00001000
10000100
,
00000010
10000001
00000010
10000001
,
00000100
10000001
00000100
10000001
,
00000100
10000010
00000100
10000010
,
00001000
10000100
00000010
10000001
,
00000100
00000000
10000010
00000000
00001000
00010000
00000000
11001100
,
00000000
00000000
01000100
00000000
00011000
00000000
00000000
01011100
,
00000000
00000000
00011000
00000000
01000100
00000000
00000000
10101010
,
00000000
00000000
00100010
00000000
00011000
00000000
00000000
00111010
,
00000000
00000000
00011000
00000000
00100010
00000000
01000100
00000001
,
11000000
00000001
11000000
00001000
01010000
00001000
01010000
00000010
,
10100000
00000010
10100000
00000100
00110000
00000100
00110000
00001001
,
10010000
01001000
00100010
00000000
,
00010100
01000000
10000100
01000000
,
00011000
00000000
00010000
00000000
00000000
00001000
00000000
00010000
,
00000000
00001000
00010000
00000000
,
00000000
00000000
00000100
00000000
00000000
01000000
00000000
00000100
,
00000000
01000000
00000100
00000000
,
00000000
00000000
10000000
00000000
00000000
00000001
00000000
10000000
,
00000000
00000001
10000000
00000000
,
00000000
00000000
00000010
00000000
00000000
00100000
00000000
00000010
,
00000000
00100000
00000010
00011000
;
