#VERSION:0.83;
#TITLE:Tomadoi Mischief;
#SUBTITLE:;
#ARTIST:nakinyko;
#TITLETRANSLIT:;
#SUBTITLETRANSLIT:;
#ARTISTTRANSLIT:;
#GENRE:;
#ORIGIN:;
#CREDIT:;
#BANNER:[Girls Week] - Tomadoi Mischief-bn.png;
#BACKGROUND:[Girls Week] - Tomadoi Mischief-bg.png;
#PREVIEWVID:;
#JACKET:[Girls Week] - Tomadoi Mischief-jacket.png;
#CDIMAGE:;
#DISCIMAGE:;
#LYRICSPATH:;
#CDTITLE:cdtitle.png;
#MUSIC:[Girls Week] - Tomadoi Mischief.ogg;
#OFFSET:-0.889000;
#SAMPLESTART:70.889999;
#SAMPLELENGTH:14.000000;
#SELECTABLE:YES;
#DISPLAYBPM:81.000000;
#BPMS:0.000=81.000,
32.000=80.940,
48.000=80.970,
64.000=81.070,
80.000=80.940,
95.000=81.200,
111.000=81.100,
127.000=81.060;
#STOPS:94.000=0.742;
#DELAYS:;
#WARPS:;
#TIMESIGNATURES:0.000=4=4;
#TICKCOUNTS:0.000=4;
#COMBOS:0.000=1;
#SPEEDS:0.000=1.000=0.000=0;
#SCROLLS:0.000=1.000;
#FAKES:;
#LABELS:0.000=Song Start;
#BGCHANGES:;
#KEYSOUNDS:;
#ATTACKS:
;

//---------------dance-single - ----------------
#NOTEDATA:;
#CHARTNAME:;
#STEPSTYPE:dance-single;
#DESCRIPTION:;
#CHARTSTYLE:;
#DIFFICULTY:Challenge;
#METER:9;
#RADARVALUES:0.514802,0.477117,0.175229,0.015237,0.742818,473.000000,450.000000,23.000000,2.000000,0.000000,0.000000,0.000000,0.000000,0.000000,0.514802,0.477117,0.175229,0.015237,0.742818,473.000000,450.000000,23.000000,2.000000,0.000000,0.000000,0.000000,0.000000,0.000000;
#CREDIT:;
#DISPLAYBPM:81.000000;
#NOTES:
0000
0000
0000
0000
,
0000
0000
0000
0000
,
0000
0000
0000
0000
,
0000
0000
0000
0000
,
0001
0000
0100
0000
0001
1000
0000
0100
0000
0100
0000
1000
0010
0100
0010
0100
,
0001
0010
0100
0010
0001
0100
0001
0100
0010
1000
0100
0010
0100
1000
0001
1000
,
0100
0000
0010
0000
0100
1000
0000
0001
0000
0001
0000
1000
0010
0100
0010
0100
,
0001
0100
0001
1000
0100
1000
0010
0100
0010
1000
0100
0010
0100
1000
0001
0010
,
0001
0000
0100
0000
0101
0000
0001
1000
0001
0000
1000
0010
1000
0000
0010
0000
,
0100
0001
0100
0010
1000
0001
1000
0100
0010
0100
1000
0001
0010
0001
0100
0010
,
1000
0000
0010
0000
1010
0000
1000
0001
0000
0001
0010
0000
0011
0000
0001
0000
,
0100
0000
0010
1000
0000
1001
0000
0001
0100
0001
1000
0100
0010
0100
1000
0001
,
0010
0000
0001
0000
0101
0000
0001
1000
0001
0000
1000
0000
0100
0000
1000
0000
,
0010
0100
0010
1000
0001
0100
0010
0100
0001
1000
0100
1000
0001
0010
0001
0100
,
0010
0000
1000
0000
1010
0000
0010
0100
0000
0000
0100
0001
0100
0000
0001
0000
,
1000
0100
1000
0001
0000
1001
0000
0001
0010
0100
0010
0001
1000
0100
0010
0100
,
1000
0000
0000
1000
0001
0000
0000
0001
0100
0000
0100
0010
0100
0000
0010
1000
,
0001
0100
0001
0100
0010
1000
0100
0010
0100
0010
0001
1000
0000
1000
0010
0100
,
0001
0000
0100
0000
0101
0000
0010
1000
0000
1000
0001
0000
0010
0000
0100
0000
,
0010
0001
1000
0100
0000
0100
0000
1000
0001
0010
0100
0010
0100
1000
0001
1000
,
0100
0000
0000
0010
0001
0000
0001
1000
0001
0000
0100
0001
0100
0000
0010
1000
,
0001
1000
0100
0010
0001
1000
0001
0010
0100
0010
0001
0100
0000
0100
0001
0010
,
0100
0000
1000
0000
1001
0000
0001
0100
0000
0100
0001
0000
1000
0000
0010
0100
,
0001
0010
0001
0010
0100
1000
0100
1000
0001
0000
0000
0000
1010
0000
0010
0100
,
0001
0000
0001
1000
0010
1000
0100
0010
0000
0001
0000
0001
0100
0010
0001
0010
,
0100
0001
0010
0100
1000
0010
0100
0010
0000
0100
0001
0100
0010
0000
1000
0000
,
1001
0000
0001
0010
0000
0010
0100
0000
1100
0000
1000
0000
0010
0100
1000
0100
,
0010
0100
0001
0010
0100
0010
0001
1000
0100
0010
0000
0010
0011
0000
0001
1000
,
0010
0000
0010
0100
0001
1000
0100
0010
0000
0001
0000
0001
1000
0010
1000
0001
,
0100
0010
0001
0010
0100
0001
1000
0100
0010
0100
1000
0001
1000
0000
0010
0000
,
1010
0000
1000
0001
0000
0001
0010
0000
0110
0000
0100
0000
0010
0001
0010
0100
,
1000
0010
0100
1000
0100
0010
1000
0001
0100
0010
0100
0001
1000
0000
0100
0000
,
1100
0000
0001
0100
0001
0100
0010
0000
1010
0000
1000
0100
1000
0010
0100
0010
,
1000
0001
0010
0100
1000
0001
1000
0100
0000
0100
1000
0010
0100
0000
0001
0000
,
0101
0000
0010
1000
0000
1000
0100
0000
1100
0000
1000
0000
0010
0100
0010
0100
,
0001
1000
0010
1000
0100
0010
0100
1000
0010
0100
0001
0100
0001
0000
0010
0000
,
0011
0000
0001
1000
0001
0000
0100
0000
0101
0000
0010
1000
0010
0100
1000
0100
,
0001
0100
0001
0010
0100
0010
0100
1000
0010
0100
0001
1000
0100
0000
1000
0000
,
1010
0000
0010
0100
0010
0000
0100
0000
0101
0000
0001
0000
1000
0100
0010
0100
,
1000
0010
1000
0100
0010
0001
0100
0010
0100
0001
1000
0020
0200
0000
0000
0000
,
0000
0000
0000
0000
,
0000
0000
0000
0330
;

//---------------dance-single - ----------------
#NOTEDATA:;
#CHARTNAME:;
#STEPSTYPE:dance-single;
#DESCRIPTION:;
#CHARTSTYLE:;
#DIFFICULTY:Hard;
#METER:7;
#RADARVALUES:0.314541,0.302174,0.243797,0.015237,0.087614,289.000000,257.000000,32.000000,2.000000,0.000000,0.000000,0.000000,0.000000,0.000000,0.314541,0.302174,0.243797,0.015237,0.087614,289.000000,257.000000,32.000000,2.000000,0.000000,0.000000,0.000000,0.000000,0.000000;
#CREDIT:;
#DISPLAYBPM:81.000000;
#NOTES:
0000
0000
0000
0000
,
0000
0000
0000
0000
,
0000
0000
0000
0000
,
0000
0000
0000
0000
,
0010
0000
1010
0000
0100
0100
0101
0000
,
0001
0010
0001
0001
1000
0100
1000
0010
,
0100
0000
0101
0000
0010
0010
1010
0000
,
1000
0100
0010
0010
0100
1000
0010
0100
,
0001
0000
0101
0000
1000
1000
1100
0100
,
1000
0010
1000
0001
0100
0001
0001
0010
,
0100
0000
1100
0000
0010
0010
0011
0001
,
0100
0000
0010
1000
0000
0001
0000
0001
0100
0000
0001
0000
0010
0000
0100
0000
,
1000
0000
1100
0000
0001
0001
0101
0100
,
0001
0010
0001
1000
1000
0010
1000
0100
,
0010
0000
0011
0000
0100
0100
1100
1000
,
0010
0000
0100
0001
0000
1000
0000
1000
0100
0000
1000
0000
0001
0000
0100
0000
,
0010
0000
0000
0010
1000
0000
0000
1000
0001
0000
0010
0000
0010
0000
0001
0000
,
0100
0010
0001
0010
0100
0001
0010
0100
,
0100
0000
0000
0000
1100
0000
0000
1000
0000
1000
0001
0000
0010
0000
0001
0000
,
0100
0010
0100
0001
1000
0100
0010
0100
,
0100
0000
0000
0100
1000
0000
0000
1000
0001
0000
0100
0000
0100
0000
0001
0000
,
0010
0100
1000
0100
0010
0001
0100
0010
,
0010
0000
0000
0000
1010
0000
0000
1000
0000
1000
0001
0000
0100
0000
0001
0000
,
1000
0000
0100
0000
0001
0000
0100
0000
1000
0000
0000
0000
1001
0000
0000
0001
,
0100
0000
0000
0100
0001
0000
0010
0000
0100
0000
0000
0000
1000
0000
0100
0000
,
1000
0001
0010
0010
0001
0100
0010
0000
,
1010
0000
0100
0100
0101
0000
0001
1000
,
0001
0000
0010
0000
0100
0000
0100
0000
1000
0000
0100
0000
0011
0000
0000
0001
,
1000
0000
0000
1000
0010
0000
0010
0000
0100
0000
0000
0000
0010
0000
1000
0000
,
0010
0100
0001
0001
0010
0100
1000
0000
,
1100
0000
0001
0001
0011
0010
0001
0100
,
0001
0010
0100
1000
0010
0100
0110
0000
,
1010
0000
0100
0100
0101
0001
0010
0100
,
0010
0100
1000
1000
0100
0010
0011
0000
,
1001
1000
0010
1000
0001
0010
0100
1000
,
0100
1000
0001
0001
0100
0010
1010
0000
,
0101
0000
1000
1000
1100
0100
0010
0001
,
0010
0001
0100
0100
0010
1000
1001
0000
,
0011
0000
0110
0100
0010
0000
0001
0100
,
0010
0000
0100
0001
0000
0001
0000
1000
0000
1000
0000
2002
0000
0000
0000
0000
,
0000
0000
0000
0000
,
0000
0000
0000
3003
;

//---------------dance-single - ----------------
#NOTEDATA:;
#CHARTNAME:;
#STEPSTYPE:dance-single;
#DESCRIPTION:;
#CHARTSTYLE:;
#DIFFICULTY:Medium;
#METER:4;
#RADARVALUES:0.243797,0.254463,0.129517,0.015237,0.000000,224.000000,207.000000,17.000000,2.000000,0.000000,0.000000,0.000000,0.000000,0.000000,0.243797,0.254463,0.129517,0.015237,0.000000,224.000000,207.000000,17.000000,2.000000,0.000000,0.000000,0.000000,0.000000,0.000000;
#CREDIT:;
#DISPLAYBPM:81.000000;
#NOTES:
// measure 0
0000
0000
0000
0000
,  // measure 1
0000
0000
0000
0000
,  // measure 2
0000
0000
0000
0000
,  // measure 3
0000
0000
0000
0000
,  // measure 4
0010
0000
1000
0000
0001
0000
0100
0100
,  // measure 5
0001
0001
0010
0000
0100
0100
1000
0100
,  // measure 6
0010
0000
0001
0000
1000
0000
0100
0100
,  // measure 7
1000
0010
1000
0000
0001
0100
0001
0100
,  // measure 8
0010
0000
1010
0000
1000
1000
0001
0000
,  // measure 9
0010
0010
0100
0100
1000
0000
0001
1000
,  // measure 10
0001
0000
0101
0000
0100
0100
0010
0000
,  // measure 11
0010
0010
0100
0100
0001
0001
0010
0001
,  // measure 12
0100
0000
0101
0000
0001
0001
1000
0000
,  // measure 13
0100
0100
0010
0010
0001
0000
1000
0001
,  // measure 14
1000
0000
1010
0000
0010
0010
0100
0000
,  // measure 15
0001
0001
0010
0010
0100
0100
1000
0010
,  // measure 16
0100
0001
1000
0010
,  // measure 17
0100
0001
0100
0000
0001
1000
0001
0000
,  // measure 18
1000
0100
0010
0001
,  // measure 19
1000
0010
1000
0000
0001
0010
0001
0010
,  // measure 20
0100
1000
0001
0010
,  // measure 21
0100
1000
0100
0000
0010
0001
0010
0000
,  // measure 22
0001
0100
0010
1000
,  // measure 23
0100
0010
0100
0010
0100
0000
1000
0000
,  // measure 24
1100
0000
0001
0000
0101
0000
0001
0100
,  // measure 25
0001
0000
1000
0100
1000
0000
0010
0100
,  // measure 26
0001
0000
1000
0100
0010
0000
0100
1000
,  // measure 27
0100
1000
0001
0010
0001
0000
1000
0000
,  // measure 28
1010
0000
0001
0000
0011
0000
1000
0010
,  // measure 29
1000
0000
0001
0010
0001
0000
1000
0010
,  // measure 30
0100
0000
0001
0010
0100
1000
0001
0100
,  // measure 31
0001
0100
0010
1000
0010
0000
1010
0000
,  // measure 32
1010
0000
1000
0010
1000
0000
0001
0100
,  // measure 33
0001
0000
0010
0001
0010
0000
0011
0000
,  // measure 34
0011
0000
0001
0010
0001
0000
1000
0010
,  // measure 35
1000
0000
0100
1000
0100
0000
1100
0000
,  // measure 36
1100
0000
1000
0100
1000
0000
0010
1000
,  // measure 37
0010
0000
0100
0001
0100
0000
0101
0000
,  // measure 38
0101
0000
0001
0100
0001
0000
1000
0100
,  // measure 39
1000
0000
0001
1000
0001
1000
2002
0000
,  // measure 40
0000
0000
0000
0000
,  // measure 41
0000
0000
0000
3003
;

//---------------dance-single - ----------------
#NOTEDATA:;
#CHARTNAME:;
#STEPSTYPE:dance-single;
#DESCRIPTION:;
#CHARTSTYLE:;
#DIFFICULTY:Easy;
#METER:2;
#RADARVALUES:0.127340,0.159039,0.038093,0.015237,0.000000,117.000000,112.000000,5.000000,2.000000,0.000000,0.000000,0.000000,0.000000,0.000000,0.127340,0.159039,0.038093,0.015237,0.000000,117.000000,112.000000,5.000000,2.000000,0.000000,0.000000,0.000000,0.000000,0.000000;
#CREDIT:;
#DISPLAYBPM:81.000000;
#NOTES:
// measure 0
0000
0000
0000
0000
,  // measure 1
0000
0000
0000
0000
,  // measure 2
0000
0000
0000
0000
,  // measure 3
0000
0000
0000
0000
,  // measure 4
0010
0010
0100
0100
,  // measure 5
0001
0000
0001
0000
,  // measure 6
0010
0010
0100
0100
,  // measure 7
1000
0000
1000
0000
,  // measure 8
0001
0000
0101
0001
,  // measure 9
1000
1000
0010
0010
,  // measure 10
1000
0000
1100
0100
,  // measure 11
1000
0100
0010
0001
,  // measure 12
1000
0000
1010
0010
,  // measure 13
1000
1000
0100
0100
,  // measure 14
0010
0000
0011
0001
,  // measure 15
1000
0010
0100
0001
,  // measure 16
1000
0000
1000
0000
,  // measure 17
0100
0100
0010
0010
,  // measure 18
0001
0000
0001
0000
,  // measure 19
0100
0100
0010
0010
,  // measure 20
1000
0000
1000
0000
,  // measure 21
0100
0010
0100
0010
,  // measure 22
0001
0000
0001
0000
,  // measure 23
0100
0010
0100
0001
,  // measure 24
0001
1000
1000
0100
,  // measure 25
0000
0100
0000
1000
,  // measure 26
1000
0001
0001
0100
,  // measure 27
0100
0010
0010
1000
,  // measure 28
1000
0001
0001
0010
,  // measure 29
0000
0010
0000
0001
,  // measure 30
0001
1000
1000
0010
,  // measure 31
0010
0100
0010
1000
,  // measure 32
0000
1000
0000
0100
,  // measure 33
0000
0100
0000
0010
,  // measure 34
0000
0010
0000
0001
,  // measure 35
0001
0001
0001
1000
,  // measure 36
0000
1000
0000
0010
,  // measure 37
0000
0010
0000
1000
,  // measure 38
0000
1000
0000
0001
,  // measure 39
0001
1000
1000
2002
,  // measure 40
0000
0000
0000
0000
,  // measure 41
0000
0000
0000
3003
;
