#TITLE:Tears;
#SUBTITLE:;
#ARTIST:Clean Bandit feat. Louisa Johnson;
#TITLETRANSLIT:;
#SUBTITLETRANSLIT:;
#ARTISTTRANSLIT:;
#GENRE:;
#CREDIT:;
#BANNER:[Girls Week] - Tears.png;
#BACKGROUND:[Girls Week] - Tears-bg.png;
#LYRICSPATH:[Girls Week] - Tears.lrc;
#CDTITLE:cdtitle.png;
#MUSIC:[Girls Week] - Tears.ogg;
#OFFSET:0.000000;
#SAMPLESTART:97.836273;
#SAMPLELENGTH:14.769226;
#LASTBEATHINT:276.000000;
#SELECTABLE:YES;
#BPMS:0.000000=130.000000
,164.000000=65.000000
,170.000000=130.000000
,268.000000=65.000000
;
#STOPS:170.000000=0.923000
;
#BGCHANGES:;
#KEYSOUNDS:;
#ATTACKS:;

//---------------dance-single - ----------------
#NOTES:
     dance-single:
     C 01 X 02:
     Beginner:
     1:
     0.078427,0.125124,0.051239,0.102478,0.000000,75.000000,68.000000,7.000000,14.000000,0.000000,0.000000,0.078427,0.125124,0.051239,0.102478,0.000000,75.000000,68.000000,7.000000,14.000000,0.000000,0.000000:
0000
0000
0000
0000
,
0000
0000
0000
0000
,
0000
0000
0000
0000
,
0000
0000
0000
0000
,
0000
0000
0000
0000
,
0000
0000
0000
0000
,
0000
0000
0000
0000
,
0000
0000
0000
0000
,
0000
0000
0000
0000
,
1001
0000
0000
0000
,
1000
0000
1000
0000
,
0001
0000
0000
0000
,
0001
0000
0001
0000
,
0010
0000
0000
0000
,
0010
0000
0000
0000
,
0100
0000
0000
0000
,
0100
0000
0000
0000
,
1000
0000
0000
0000
,
1000
0000
0000
0000
,
0001
0000
0000
0000
,
0001
0000
0000
0000
,
1000
0000
0000
0000
,
0010
0000
0000
0000
,
1000
0000
0000
0000
,
0001
0000
0000
0000
,
0100
0000
0000
0000
,
0001
0000
0000
0000
,
0010
0000
0000
0000
,
0100
0000
0000
0000
,
0020
0000
0030
0000
,
0020
0000
0030
0000
,
0020
0000
0000
0000
,
0030
0000
0000
0000
,
0200
0000
0300
0000
,
0200
0000
0300
0000
,
2000
0000
0000
0000
,
0000
0000
3000
0000
,
1001
0000
0000
0000
,
0001
0000
0000
0000
,
1000
0000
1000
0000
,
0010
0000
0000
0000
,
0020
0000
0030
0000
,
0200
0000
0300
0000
,
0110
0000
0000
0000
,
0100
0000
0100
0000
,
0001
0000
0000
0000
,
0001
0000
0001
0000
,
1000
0000
0000
0000
,
1000
0000
1000
0000
,
0010
0000
0010
0000
,
1000
0000
0000
0000
,
1001
0000
0000
0000
,
0001
0000
0000
0000
,
0010
0000
0000
0000
,
0100
0000
0000
0000
,
0220
0000
0000
0000
,
0330
0000
0000
0000
,
0001
0000
0010
0000
,
0001
0000
0000
0000
,
1001
0000
0000
0000
,
1000
0000
0010
0000
,
1000
0000
0000
0000
,
0001
0000
1000
0000
,
2002
0000
0000
3003
,
0000
0000
0000
0000
,
1000
0000
0100
0000
,
0010
0000
0001
0000
,
2000
0000
0000
3000
0000
0000
0000
0000
,
0002
0000
0000
0003
0000
0000
0000
0000
;

//---------------dance-single - ----------------
#NOTES:
     dance-single:
     C 02 X 04:
     Easy:
     2:
     0.150580,0.200198,0.073198,0.139077,0.000000,144.000000,134.000000,10.000000,19.000000,0.000000,0.000000,0.150580,0.200198,0.073198,0.139077,0.000000,144.000000,134.000000,10.000000,19.000000,0.000000,0.000000:
0000
0000
0000
0000
,
0000
0000
0000
0000
,
0000
0000
0000
0000
,
0000
0000
0000
0000
,
0000
0000
0000
0000
,
0000
0000
0000
0000
,
0000
0000
0000
0000
,
0000
0000
0000
0000
,
0000
0000
0000
0000
,
0000
1000
0000
1000
,
0000
0010
0000
0100
,
0000
0001
0000
0001
,
0000
0010
0000
0100
,
0100
0000
0000
1000
,
0000
1000
0000
0001
,
0001
0000
0000
0100
,
0000
0100
0000
0010
,
0010
0000
0000
1000
,
0000
1000
0000
0001
,
0001
0000
0000
0010
,
0000
0010
0000
0001
,
0002
0000
0000
0000
,
0203
0000
0000
0310
,
0020
0000
0000
0000
,
2030
0000
0000
0001
,
3001
0000
0010
0000
,
0100
0000
1000
0000
,
0100
0000
0010
0000
,
0001
0000
1000
0000
,
0002
0000
0013
0000
,
0020
0000
0130
0000
,
0200
0000
1300
0000
,
2000
0000
3001
0000
,
0002
0000
0103
0000
,
0200
0000
0310
0000
,
0020
0000
2030
0000
,
3010
0010
1000
0000
,
1010
0000
0010
1000
,
0010
0000
1000
0010
,
1000
0000
0001
0100
,
0001
0000
0100
0001
,
0200
0000
0302
0000
,
0023
0000
0030
0000
,
0011
0000
0001
0000
,
0010
0001
0010
0000
,
0100
0000
1000
0000
,
1100
0000
0001
0000
,
0101
0000
0100
0000
,
0010
0000
0100
0000
,
0001
1000
0001
1000
,
0002
0000
2000
3003
,
1001
0000
0001
0010
,
0001
0000
1000
0100
,
1000
0000
0001
0000
,
1001
0000
0100
0000
,
0110
0000
0001
1000
,
0001
0000
0010
0100
,
0010
0000
0001
1000
,
0001
0000
0100
0000
,
0110
0000
0001
1000
,
0010
0000
1000
0001
,
0010
0000
0001
0000
,
0011
0000
1000
0000
,
1010
0010
0000
0010
,
0000
1000
0001
1000
,
0000
0100
0000
0100
,
1000
0100
0010
0001
,
2000
0000
0000
3000
0000
0000
0000
0000
,
0002
0000
0000
0003
0000
0000
0000
0000
;

//---------------dance-single - ----------------
#NOTES:
     dance-single:
     C 05 X 08:
     Medium:
     5:
     0.260377,0.303041,0.124437,0.204956,0.054899,249.000000,232.000000,17.000000,28.000000,0.000000,0.000000,0.260377,0.303041,0.124437,0.204956,0.054899,249.000000,232.000000,17.000000,28.000000,0.000000,0.000000:
// measure 0
0000
0000
0000
0000
,  // measure 1
0000
0000
0000
0000
,  // measure 2
0000
0000
0000
0000
,  // measure 3
0000
0000
0000
0000
,  // measure 4
0000
0000
0000
0000
,  // measure 5
0000
0000
0000
0000
,  // measure 6
0000
0000
0000
0000
,  // measure 7
0000
0000
0000
0000
,  // measure 8
0000
0000
0000
0000
,  // measure 9
1000
1001
0001
1001
,  // measure 10
1000
0100
0010
0001
,  // measure 11
0100
0110
0010
0110
,  // measure 12
0100
0001
1000
0010
,  // measure 13
2000
0010
0000
3002
,  // measure 14
0000
0010
0000
1003
,  // measure 15
0002
0010
0000
2003
,  // measure 16
0000
0010
0000
3001
,  // measure 17
2000
0100
0000
3002
,  // measure 18
0000
0100
0000
1003
,  // measure 19
0002
0100
0000
2003
,  // measure 20
0000
0100
0000
3001
,  // measure 21
1000
0010
0100
0001
,  // measure 22
0100
0000
0010
0000
1000
0000
0001
0100
,  // measure 23
0001
0010
0100
1000
,  // measure 24
0100
0000
0010
0000
0001
0000
1000
0100
,  // measure 25
1000
0010
0100
0001
,  // measure 26
0010
0000
0100
0000
1000
0000
0001
0010
,  // measure 27
0001
0100
0010
1000
,  // measure 28
0100
0010
0002
0003
,  // measure 29
1000
0100
1000
0001
,  // measure 30
1000
0000
0000
0000
0100
0000
0000
0000
1000
0000
0000
0001
0000
0000
1000
0000
,  // measure 31
0001
0100
0001
1000
,  // measure 32
0001
0000
0000
0000
0100
0000
0000
0000
0001
0000
0000
1000
0000
0000
0001
0000
,  // measure 33
1000
0010
1000
0001
,  // measure 34
1000
0000
0000
0000
0010
0000
0000
0000
1000
0000
0000
0001
0000
0000
0010
0000
,  // measure 35
0100
1000
0010
0001
,  // measure 36
0010
0000
0000
1000
0000
0000
0001
0000
0100
0000
0001
0000
,  // measure 37
0101
0000
0100
0010
,  // measure 38
0110
0000
1000
0100
,  // measure 39
1100
0000
0001
1000
,  // measure 40
2002
3000
0200
0303
,  // measure 41
0020
0000
0000
2030
3200
0000
0000
0000
,  // measure 42
0320
0000
0030
0001
,  // measure 43
0011
0000
0000
0010
0000
0000
0100
0000
0010
0000
0000
0000
0001
0000
0000
0000
,  // measure 44
1000
0010
0100
0001
,  // measure 45
0010
0000
0000
0010
0000
0000
0100
0000
1000
0000
0000
0000
0010
0000
0000
0000
,  // measure 46
0110
0001
0010
0100
,  // measure 47
0110
0000
0000
0010
0000
0000
0001
0000
0100
0000
0000
0000
0001
0000
0000
0000
,  // measure 48
0010
0100
1000
0010
,  // measure 49
0100
0000
0000
0100
0000
0000
0001
0000
0100
0000
0000
0000
0010
0000
0000
0000
,  // measure 50
1000
0000
0000
0000
0001
0000
0000
0000
1000
0000
0000
0100
0000
0000
0010
0000
,  // measure 51
0110
0001
0100
0001
,  // measure 52
0020
0032
2003
3200
,  // measure 53
1300
0010
0100
0010
,  // measure 54
0101
0100
0001
0010
,  // measure 55
2200
0300
0001
3001
,  // measure 56
1000
0000
0000
0000
1000
0000
0000
0000
0001
0000
0000
0010
0000
0000
0001
0000
,  // measure 57
0100
0000
0000
0000
0100
0000
0000
0000
0010
0000
0000
1000
0000
0000
0010
0000
,  // measure 58
1000
0000
0000
0000
0100
0000
0000
0000
0001
0000
0000
0100
0000
0000
1000
0000
,  // measure 59
1100
1000
0010
1000
,  // measure 60
0100
0000
0000
0000
0010
0000
0001
0000
0010
0000
0000
0100
0000
0000
0010
0000
,  // measure 61
0001
0100
1000
0100
,  // measure 62
0101
0010
1000
0001
,  // measure 63
1100
0010
0001
0010
,  // measure 64
0001
0000
0000
0000
1000
0000
0010
0000
1000
0000
0000
0100
0000
0000
1000
0000
,  // measure 65
0001
0010
1000
0010
,  // measure 66
0002
0000
0103
0200
0000
0320
0000
0000
,  // measure 67
0000
0000
0000
2030
0000
0000
0000
0000
,  // measure 68
3002
0000
0000
0023
0000
0000
0000
0000
,  // measure 69
0030
0000
0000
0000
;

//---------------dance-single - ----------------
#NOTES:
     dance-single:
     C 08 X 12:
     Hard:
     8:
     0.428733,0.530322,0.153717,0.234235,0.395271,410.000000,389.000000,21.000000,32.000000,0.000000,0.000000,0.428733,0.530322,0.153717,0.234235,0.395271,410.000000,389.000000,21.000000,32.000000,0.000000,0.000000:
// measure 0
0000
0000
0000
0000
,  // measure 1
0000
0000
0000
0000
,  // measure 2
0000
0000
0000
0000
,  // measure 3
0000
0000
0000
0000
,  // measure 4
0000
0000
0000
0000
,  // measure 5
0000
0000
0000
0000
,  // measure 6
0000
0000
0000
0000
,  // measure 7
0000
0000
0000
0000
,  // measure 8
0000
0000
0000
0000
,  // measure 9
0101
0000
0000
0001
0010
0000
0100
0000
1000
0000
0000
0000
1010
0000
0000
0000
,  // measure 10
0010
0000
0000
0010
1000
0000
0001
0000
0100
0000
0000
0001
0000
0000
0100
0000
,  // measure 11
0010
0000
0000
0010
1000
0000
0001
0000
0010
0000
0000
0000
0011
0000
0000
0000
,  // measure 12
0001
0000
1000
0000
0000
0100
0000
0000
0001
0000
0000
0100
0000
0000
1000
0000
,  // measure 13
0001
0000
0000
0100
0000
0000
0010
0000
0000
0100
0000
0000
0001
0000
0000
0000
,  // measure 14
1000
0100
0010
0000
0010
0100
1000
0001
,  // measure 15
0100
0000
0000
0010
0000
0000
1000
0000
0000
0010
0000
0000
0100
0000
0000
0000
,  // measure 16
0001
0010
0100
0000
0100
0010
0001
1000
,  // measure 17
0100
0000
0000
0000
1000
0000
0010
0000
0000
0100
0000
0000
0100
0000
0000
0000
,  // measure 18
0010
1000
0100
0000
0010
0001
0100
0001
,  // measure 19
0100
0000
0000
0010
0000
0000
0001
0000
0000
0010
0000
0000
0100
0000
0000
0000
,  // measure 20
0010
0010
1000
0000
0010
1000
0001
0010
,  // measure 21
0200
0000
0000
0000
1000
0000
0010
0000
0000
0001
0000
0000
0010
0000
0000
2000
,  // measure 22
0300
0000
0000
0000
0010
0000
0000
3000
1000
0001
0000
0000
0001
0000
0100
0000
,  // measure 23
0020
0000
0000
0001
0000
0000
0100
0000
0000
1000
0000
0000
0100
0000
0000
0000
,  // measure 24
0032
0000
0000
0000
0023
0000
0000
0000
0130
0010
0000
0000
0010
0000
0010
0000
,  // measure 25
1000
0000
0000
0100
0000
0000
0001
0000
0000
1000
0000
0000
0010
0000
0000
0001
,  // measure 26
0000
0000
0100
0010
0000
0000
0100
1000
0000
0000
0100
0010
0000
0000
0100
0001
,  // measure 27
0000
0000
0010
0000
0001
0000
1000
0000
0010
0000
0000
0010
0000
0000
0100
0000
,  // measure 28
0001
0000
0000
1000
0001
0000
2000
0000
0200
0000
0000
0000
3300
0000
0000
0000
,  // measure 29
0100
0000
0100
0010
0000
0010
0001
1000
0001
1000
0000
0000
,  // measure 30
0010
0000
0010
1000
0000
1000
0001
0100
0001
0100
0000
0000
,  // measure 31
0001
0000
0001
0010
0000
0010
0100
1000
0100
1000
0000
0200
,  // measure 32
0000
0000
0000
0000
0320
0000
0000
0000
0031
0000
0000
1000
0000
0000
0010
0000
,  // measure 33
1000
0000
1000
0100
0000
0100
0001
0000
0001
0100
0000
1000
,  // measure 34
0000
0000
1000
0000
0000
0000
0010
0000
0000
0000
0010
0000
0001
0000
0000
0001
0000
0000
0010
0000
0000
0000
1000
0000
,  // measure 35
0000
1000
0000
0100
0000
0100
0001
0000
0001
0010
0000
0010
,  // measure 36
1000
0001
1000
0001
0000
0000
0100
0000
0010
0000
0100
0000
,  // measure 37
1001
0000
0000
0000
0001
0000
0000
0000
1000
0000
0000
0010
1000
0000
0001
0000
,  // measure 38
1100
0000
0000
0000
0010
0000
0000
0000
0001
1000
0000
1000
0001
0000
0100
0000
,  // measure 39
0101
0000
0000
0000
0001
0000
1000
0000
0100
0000
0000
0010
0001
0000
1000
0000
,  // measure 40
1010
0000
0000
0000
0000
0000
0010
0000
0000
0100
0000
0000
1000
0000
0000
0000
1000
0000
0001
0000
0000
0000
0001
0000
,  // measure 41
0020
0000
0000
2030
3200
0000
0000
0000
,  // measure 42
2300
0000
3000
0100
,  // measure 43
0011
0000
0000
0001
0100
0000
0010
0000
1000
0000
0000
0000
1100
0000
0000
0000
,  // measure 44
0001
0000
0000
1000
0000
0000
1000
0000
0010
0000
0000
0100
0000
0000
0010
0000
,  // measure 45
1000
0000
0000
1000
0001
0000
0010
0000
0001
0000
0000
0000
1000
0100
1000
0100
,  // measure 46
1000
0000
0000
0010
0000
0000
0100
0000
0001
0000
0000
0010
0000
0000
0100
0000
,  // measure 47
0110
0000
0000
0010
0001
0000
0100
0000
0010
0000
0000
1000
0010
0000
1000
0000
,  // measure 48
0001
0000
0000
0010
0000
0000
0100
0000
1000
0000
0000
0010
0000
0000
0100
0000
,  // measure 49
0001
0000
0000
0010
0100
0000
0010
0000
1000
0000
0000
0010
0100
0000
0010
0000
,  // measure 50
0001
0000
0000
0100
0000
0000
1000
0000
0001
0010
0000
0001
0010
0000
1000
0000
,  // measure 51
1010
0000
0000
0000
0010
0000
0000
0000
0100
0001
0000
0001
0010
0000
0100
0000
,  // measure 52
2000
3020
0032
0203
,  // measure 53
1300
0000
1000
0000
0001
0000
0000
0000
1000
0010
0000
0100
0001
0000
0100
0000
,  // measure 54
0101
0000
0000
0000
0000
0000
0001
0000
0010
0000
0100
0000
2000
0000
0000
0000
0000
0000
0020
0000
0000
3030
0000
0000
,  // measure 55
1010
0000
0000
0001
0100
0000
0000
0000
0001
1000
0000
1000
0100
0000
0010
0000
,  // measure 56
0001
0000
0010
0000
0100
0000
0010
0000
1000
0000
0000
0010
0000
0000
0001
0000
,  // measure 57
1000
0000
0002
0000
0000
0203
0000
0000
2300
0000
0000
3200
0000
0000
0302
0000
,  // measure 58
0010
0000
0010
0000
1003
0000
0000
0000
0100
1000
0000
0001
0100
0000
0010
0000
,  // measure 59
0110
0000
0000
1000
0001
0000
0010
0000
0100
0000
0100
0000
1001
0000
0000
0000
,  // measure 60
0100
0000
0001
0000
0010
0000
1000
0000
0001
0100
0000
0010
0000
0001
1000
0000
,  // measure 61
0010
0100
0101
0001
0010
0100
1100
0000
,  // measure 62
1001
0000
0000
0000
0000
0000
0001
0000
0000
0100
0000
0000
1000
0000
0000
0000
0100
0000
0010
0000
0000
0000
0100
0000
,  // measure 63
0001
0000
0000
0001
1000
0000
0100
0000
0010
0000
0001
0000
0101
0000
0000
0000
,  // measure 64
0010
0000
1000
0000
0100
0000
0001
0000
1000
0010
0000
0100
0000
1000
0001
0000
,  // measure 65
1000
0000
0100
0000
0011
0000
0001
0000
0100
0010
1000
0000
1010
0000
0000
0000
,  // measure 66
0002
0000
0023
0000
2030
0000
3020
0000
0031
0100
0000
0010
1000
0010
1000
0000
,  // measure 67
0200
0000
0000
0302
0000
0000
0000
0000
,  // measure 68
0023
0000
0000
2030
0000
0000
0000
0000
,  // measure 69
3000
0000
0000
0000
;
