#TITLE:TIEFSEE;
#SUBTITLE:;
#ARTIST:SOUND HOLIC Vs. dj TAKA feat. YURiCa;
#TITLETRANSLIT:;
#SUBTITLETRANSLIT:;
#ARTISTTRANSLIT:;
#GENRE:;
#CREDIT:;
#BANNER:[Girls Week] - TIEFSEE.png;
#BACKGROUND:[Girls Week] - TIEFSEE-bg.png;
#LYRICSPATH:;
#CDTITLE:;
#MUSIC:[Girls Week] - TIEFSEE.mp3;
#OFFSET:-0.308998;
#SAMPLESTART:47.214462;
#SAMPLELENGTH:13.454273;
#SELECTABLE:YES;
#BPMS:0.000000=165.000000
;
#STOPS:128.000000=0.727000
;
#BGCHANGES:;
#KEYSOUNDS:;
#ATTACKS:;

//---------------dance-single - ----------------
#NOTES:
     dance-single:
     :
     Hard:
     9:
     0.618664,0.814960,0.015805,0.165955,0.406986,548.000000,546.000000,2.000000,21.000000,0.000000,0.000000,0.618664,0.814960,0.015805,0.165955,0.406986,548.000000,546.000000,2.000000,21.000000,0.000000,0.000000:
// measure 0
0000
0000
0000
0000
,  // measure 1
0000
0000
0000
0000
,  // measure 2
0000
0000
0000
0000
,  // measure 3
0000
0000
0000
0000
,  // measure 4
0000
0000
0000
0000
,  // measure 5
0000
0000
0000
0000
,  // measure 6
0000
0000
0000
0000
,  // measure 7
0000
0000
0000
0000
,  // measure 8
1000
0000
0010
0000
0100
0000
0001
0000
0010
0000
0100
0000
1000
0001
1000
0010
,  // measure 9
0100
0000
0001
0010
0000
0100
0000
0010
,  // measure 10
0000
0000
0000
0100
1000
0000
0000
1000
0001
0000
0000
0001
0100
0000
0010
0000
,  // measure 11
1000
0000
0001
0010
0000
0001
0000
1000
,  // measure 12
0010
0000
0000
0100
0001
0000
0000
0001
1000
0000
0000
1000
0010
0000
0000
0010
,  // measure 13
0100
0000
0000
0000
0001
0000
0000
0010
0100
0000
0000
0000
1000
0000
0000
0000
,  // measure 14
0010
0000
0000
0000
0100
0000
0000
0001
0010
0000
0000
0000
0100
0000
0000
0000
,  // measure 15
1000
0000
0000
0000
0010
0000
0000
0100
0001
0000
0000
0000
1000
0000
0000
0000
,  // measure 16
0010
0000
0000
0000
0100
0000
0000
0001
1000
0000
0100
0000
0010
0000
0001
0000
,  // measure 17
0011
0000
1000
0001
0010
0010
0001
0100
,  // measure 18
0020
0000
1000
2000
0000
0000
3030
0000
,  // measure 19
0010
0000
0100
0001
0000
1000
0100
1000
,  // measure 20
0002
0000
0000
0003
,  // measure 21
1000
0001
0100
0001
0000
0100
0001
0010
,  // measure 22
0001
0010
1000
0010
0001
0000
0000
0000
,  // measure 23
0100
0010
1000
0100
0000
0010
0100
1000
,  // measure 24
0002
0203
0320
2030
,  // measure 25
3001
1000
0001
0200
0000
0010
0310
0000
,  // measure 26
1000
0001
1000
0200
0000
0010
0310
0000
,  // measure 27
1000
0001
0100
0001
0000
0010
0100
1000
,  // measure 28
0001
0000
0000
1000
0010
0000
0000
0010
0100
0000
0000
0100
0001
0000
0010
0000
,  // measure 29
0100
0010
0000
0001
0000
1000
0100
1000
,  // measure 30
0001
0000
0100
0010
0000
0010
1000
0001
,  // measure 31
1000
0000
1000
0100
0010
0000
0100
0010
0001
0000
0010
0001
0100
0000
0001
0100
,  // measure 32
0010
0000
0000
1000
0000
0001
0002
1000
,  // measure 33
0000
0000
1000
0000
2003
0000
0000
0000
3100
0000
0000
0100
0000
0000
0100
0000
,  // measure 34
0010
0000
0000
0010
0000
0000
0010
0000
0002
0000
0100
0000
0200
0000
0000
0000
,  // measure 35
0000
0000
0000
0000
0303
0000
0100
0000
0010
0000
0000
0100
0000
0000
0010
0000
,  // measure 36
1000
0000
0000
0100
0000
0000
0010
0001
0020
0000
0000
0000
0100
0000
0200
0000
,  // measure 37
0000
0000
0000
0000
0330
0000
0100
1000
0200
0000
0000
0000
1000
0000
2000
0000
,  // measure 38
0000
0000
0000
0000
3300
0000
1000
0001
2000
0000
0000
0000
0010
0000
3010
0000
,  // measure 39
0000
0000
0100
0000
0001
0000
0010
0000
0100
0000
0000
1000
0001
0000
0000
0001
,  // measure 40
1000
0000
0010
0000
1000
0000
0001
0010
0001
0000
1000
0000
2000
0000
0001
0000
,  // measure 41
0000
0000
0001
0000
3002
0000
0000
0000
0013
0000
0000
0010
0000
0000
0100
0000
,  // measure 42
1000
0000
0000
1000
0000
0000
0100
0000
0010
0000
0001
0000
2000
0000
0000
0000
,  // measure 43
0000
0000
3000
0001
0000
1000
0001
0000
,  // measure 44
1000
0000
0000
0010
0000
0000
0100
0000
0001
0000
0000
0010
0100
0000
0000
0100
,  // measure 45
1000
0000
0000
1000
0010
0000
0100
0000
0001
0000
0000
1000
0001
0000
0000
0001
,  // measure 46
0100
0000
0000
0100
0010
0000
1000
0000
0100
0000
0000
0010
0001
0000
0000
0001
,  // measure 47
1000
0000
0000
1000
0010
0000
0100
0000
0001
1000
0001
0000
1000
0001
1000
0000
,  // measure 48
0001
0100
0010
1000
0100
0010
0001
1000
0001
0000
0010
0000
1000
0000
0010
0000
,  // measure 49
0001
0100
0001
0010
0001
0100
1000
0100
,  // measure 50
0001
0010
0100
1000
1000
0010
0001
0010
,  // measure 51
1000
0100
1000
0010
1000
0100
0001
0100
,  // measure 52
1000
0010
0100
0001
1000
0010
0001
0010
,  // measure 53
1000
0000
0100
0000
0001
0000
0100
0000
1000
0000
0000
1000
0010
0000
0100
0000
,  // measure 54
0001
0010
0001
1000
0001
0010
0001
0010
,  // measure 55
1000
0010
1000
0010
0001
0100
1000
0100
,  // measure 56
0001
0000
0100
0000
1000
0000
0100
0000
0001
0000
0000
0001
0100
0000
0010
0000
,  // measure 57
1000
0100
1000
0001
1000
0010
1000
0010
,  // measure 58
0001
0010
0001
0010
1000
0100
0001
0100
,  // measure 59
1000
0100
0001
0100
1000
0000
0000
1000
,  // measure 60
0000
0000
1000
0000
0001
0010
0100
1000
,  // measure 61
0001
0010
0100
1000
0001
0100
0010
1000
,  // measure 62
0001
0010
0001
0010
0100
1000
0100
0010
0001
0000
1000
0010
1000
0000
0001
0000
,  // measure 63
0010
0000
1000
0000
0010
0000
0100
0000
1000
0000
0100
0010
0000
0010
0001
0000
,  // measure 64
1000
0000
0010
0100
0001
0000
1000
0000
0001
0100
0001
0000
1000
0000
0010
0000
,  // measure 65
0001
0000
0010
0000
0100
0000
0001
0000
1000
0000
0001
0100
0000
0001
0100
0000
,  // measure 66
0010
0000
1000
0100
0000
1000
0100
0000
1000
0000
0001
0000
0100
0000
0010
0000
,  // measure 67
1000
0000
0100
0000
0010
0000
0100
0000
1000
0000
0001
0000
1000
0000
0000
1000
,  // measure 68
0100
0000
0010
0000
0100
0000
1000
0000
0001
0000
0100
0010
0000
0100
0010
0000
,  // measure 69
1000
0000
0100
0010
0000
0100
0010
0000
0001
0000
0010
0000
1000
0000
0010
0000
,  // measure 70
0001
0000
0100
0000
1000
0000
0100
0000
0001
0000
1000
0001
1000
0000
0001
1000
,  // measure 71
0001
0000
0010
0100
0000
0010
0001
0000
1000
0000
0000
0010
0000
0000
1000
0000
,  // measure 72
0000
0010
0100
0000
0001
0000
0010
0000
0001
0010
0100
0000
0010
0000
0100
1000
,  // measure 73
0001
0000
0100
0000
0010
0000
1000
0000
0100
1000
0100
0000
0010
0100
0010
0000
,  // measure 74
0001
0010
0001
0010
0100
1000
0001
0100
0010
0000
1000
0000
0001
0000
0100
0000
,  // measure 75
0001
0000
0010
0000
0100
0000
0010
0000
0001
0000
1000
0000
0001
0000
0000
0001
,  // measure 76
0100
0000
0001
0000
1000
0000
0010
0000
0100
0000
0000
0001
0100
0000
0000
0010
,  // measure 77
1000
0000
0000
1000
0100
0000
0000
0010
0001
1000
0001
1000
0001
1000
0001
1000
,  // measure 78
0001
0100
0010
1000
0001
0010
0100
1000
0001
0000
0000
0001
0000
0000
0001
0000
,  // measure 79
0100
0000
0000
0100
0000
0000
0100
0000
0010
0000
0000
1000
0000
0000
0001
0000
,  // measure 80
0010
0000
0000
0100
0000
0000
1000
0000
0010
0000
0000
0010
0000
0000
0010
0000
,  // measure 81
1000
0000
0000
1000
0000
0000
1000
0000
0001
0000
0000
0100
0000
0000
1000
0000
,  // measure 82
0010
0000
0000
0001
0000
0000
1000
0000
1001
0000
0000
0000
0000
0000
0000
0000
;

//---------------dance-single - ----------------
#NOTES:
     dance-single:
     :
     Medium:
     7:
     0.432387,0.554173,0.181761,0.458353,0.047416,383.000000,360.000000,23.000000,58.000000,0.000000,0.000000,0.432387,0.554173,0.181761,0.458353,0.047416,383.000000,360.000000,23.000000,58.000000,0.000000,0.000000:
0000
0000
0000
0000
,
0000
0000
0000
0000
,
0000
0000
0000
0000
,
0000
0000
0000
0000
,
0000
0000
0000
0000
,
0000
0000
0000
0000
,
0000
0000
0000
0000
,
0000
0000
0000
0000
,
1000
0001
0100
0010
1000
0001
0010
1000
,
0010
0000
0100
0010
0000
0001
0000
2000
,
0000
0000
0100
0000
0010
0000
3001
1000
,
0100
0000
0010
0001
0000
0100
0000
0020
,
0000
1000
0100
1030
,
0100
0010
1100
1000
,
0010
0100
0011
0001
,
1000
0010
0101
0001
,
0010
0001
1100
0101
,
1001
0000
1000
0010
0100
0000
0010
0100
,
0001
0000
2000
0002
0000
0000
3003
0000
,
1000
0000
0001
0010
0000
0100
1000
0020
,
0100
0000
0100
0000
0100
0000
0130
0001
,
0010
0100
0010
0001
0000
1000
0001
1000
,
0001
0010
0100
1000
0001
0000
0000
0000
,
1000
0010
0100
0001
0000
0010
0100
1000
,
1010
0101
0011
1100
,
1002
0010
0010
0013
,
2001
0010
0010
3010
,
0102
0000
0103
0000
2100
0000
3100
1000
,
0001
0100
1000
0100
,
0001
0010
0000
0100
0000
0010
0100
0010
,
0001
0000
0000
1000
0000
0010
1000
0001
,
0200
0320
2030
3002
,
0013
0000
0000
0100
0000
0010
0200
1000
,
0000
0000
1000
0000
2300
0000
0000
0000
3001
0000
0000
0001
0000
0000
0001
0000
,
1000
0000
0000
1000
0000
0000
1000
0000
0000
0000
0001
0000
0020
0000
0000
0000
,
0000
0000
0000
0000
0030
0000
0000
0000
0100
0000
0000
0010
0000
0000
0001
0000
,
1000
0000
0000
0010
0000
0000
0100
0000
0002
0000
0000
0000
1000
0000
2000
0000
,
0000
0000
3003
1000
0200
0000
0010
0020
,
0000
0000
0330
0010
0002
0000
1000
2003
,
0000
3001
0100
0010
1000
0010
0000
0100
,
0000
0001
0010
0001
0000
1000
0002
0010
,
0000
0000
0010
0000
0023
0000
0000
0000
0130
0000
0000
1000
0000
0000
0010
0000
,
0100
0000
0000
0001
0000
0000
1000
0000
0000
0000
0010
0000
0200
0000
0000
0000
,
0000
0000
0000
0000
0300
0000
0000
0000
0010
0000
0000
0100
0000
0000
0001
0000
,
1000
0000
0000
0010
0000
0000
0100
0000
0002
0000
0000
0000
0010
0000
0020
0000
,
0000
0000
0033
0001
0002
0000
0100
0200
,
0000
0000
0303
0001
0002
0000
0013
0200
,
0000
0310
0001
1000
0001
2000
0000
3200
,
0000
0320
0000
0230
0010
0000
0310
0000
,
0110
1100
1000
0010
,
0101
1010
1000
0001
,
0010
1000
0010
0001
,
0010
1000
0010
0100
,
1000
0000
0001
0000
0100
0000
0010
0001
,
1000
1000
1000
1000
,
0001
1000
0100
0010
,
0100
0000
0100
0000
0010
0000
0001
1000
,
0010
0001
0010
1000
,
0010
0001
0012
0103
,
1020
0130
1001
0000
,
0000
0000
0000
0000
1000
0010
0100
0001
,
1000
0010
0100
0001
1000
1000
0001
0001
,
0100
0010
0100
0010
0100
0000
0001
0000
,
0010
0000
0100
0000
1000
0000
0001
0000
1000
0000
0000
1000
0000
0000
0010
0000
,
0000
0100
0010
1000
0002
0000
0103
0000
,
0020
0000
0000
0000
1030
0000
0000
0000
0100
0000
0000
0010
0000
0000
0001
0000
,
1000
0000
0000
0010
0000
0000
0100
0000
0002
0000
0000
0000
0013
0000
0100
0000
,
1000
0010
0100
0000
0001
0100
0001
0010
,
0100
1000
0001
0000
2000
0000
3020
0000
,
0230
0000
0302
0000
0013
0100
1000
0100
,
0001
0100
1000
0010
0200
0000
0302
0000
,
0103
0000
0010
0000
1000
0000
0100
0000
0010
0000
0000
0010
0000
0000
0100
0000
,
0000
0010
0100
1000
0001
0100
0001
0000
,
1000
0001
1000
0000
0100
0000
0010
0000
,
0001
1000
0020
2030
,
3001
0010
0001
0010
0200
0000
2300
0000
,
3010
1000
0010
1000
0001
0000
1001
0000
,
1000
0000
1001
0000
0001
0100
0010
1000
,
0001
0010
1000
0010
0002
0000
0000
0000
,
0203
0000
2300
0000
,
3200
0000
0302
0000
,
0023
0000
2030
0000
,
3020
0000
0130
0000
;

//---------------dance-single - ----------------
#NOTES:
     dance-single:
     :
     Easy:
     5:
     0.308203,0.456377,0.165955,0.165955,0.000000,273.000000,252.000000,21.000000,21.000000,0.000000,0.000000,0.308203,0.456377,0.165955,0.165955,0.000000,273.000000,252.000000,21.000000,21.000000,0.000000,0.000000:
0000
0000
0000
0000
,
0000
0000
0000
0000
,
0000
0000
0000
0000
,
0000
0000
0000
0000
,
0000
0000
0000
0000
,
0000
0000
0000
0000
,
0000
0000
0000
0000
,
0000
0000
0000
0000
,
0000
0000
0000
0000
,
1000
0010
1000
0010
,
0200
0000
0000
0300
,
0001
0010
0001
0010
,
0200
1300
0001
0100
,
0010
1000
1010
0000
,
0001
0010
0011
0000
,
0001
1000
1100
0000
,
0200
0000
0310
0001
,
1000
0100
1000
0010
,
0100
0100
0001
0000
,
0100
0010
1000
0001
,
0020
0000
0000
0030
,
0100
1000
0010
0001
,
0100
1000
0100
0000
,
0010
1000
0001
0010
,
0110
1001
0110
1001
,
0001
1000
0200
1300
,
0010
0100
0002
0013
,
0100
0010
0001
1000
,
0002
0000
0000
0003
,
0100
0001
0010
0001
,
1000
0100
1000
0010
,
2000
3200
0320
0032
,
1003
0000
0001
1000
,
0002
2003
3100
0100
,
1000
1000
0100
2000
,
0000
3000
0100
0010
,
0001
0000
1000
0000
0010
0000
0000
0110
,
0000
0000
0000
0000
0100
0000
0000
0101
,
0000
0000
0000
0000
0001
0000
0000
0011
,
0000
0010
0100
0010
,
0001
1000
0001
0100
,
0002
0203
0310
0010
,
0100
0100
0001
0020
,
0000
0030
0100
1000
,
0001
0000
0010
0000
0001
0000
0000
0011
,
0000
0000
0000
0000
0010
0000
0000
0110
,
0000
0000
0000
0000
0100
0000
0000
1100
,
0000
1000
1001
0110
,
1001
0110
1001
0001
,
1000
0001
0010
0001
,
1000
0010
0100
0001
,
0010
0010
0010
0010
,
0010
0010
0100
1000
,
0100
1000
0100
0000
,
1000
1000
1000
1000
,
1000
0001
1000
1000
,
0001
0100
0001
0000
,
0010
0010
0010
0010
,
0001
0010
0001
1000
,
0100
0010
0100
0000
,
0000
0000
1000
0100
,
0010
0001
0100
0010
,
1000
0001
1000
0001
1000
0000
0001
0000
,
0010
0001
1000
1000
,
0001
0001
1000
0010
,
1000
0100
1000
1000
,
0001
0100
0020
0100
,
0100
0100
0100
0100
,
0100
0230
0320
0000
,
2030
0000
3001
1000
,
0010
0100
1001
0001
,
0010
0001
1000
1000
,
0001
0001
1000
0100
,
1000
0010
0100
0001
,
0100
1000
0100
0010
,
1000
0001
0010
1000
,
0010
0100
1000
0100
,
1000
0010
0100
0001
,
0010
0100
1100
0000
,
0010
0000
0001
0000
,
0100
0000
0010
0000
,
1000
0000
0001
0000
,
0100
0000
1001
0000
;

//---------------dance-single - ----------------
#NOTES:
     dance-single:
     :
     Beginner:
     2:
     0.143376,0.260787,0.126442,0.000000,0.000000,127.000000,111.000000,16.000000,0.000000,0.000000,0.000000,0.143376,0.260787,0.126442,0.000000,0.000000,127.000000,111.000000,16.000000,0.000000,0.000000,0.000000:
0000
0000
0000
0000
,
0000
0000
0000
0000
,
0000
0000
0000
0000
,
0000
0000
0000
0000
,
0000
0000
0000
0000
,
0000
0000
0000
0000
,
0000
0000
0000
0000
,
0000
0000
0000
0000
,
0000
0000
0000
0000
,
1000
0000
0000
0000
,
0000
0001
0000
0000
,
0100
0000
0000
0000
,
0000
0010
0000
0000
,
0100
0000
0000
0000
,
0001
0000
0000
0000
,
1000
0000
0000
0000
,
0010
0000
0100
0000
,
1001
0000
0001
0000
,
1000
1000
1000
0000
,
0001
0000
0100
0000
,
0010
0000
0000
0000
,
0100
0000
0000
0000
,
0010
0000
0000
0000
,
1000
0000
0000
0000
,
0001
0001
1000
1000
,
1001
0000
0000
0000
,
1001
0000
0000
0000
,
0010
0000
0100
0000
,
1001
0000
0000
0000
,
1000
0000
0000
0000
,
0010
0000
0000
0000
,
0100
0000
0000
0000
,
0000
0000
0001
0000
,
0000
0000
1000
0000
,
1000
0000
0010
0000
,
0000
0000
0100
0000
,
0010
0000
1001
0000
,
0000
0000
0110
0000
,
0000
0000
1001
0000
,
0000
0000
0001
0000
,
1000
0000
0110
0000
,
0000
0000
0010
0000
,
0010
0000
0100
0000
,
0000
0000
0001
0000
,
1000
0000
1001
0000
,
0000
0000
0010
0000
,
0000
0000
0100
0000
,
0000
0000
0001
0000
,
0000
0000
1000
0000
,
0000
0000
0001
0000
,
0000
0000
0100
0000
,
0000
0000
0100
0000
,
0000
0000
0010
0000
,
0010
0000
0010
0000
,
1000
0000
0000
0000
,
0001
0000
0000
0000
,
1000
0000
1000
0000
,
0001
0000
0000
0000
,
0100
0000
0010
0000
,
0100
0000
1001
0000
,
0000
0000
1000
0000
,
0001
0000
0001
0000
,
1000
1000
1001
0000
,
0001
0000
1000
1000
,
1000
0000
0010
0000
,
0100
0000
0010
0010
,
0010
0000
0100
0000
,
0000
0000
0001
0000
,
0000
1000
1000
0000
,
0000
0000
0000
0000
,
0000
0000
1001
0000
,
0001
0000
0100
0100
,
0100
0000
0010
0000
,
1000
0000
0100
0100
,
0100
0000
0110
0000
,
0010
0000
0001
0000
,
1000
0000
1001
0000
,
0001
0000
1000
0000
,
0000
0000
1001
0000
,
0000
0000
0010
0000
,
0000
0000
0100
0000
,
0000
0000
0001
0000
,
1000
0000
1001
0000
;
