#VERSION:0.83;
#TITLE:Suzy;
#SUBTITLE:;
#ARTIST:Caravan Palace;
#TITLETRANSLIT:;
#SUBTITLETRANSLIT:;
#ARTISTTRANSLIT:;
#GENRE:;
#ORIGIN:;
#CREDIT:;
#BANNER:[Girls Week] - Suzy.png;
#BACKGROUND:[Girls Week] - Suzy-bg.png;
#PREVIEWVID:;
#JACKET:[Girls Week] - Suzy-jacket.png;
#CDIMAGE:;
#DISCIMAGE:;
#LYRICSPATH:;
#CDTITLE:cdtitle.png;
#MUSIC:[Girls Week] - Suzy.ogg;
#OFFSET:-0.084723;
#SAMPLESTART:14.976747;
#SAMPLELENGTH:14.883719;
#SELECTABLE:YES;
#BPMS:0.000=129.000,
125.000=64.500,
133.000=129.000;
#STOPS:28.000=1.395,
165.000=0.465,
166.000=0.465;
#DELAYS:;
#WARPS:;
#TIMESIGNATURES:0.000=4=4;
#TICKCOUNTS:0.000=4;
#COMBOS:0.000=1;
#SPEEDS:0.000=1.000=0.000=0;
#SCROLLS:0.000=1.000;
#FAKES:;
#LABELS:0.000=Song Start;
#BGCHANGES:;
#KEYSOUNDS:;
#ATTACKS:
;

//---------------dance-single - ----------------
#NOTEDATA:;
#CHARTNAME:;
#STEPSTYPE:dance-single;
#DESCRIPTION:;
#CHARTSTYLE:;
#DIFFICULTY:Challenge;
#METER:10;
#RADARVALUES:0.666747,0.708303,0.074083,0.416717,0.912147,504.000000,496.000000,8.000000,45.000000,4.000000,0.000000,0.000000,0.000000,0.000000,0.666747,0.708303,0.074083,0.416717,0.912147,504.000000,496.000000,8.000000,45.000000,4.000000,0.000000,0.000000,0.000000,0.000000;
#CREDIT:;
#NOTES:
0000
0000
0000
0000
,
0000
0000
0000
0000
,
0000
0000
0000
0000
,
0000
0000
0000
0000
,
0002
0000
0000
0000
0100
0000
0000
0000
2003
0000
0000
0100
0000
0000
3100
0000
,
0010
0001
0000
0100
0000
0000
0010
0000
1000
0000
0100
0000
0010
0001
0010
0001
,
2000
0000
0000
0000
0100
0000
0000
0000
3002
0000
0000
0100
0000
0000
0103
0000
,
0010
0000
0000
0000
1000
0000
0001
0000
1000
0000
0100
0000
0010
0000
0100
1000
,
0000
1000
0010
0000
0100
0000
0010
1000
0000
1000
0100
0000
0010
0000
0001
0000
,
1000
0010
0100
0001
1000
0000
0001
0000
0100
0000
1000
0000
0100
0000
0001
0100
,
0000
0100
0010
0000
1000
0000
0100
0010
0000
0010
0001
0000
1000
0000
0001
0100
,
0001
0100
0010
1000
0001
0000
1000
0000
0001
0000
0010
0000
0100
0000
0010
0001
,
0000
0001
0100
0000
0010
0000
0100
0001
0000
0001
0010
0000
0100
0000
1000
0000
,
0010
0000
0001
0000
0010
0000
1000
0000
0100
0010
0000
0010
0001
0000
0100
0000
,
1000
0000
0100
0000
0001
0000
1000
0100
0000
0100
0010
0000
0001
0000
0001
0000
,
1000
0001
0100
0010
1000
0000
0001
0010
0001
0010
0000
0200
0000
0000
0310
0001
,
0010
0000
0100
0000
0100
0000
1000
0010
1000
0010
0000
0200
0000
0310
1000
0010
,
0100
0001
0010
0100
1000
0000
0001
0100
0001
0100
0001
2000
0000
0000
3100
1000
,
0100
1000
0100
0020
0000
0000
0031
1000
0001
1000
0001
0200
0000
0000
0301
0100
,
0010
1000
0100
0010
0001
0000
1000
0100
1000
0100
0000
0020
0000
0000
0130
1000
,
0100
0000
0010
0000
0010
0000
0001
0100
0001
0100
0000
0020
0000
0130
0001
0100
,
0010
1000
0100
0010
0001
0000
1000
0100
1000
0100
1000
0002
0000
0000
0103
0001
,
0100
0001
0100
0020
0000
0000
1030
0001
1000
0001
1000
0200
0000
0000
1300
0100
,
0010
0001
0100
0010
1000
0000
0000
1000
0100
0000
M000
0100
0001
1000
0002
0000
,
1000
0000
1003
0000
0010
0000
0001
0000
0010
0000
1000
0000
0100
0000
0010
0001
,
0000
1000
0001
1000
0001
0000
0000
0001
0100
0000
000M
0100
1000
0001
2000
0000
,
0001
0000
0000
0000
0000
0000
3001
0000
0000
0000
0000
0000
1000
0000
0001
0000
1000
0000
0001
0000
1000
0000
0001
0000
1000
0000
0000
0001
0000
0000
1000
0000
0000
0100
0000
0000
0010
0000
0000
0100
0000
0000
1000
0000
0000
0001
0000
0000
,
0010
0001
0100
0001
1000
0000
0000
1000
0010
0000
M000
0010
0001
1000
0002
0000
,
1000
0000
1003
0000
0001
0100
0001
0100
0010
0000
0010
1000
0001
1000
0100
0010
,
0001
0100
0010
1000
0001
0000
0000
0001
0010
0000
000M
0010
1000
0001
2000
0000
,
0001
0000
3001
0000
0010
0100
0010
0001
0100
0010
1000
0000
1001
0000
0000
0110
,
0000
0000
1000
0001
2000
0000
0000
0000
3200
0000
0000
0310
0002
0000
0000
0000
,
0203
0000
0000
0310
2000
0000
0000
0000
3002
0000
0000
1003
0200
0000
0000
0000
,
0320
0000
0000
0031
0001
1000
0010
1000
0100
1000
0010
1000
0001
1000
0100
0000
,
1000
0100
1000
0002
0000
0000
0103
0000
0010
1000
0100
0010
0001
0000
0001
0200
,
0000
0000
0000
0000
0000
0000
0310
0000
1000
0000
0010
0000
1000
0000
0000
0000
0000
0000
0001
0000
0000
1000
0000
0000
0100
0000
0000
1000
0000
0000
0001
0000
0000
1000
0000
0000
0020
0000
0000
0000
0000
0000
1030
0000
0000
0100
0000
0000
,
0010
0001
0100
0010
1000
0100
0000
1000
0100
0000
0002
0203
0000
0000
0010
0000
,
0310
0000
0000
0000
0100
0000
0000
0000
1000
0000
0000
0000
0001
0000
0000
0100
0000
0000
0010
0000
0000
0100
0000
0000
0001
0000
0000
0100
0000
0000
0010
0000
0000
1000
0000
0000
0001
0000
0000
1000
0000
0000
0100
0000
0000
0020
0000
0000
,
0000
0100
0030
0100
1000
0001
1000
0001
1000
0010
1000
0001
0020
0000
0130
0000
,
0010
0000
0000
0000
0001
0000
0000
0000
0100
0000
0000
0000
0020
0000
0000
0000
0000
0000
1030
0000
0010
0000
1000
0000
0010
0000
0000
0100
0000
0000
0001
0000
0000
1000
0000
0000
0100
0000
0000
0000
0000
0000
0100
0000
0000
0000
0000
0000
,
0010
0100
0010
0000
0001
0100
0001
0100
0010
1000
0200
0000
1300
0100
0010
0001
,
0100
0010
1000
0000
1001
0000
0000
0000
1001
0000
0000
0000
1001
0000
0000
0000
,
1001
0000
2002
0000
3003
0000
1000
0001
,
1000
0100
0010
0100
1000
0000
0000
1000
0001
0000
0100
0000
0010
1000
0010
1000
,
0100
0010
0001
1000
0001
0100
0001
0100
0020
0000
0030
1000
0001
0000
0020
0000
,
1030
0000
0000
0000
0000
0010
0000
0000
0000
0000
0000
0000
0000
0010
0000
0000
0001
0000
0000
0000
0000
0000
0000
0000
0001
0000
0000
0000
0000
0000
0000
0000
0002
0000
0000
0000
0000
0000
0000
0000
0000
0000
0000
0000
0000
0000
0000
0000
0103
0000
0000
0000
0000
0000
0000
0000
1000
0000
0000
0000
0000
0000
0000
0000
,
0200
0000
0000
0000
0000
0000
0000
0000
0001
0000
0000
0000
0000
0000
0000
0000
0310
0000
0000
0000
0000
1000
0000
0000
0000
0000
0000
0000
0000
1000
0000
0000
0100
0000
0000
0000
0010
0000
0000
0000
0001
0000
0000
0000
1000
0000
0000
0000
0100
0000
0000
0000
0000
0000
0000
0000
0010
0000
0000
0000
0000
0000
0000
0000
,
0001
0100
0010
0100
0001
0000
0000
0001
1000
0000
0100
0000
1000
0001
1000
0000
,
0010
0100
0010
0100
0010
0000
1000
0000
0100
0010
0000
0010
0001
0000
1000
0000
,
0010
0000
0000
0000
0000
0000
0000
0000
0001
0000
0000
0000
0000
0000
0000
0000
0010
0000
0000
0000
0000
0100
0000
0000
0010
0000
0000
0000
0000
0000
0000
0000
1002
0000
0000
0000
0000
0000
0000
0000
0000
0000
0000
0000
0023
0000
0000
0000
0000
0000
0000
0000
0130
0000
0000
0000
1000
0000
0000
0000
0000
0000
0000
0000
,
0001
0100
0010
1000
0100
0010
0100
0010
0100
1000
0001
0200
0020
0000
0000
0000
,
0000
0000
0000
0000
,
0000
0000
0000
0330
;

//---------------dance-single - ----------------
#NOTEDATA:;
#CHARTNAME:;
#STEPSTYPE:dance-single;
#DESCRIPTION:;
#CHARTSTYLE:;
#DIFFICULTY:Hard;
#METER:8;
#RADARVALUES:0.436560,0.439636,0.055562,0.342634,0.250030,330.000000,324.000000,6.000000,37.000000,0.000000,0.000000,0.000000,0.000000,0.000000,0.436560,0.439636,0.055562,0.342634,0.250030,330.000000,324.000000,6.000000,37.000000,0.000000,0.000000,0.000000,0.000000,0.000000;
#CREDIT:;
#NOTES:
0000
0000
0000
0000
,
0000
0000
0000
0000
,
0000
0000
0000
0000
,
0000
0000
0000
0000
,
0001
0000
0010
0001
0100
0000
0100
0000
,
0001
1000
0000
0100
0000
0000
0100
0000
1000
0000
0010
0000
0100
0000
0001
0000
,
0010
0000
0100
1000
0010
0000
0010
0000
,
1001
0000
0000
0000
1000
0000
0100
0000
0100
0000
0000
0000
0010
0000
0000
0001
,
0000
0000
0100
0000
1000
0000
0000
0100
0000
0000
0001
0000
0010
0000
0100
0000
,
1000
0000
0001
0000
0100
0000
0010
0000
0000
0000
0100
0000
0010
0000
0000
1000
,
0000
0000
0100
0000
0001
0000
0000
0100
0000
0000
1000
0000
0010
0000
1000
0000
,
0100
0000
0010
0000
0001
0000
0100
0000
0100
0000
0000
0000
0010
0000
0000
1000
,
0000
0000
0010
0000
0001
0000
0000
0010
0000
0000
1000
0000
0100
0000
0000
0000
,
0010
0000
0001
0000
0100
0000
0000
0000
0010
1000
0000
0001
0000
0000
0100
0000
,
0010
0000
1000
0000
0100
0000
0000
0010
0000
0000
0001
0000
0100
0000
0000
0010
,
0000
0000
1000
0000
0001
0000
1000
0000
1000
0000
0000
0200
0000
0000
1300
0000
,
1000
0000
0100
0000
0001
0000
0100
0000
0100
0000
0000
0020
0000
0000
0031
0000
,
0100
0000
0010
0000
1000
0000
0001
0000
0010
0000
0000
0002
0000
0000
1003
0000
,
0010
0000
0000
2000
0000
0000
3100
0000
0010
0000
0000
0002
0000
0000
0103
0000
,
0010
0000
0000
2000
0000
0000
3001
0000
0001
0000
0000
0200
0000
0000
0301
0000
,
0001
0000
0100
0000
1000
0000
0100
0000
0100
0000
0000
0020
0000
0000
1030
0000
,
0100
0000
0010
0000
0001
0000
1000
0000
0010
0000
0000
2000
0000
0000
3001
0000
,
0010
0000
0000
0002
0000
0000
0103
0000
0010
0000
0000
2000
0000
0000
3100
0000
,
0010
0000
0001
0000
1000
0000
0000
1000
0010
0000
0000
0010
0100
0000
0002
0000
,
0010
0000
0000
0000
0013
0000
0100
0000
1000
0000
0001
0000
0100
0000
0010
1000
,
0000
0000
1000
0000
0001
0000
0000
0001
0010
0000
0000
0010
0100
0000
2000
0000
,
0010
0000
3010
1000
0010
0001
0010
1000
,
0100
0000
0010
0000
0001
0000
0000
0001
0100
0000
0000
0100
0010
0000
2000
0000
,
0100
0000
3100
1000
0001
0000
1000
0010
,
0001
0000
0010
0000
1000
0000
0000
1000
0100
0000
0000
0100
0010
0000
0002
0000
,
0100
0000
0000
0000
0103
0000
1000
0000
0100
0000
0001
0000
0010
0000
0000
0001
,
0000
0000
1000
0001
2000
0000
0000
0000
3200
0000
0000
0000
0320
0000
0000
0000
,
0032
0203
0320
2030
,
3002
0000
0000
1003
0001
0000
0100
0000
0010
0000
1000
0000
0100
0000
0010
0000
,
0100
1000
0000
0020
0000
0000
0130
0000
0001
0000
0010
0000
0001
0000
1000
0002
,
0000
0103
0010
1000
0100
0010
0001
1000
,
0010
0000
0100
0000
0001
1000
0000
1000
0001
0000
0010
0200
0000
0000
0310
0000
,
0001
0000
0000
0001
1000
0000
0010
0000
1000
0000
0100
0000
0010
0000
0001
0200
,
0000
0310
0100
1000
0100
0001
0020
0000
,
0130
1000
0001
1000
1000
0010
0100
0100
,
0010
0100
0000
0000
0010
0000
1000
0000
0100
0000
0001
0000
1000
0000
0010
0000
,
0001
1000
1001
0000
1001
0000
1001
0000
,
1001
0000
2002
0000
3003
0000
1000
0100
,
0100
0000
1000
0000
0001
0000
0000
1000
0010
0000
0100
0000
0001
0000
0010
0000
,
1000
0010
0001
0100
1000
0100
0002
0000
,
1003
0100
0000
1000
0010
0000
0010
0000
0020
0000
0000
0000
1030
0000
0001
0000
,
2000
0000
0000
0000
3100
0010
0000
0010
0001
0000
1000
0000
0001
0000
0100
0000
,
0100
0000
0001
0000
1000
0000
0000
0001
0010
0000
0100
0000
1000
0000
0010
0000
,
0100
0000
0010
0000
0001
0000
0010
0000
1000
0100
0000
0100
0010
0000
0001
0000
,
1000
0000
0000
0000
0001
1000
0001
0000
2000
0000
0000
3020
0000
0000
0031
0000
,
0010
1000
0100
0001
0100
2000
0002
0000
,
0000
0000
0000
0000
,
0000
0000
0000
3003
;

//---------------dance-single - ----------------
#NOTEDATA:;
#CHARTNAME:;
#STEPSTYPE:dance-single;
#DESCRIPTION:;
#CHARTSTYLE:;
#DIFFICULTY:Medium;
#METER:5;
#RADARVALUES:0.326759,0.390788,0.129645,0.222249,0.000000,247.000000,233.000000,14.000000,24.000000,0.000000,0.000000,0.000000,0.000000,0.000000,0.326759,0.390788,0.129645,0.222249,0.000000,247.000000,233.000000,14.000000,24.000000,0.000000,0.000000,0.000000,0.000000,0.000000;
#CREDIT:;
#NOTES:
0000
0000
0000
0000
,
0000
0000
0000
0000
,
0000
0000
0000
0000
,
0000
0000
0000
0000
,
1000
0010
0100
0001
,
0010
0001
1000
0000
0010
1000
0001
0000
,
0010
0100
1000
0010
,
1001
0000
1000
0001
1000
0000
0100
0000
,
0001
0000
0100
0000
1000
0010
1000
0000
,
0001
0000
1000
0100
1000
0000
0001
0000
,
0001
0000
1000
0000
0100
0010
0001
0000
,
1000
0000
0001
1000
0001
0000
0100
0000
,
1000
0000
0100
0000
0001
0010
0001
0000
,
1000
0010
1000
0000
0001
0100
0001
0000
,
1000
0100
1000
0010
,
1000
0000
0001
0010
0001
0000
0001
1000
,
0001
0000
0001
0100
0001
0000
0001
1000
,
0001
1000
0100
2100
,
3001
0102
1003
2010
,
3001
0000
1000
0010
1000
0000
1000
0001
,
1000
0000
1000
0100
1000
0000
1000
0001
,
1000
0001
0100
0102
,
1003
2100
3001
0012
,
1003
0000
0001
0000
0001
0000
0100
0020
,
0000
0000
1030
0010
0100
0001
1000
0000
,
0001
0000
1000
0000
1000
0000
0100
0020
,
0000
0000
0031
1000
0001
1000
0001
0000
,
0100
0000
0010
0000
0010
0000
1000
0200
,
0000
0000
1300
0100
1000
0000
0001
0100
,
0001
0000
0010
0000
0010
0000
0001
0200
,
0000
0000
0310
1000
0001
0000
0010
0000
,
0001
1000
0002
0000
0000
0000
0203
0000
,
0000
0320
0000
2030
,
0000
3001
0010
0100
,
1000
0010
0100
0000
0001
0010
0100
0000
,
0100
0010
0001
0100
,
0010
0000
1000
0001
1000
0001
0010
0000
,
0100
0000
1000
0010
0100
0010
1000
0000
,
0001
0000
0010
0100
0010
0100
1000
0000
,
0001
0000
1000
0000
0010
0100
0010
0100
,
0001
0000
1000
0100
0010
0001
1000
0000
,
0001
1001
1001
1001
,
1001
0000
2002
0000
3003
0000
0001
1000
,
0001
0000
0100
0000
0020
0000
1030
0100
,
0010
0000
0001
0100
0010
0000
2001
0000
,
3100
0000
0010
0010
0020
0000
0031
1000
,
0002
0000
0103
0100
0010
0000
1000
0001
,
1000
0000
0200
0000
0310
0000
0100
1000
,
0010
0000
0100
0001
0010
0000
0001
0000
,
0100
0000
0001
0100
2000
0000
3100
0000
,
0001
0010
0100
1000
0001
0000
2002
0000
,
0000
0000
0000
0000
,
0000
0000
0000
3003
;

//---------------dance-single - ----------------
#NOTEDATA:;
#CHARTNAME:;
#STEPSTYPE:dance-single;
#DESCRIPTION:;
#CHARTSTYLE:;
#DIFFICULTY:Easy;
#METER:3;
#RADARVALUES:0.201082,0.317515,0.055562,0.203728,0.000000,152.000000,146.000000,6.000000,22.000000,0.000000,0.000000,0.000000,0.000000,0.000000,0.201082,0.317515,0.055562,0.203728,0.000000,152.000000,146.000000,6.000000,22.000000,0.000000,0.000000,0.000000,0.000000,0.000000;
#CREDIT:;
#NOTES:
// measure 0
0000
0000
0000
0000
,  // measure 1
0000
0000
0000
0000
,  // measure 2
0000
0000
0000
0000
,  // measure 3
0000
0000
0000
0000
,  // measure 4
1000
0000
0001
0000
,  // measure 5
0010
0010
0100
0010
,  // measure 6
0001
0000
1000
0000
,  // measure 7
0010
1000
1000
0001
,  // measure 8
0001
0010
0001
0200
,  // measure 9
0300
0001
0001
0100
,  // measure 10
0010
1000
0100
0020
,  // measure 11
0030
0001
0001
1000
,  // measure 12
1000
0010
1000
0200
,  // measure 13
0300
0010
0001
0100
,  // measure 14
0010
2000
3000
0002
,  // measure 15
0003
1000
0100
0020
,  // measure 16
0030
0001
0100
0020
,  // measure 17
0030
1000
0000
0100
,  // measure 18
0000
0010
0000
0001
,  // measure 19
0000
0010
0001
0200
,  // measure 20
0300
0010
1000
0200
,  // measure 21
0300
1000
0000
0010
,  // measure 22
0000
0100
0000
0001
,  // measure 23
0000
1000
0100
2000
,  // measure 24
0000
3010
1000
0100
,  // measure 25
0010
0001
0100
0002
,  // measure 26
0000
1003
0100
0010
,  // measure 27
0001
0100
0010
0200
,  // measure 28
0000
0301
0100
0001
,  // measure 29
1000
0100
0010
0200
,  // measure 30
0000
0310
0001
0100
,  // measure 31
0010
2000
0000
3200
,  // measure 32
0000
0320
0000
0032
,  // measure 33
0000
1003
0010
0100
,  // measure 34
0010
1000
0000
0001
,  // measure 35
0000
1000
0100
0001
,  // measure 36
0100
1000
0000
0010
,  // measure 37
0000
0100
0001
0010
,  // measure 38
0000
0100
1000
0010
,  // measure 39
0000
1000
0100
0001
,  // measure 40
0000
0001
0100
1000
,  // measure 41
0000
1001
1001
1001
,  // measure 42
1001
2002
3003
0001
,  // measure 43
0001
0100
0000
0010
,  // measure 44
1000
0010
1000
0001
,  // measure 45
0000
1000
1000
0100
,  // measure 46
0010
0100
0100
1000
,  // measure 47
1000
0002
0000
0103
,  // measure 48
0010
0100
0010
1000
,  // measure 49
0000
0001
0001
1000
,  // measure 50
0100
0010
0100
2002
,  // measure 51
0000
0000
0000
0000
,  // measure 52
0000
0000
0000
3003
;

//---------------dance-single - ----------------
#NOTEDATA:;
#CHARTNAME:;
#STEPSTYPE:dance-single;
#DESCRIPTION:;
#CHARTSTYLE:;
#DIFFICULTY:Beginner;
#METER:1;
#RADARVALUES:0.141551,0.170970,0.009260,0.055562,0.000000,107.000000,106.000000,1.000000,6.000000,0.000000,0.000000,0.000000,0.000000,0.000000,0.141551,0.170970,0.009260,0.055562,0.000000,107.000000,106.000000,1.000000,6.000000,0.000000,0.000000,0.000000,0.000000,0.000000;
#CREDIT:;
#NOTES:
// measure 0
0000
0000
0000
0000
,  // measure 1
0000
0000
0000
0000
,  // measure 2
0000
0000
0000
0000
,  // measure 3
0000
0000
0000
0000
,  // measure 4
1000
0000
1000
0000
,  // measure 5
0100
0000
0010
0000
,  // measure 6
0001
0000
0001
0000
,  // measure 7
0100
0001
0000
0001
,  // measure 8
0000
1000
1000
1000
,  // measure 9
0000
0100
0000
0010
,  // measure 10
0000
0100
0100
0100
,  // measure 11
0000
1000
0000
1000
,  // measure 12
0000
0001
0001
0001
,  // measure 13
0000
0100
0000
0010
,  // measure 14
0000
1000
0000
0001
,  // measure 15
0000
1000
0000
0100
,  // measure 16
0000
0010
0000
0001
,  // measure 17
0000
1000
0000
1000
,  // measure 18
0000
0001
0000
0001
,  // measure 19
0000
1000
0000
0010
,  // measure 20
0000
0100
0000
0001
,  // measure 21
0000
1000
0000
1000
,  // measure 22
0000
0001
0000
0001
,  // measure 23
0000
0010
0010
0010
,  // measure 24
0000
0001
0000
1000
,  // measure 25
0000
0010
0010
0010
,  // measure 26
0000
1000
0000
0100
,  // measure 27
0000
0010
0010
0010
,  // measure 28
0000
0001
0000
0100
,  // measure 29
0000
0010
0010
0010
,  // measure 30
0000
1000
0000
0001
,  // measure 31
0000
2000
3000
0200
,  // measure 32
0300
0020
0030
0002
,  // measure 33
0003
1000
0000
0001
,  // measure 34
0000
0100
0000
0001
,  // measure 35
0000
1000
0000
0100
,  // measure 36
0000
1000
0000
0010
,  // measure 37
0000
1000
0000
1000
,  // measure 38
0000
0100
0000
0100
,  // measure 39
0000
0010
0000
0010
,  // measure 40
0000
0001
0000
0001
,  // measure 41
0000
0100
0100
0100
,  // measure 42
0100
0100
0000
0001
,  // measure 43
0000
1000
0000
0100
,  // measure 44
0000
0010
0000
0001
,  // measure 45
0000
1000
1000
1000
,  // measure 46
0000
0001
0000
1000
,  // measure 47
0000
0010
0000
0100
,  // measure 48
0000
0001
0000
0010
,  // measure 49
0000
0010
0010
0010
,  // measure 50
0000
0100
0000
2002
,  // measure 51
0000
0000
0000
0000
,  // measure 52
0000
0000
0000
3003
;
