#TITLE:Stay Awake;
#SUBTITLE:;
#ARTIST:Ellie Goulding & Madeon;
#TITLETRANSLIT:;
#SUBTITLETRANSLIT:;
#ARTISTTRANSLIT:;
#GENRE:;
#CREDIT:hooky;
#BANNER:Stay Awake.png;
#BACKGROUND:Stay Awake-bg.png;
#LYRICSPATH:;
#CDTITLE:;
#MUSIC:Stay Awake.ogg;
#OFFSET:0.000000;
#SAMPLESTART:28.500000;
#SAMPLELENGTH:15.000000;
#SELECTABLE:YES;
#DISPLAYBPM:160.000000;
#BPMS:0.000000=160.000000
;
#STOPS:
;
#BGCHANGES:;
#KEYSOUNDS:;
#ATTACKS:;

//---------------dance-single - hooky----------------
#NOTES:
     dance-single:
     hooky:
     Hard:
     8:
     0.498671,0.607381,0.455628,0.205767,0.007349,475.000000,413.000000,62.000000,28.000000,0.000000,0.000000,0.498671,0.607381,0.455628,0.205767,0.007349,475.000000,413.000000,62.000000,28.000000,0.000000,0.000000:
0000
0000
0000
0000
,
0000
0000
0000
0000
,
0000
0000
0000
0000
,
1000
0000
0000
1000
0000
0000
1000
0000
,
0100
0000
0000
0100
0000
0000
0100
0000
,
0001
0000
0000
0001
0000
0000
0001
0000
,
0010
0000
0000
0010
0000
0000
0010
0000
,
1000
0000
0000
1000
0000
0000
1000
0000
,
0001
0000
0000
0001
0000
0000
0001
0000
,
0100
0000
0000
0100
0000
0000
0100
0000
,
0010
0000
0000
0010
0000
0000
0010
0000
,
1010
0000
0010
1000
0000
0100
0010
0000
,
0010
0001
0010
0001
0100
0000
0100
0000
,
0010
0000
1000
0100
0000
0010
0001
0000
,
0100
0010
0100
0000
0001
0000
1000
0000
,
1000
0100
1000
0000
0001
0010
0001
0000
,
0100
0010
0100
0000
0001
0100
0001
0000
,
1000
0100
1000
0000
1000
0010
1000
0000
,
1000
0100
0001
0010
1000
0100
1001
0000
,
1001
0000
1000
1100
0000
0010
0011
0000
,
1000
0100
0010
0001
0001
0100
0010
1000
,
0100
1000
0100
1100
0000
0010
0011
0000
,
0110
0010
0010
0000
0100
0100
1100
0000
,
0110
0000
0100
1100
0000
0010
0110
0000
,
1000
0100
1100
0100
0000
0010
0011
0000
,
0110
0010
0001
1010
0000
0001
0101
0000
,
0010
0100
0100
0010
0100
0100
0010
0000
,
1000
1000
0100
0020
0000
0000
0031
0001
,
0010
0001
0010
0200
0000
0000
1300
1000
,
0010
1000
0100
0001
0100
1000
0010
0001
,
0010
0000
1000
0000
0100
0000
1000
0100
1000
0000
0010
0000
0100
0000
0000
0000
,
0001
0001
0010
0200
0000
0000
1300
1000
,
0100
1000
0100
0020
0000
0000
0031
0001
,
0100
0001
0010
1000
0010
0001
0100
1000
,
0100
0001
0010
0001
0001
1000
1000
0001
,
0010
0000
0001
1000
0000
0001
1000
0000
,
0010
0000
1000
0010
0100
0001
0010
0000
,
0001
0000
0100
0000
0100
0010
1000
0000
,
0001
0000
0010
0001
0100
0001
0010
0000
,
0001
0100
0010
0000
0110
0000
0110
0000
,
1000
0001
1000
0000
1100
0000
0101
0000
,
0010
0100
0010
0000
1000
0000
0001
0000
,
0010
0010
0100
0000
1010
0000
0011
0000
,
0101
0000
0100
0001
0010
0000
0100
0000
,
0100
1000
0100
1000
0010
0000
0010
0000
,
0100
0000
0001
0010
0000
0100
1000
0000
,
0010
0100
0010
0100
1000
0100
0001
0000
,
0011
0011
1100
1010
,
0010
0100
0010
0000
1000
0010
0000
0000
,
1000
0010
0100
0000
0001
0100
0000
0000
,
2002
0000
3003
0110
,
1001
0000
0001
0011
0000
0100
1100
0000
,
0001
0010
0100
1000
1000
0010
0100
0001
,
0010
0001
0010
0011
0000
0100
1100
0000
,
0100
0010
0110
0000
0001
0001
0011
0000
,
1100
0000
0010
0110
0000
0100
0110
0000
,
0001
0010
0001
0011
0000
1000
1100
0000
,
0110
0100
0001
0101
0000
0010
1010
0000
,
0100
0010
0010
0100
0010
0010
0100
0000
,
0001
0001
0010
0200
0000
0000
1300
1000
,
0100
1000
0100
0020
0000
0000
0031
0001
,
0100
0001
0010
1000
0010
0001
0100
1000
,
0100
0000
0001
0000
0010
0000
0001
0100
0001
0000
0100
0000
0010
0000
0000
0000
,
1000
1000
0100
0020
0000
0000
0031
0001
,
0010
0001
0010
0200
0000
0000
1300
1000
,
0010
1000
0100
0001
0100
1000
0010
0001
,
0010
0010
0010
0010
0100
0100
0100
0100
,
1002
0000
0000
0100
0103
0000
0000
0000
,
0210
0000
0000
0010
0310
0000
0000
0000
,
1020
0000
0000
1000
1030
0000
0000
0000
,
0102
0000
0000
0100
0103
0000
0001
0000
,
2001
0000
0000
0010
3010
0000
0000
0000
,
0210
0000
0000
0001
0301
0000
0000
0000
,
2100
0000
0000
0010
3010
0000
0000
0000
,
0120
0000
0000
0100
0130
0000
0010
1000
,
2010
0000
0000
0100
3100
0000
0000
0000
,
0102
0000
0000
0010
0013
0000
0000
0000
,
0120
0000
0000
1000
1030
0000
0000
0000
,
1200
0000
0000
0001
0301
0000
0000
0000
,
1002
0000
0000
0100
0103
0000
0000
0000
,
0120
0000
0000
0001
0031
0000
1000
0000
,
0210
0000
0000
0010
0310
0000
0000
0000
,
0012
0000
0103
0000
,
2002
0000
0000
0000
,
0000
0000
0000
0000
,
0000
0000
0000
0000
,
0000
0000
0000
0000
,
3003
0000
0000
0000
;

//---------------dance-single - ----------------
#NOTES:
     dance-single:
     :
     Easy:
     4:
     0.253010,0.351642,0.073488,0.051442,0.000000,241.000000,231.000000,10.000000,7.000000,0.000000,0.000000,0.253010,0.351642,0.073488,0.051442,0.000000,241.000000,231.000000,10.000000,7.000000,0.000000,0.000000:
0000
0000
0000
0000
,
0000
0000
0000
0000
,
0000
0000
0000
0000
,
0010
0000
0010
0000
,
0100
0000
0100
0000
,
0001
0000
0001
0000
,
1000
1000
1000
0000
,
0010
0000
0010
0000
,
0100
0000
0100
0000
,
0001
0000
0001
0000
,
0010
0010
0010
0000
,
0002
0000
1000
0000
,
0010
0010
0010
0003
,
0200
0000
0010
0000
,
1000
1000
1000
0300
,
0002
0000
0010
0000
,
1000
0000
1000
0000
,
0010
0000
0100
0003
,
0001
1000
0010
1001
,
0110
0110
0010
0000
,
0010
1000
0100
0000
,
1000
1000
1000
0000
,
0010
0100
0001
0010
,
0001
0001
0001
0000
,
0100
0010
1000
0100
,
1000
1000
1000
0000
,
1000
0010
0000
0010
1000
0000
1000
0000
,
0010
0000
0010
0000
,
0100
0000
0100
0000
,
0100
0001
0010
0000
,
0010
0001
1000
1000
,
0010
0100
0001
0000
,
0001
0010
0001
0000
,
0100
0000
0100
0000
,
0010
0010
1000
0100
,
1000
1000
1000
0000
,
0001
0001
0001
0000
,
0100
0010
1000
0000
,
1000
0100
0010
0000
,
0001
0001
1000
0000
,
1000
1000
0100
0000
,
1000
0010
0100
0000
,
0100
0001
0010
0000
,
0001
0001
1000
1000
,
0010
0100
0001
0010
,
0001
0001
0100
0100
,
0010
1000
0100
1000
,
0010
0010
0010
0100
,
0100
0100
0001
0000
,
0001
0001
1000
0000
,
2020
0000
3030
1001
,
0110
0010
0010
0000
,
0010
1000
0100
1000
,
0010
0010
0100
0100
,
0001
0010
0001
0100
,
0010
0000
1000
0000
,
0100
1000
0010
1000
,
0001
0010
0001
0000
,
1000
0100
1000
1000
,
0010
0010
0010
0000
,
0100
0100
0100
0000
,
0001
0001
0001
0000
,
0100
0100
0010
1000
,
0100
0100
0100
0000
,
1000
1000
1000
0000
,
0010
0010
0010
0000
,
0100
0000
0100
0001
,
1001
0000
0010
0000
,
0100
0000
0010
0000
,
1000
0000
0100
0000
,
1000
0000
0010
0010
,
0100
0000
1000
0000
,
0010
0000
0100
0000
,
0001
0000
0010
0000
,
0001
0000
1000
1000
,
1001
0000
0100
0000
,
0010
0000
1000
0000
,
0100
0000
1000
0000
,
0010
0000
0100
0001
,
0011
0000
0001
0000
,
1000
0000
0010
0000
,
0100
0000
0010
0000
,
1000
0000
0100
1000
,
2002
0000
0000
0000
,
0000
0000
0000
0000
,
0000
0000
0000
0000
,
0000
0000
0000
0000
,
3003
0000
0000
0000
;

//---------------dance-single - ----------------
#NOTES:
     dance-single:
     :
     Beginner:
     2:
     0.149076,0.213484,0.029395,0.000000,0.000000,142.000000,138.000000,4.000000,0.000000,0.000000,0.000000,0.149076,0.213484,0.029395,0.000000,0.000000,142.000000,138.000000,4.000000,0.000000,0.000000,0.000000:
// measure 0
0000
0000
0000
0000
,  // measure 1
0000
0000
0000
0000
,  // measure 2
0000
0000
0000
0000
,  // measure 3
1000
0000
0000
0000
,  // measure 4
0100
0000
0000
0000
,  // measure 5
0010
0000
0000
0000
,  // measure 6
0001
0000
0000
0000
,  // measure 7
0100
0000
0000
0000
,  // measure 8
0010
0000
0000
0000
,  // measure 9
1000
0000
0000
0000
,  // measure 10
0001
0000
0000
0000
,  // measure 11
1000
0000
0000
0000
,  // measure 12
0100
0000
0000
0000
,  // measure 13
0001
0000
0000
0000
,  // measure 14
0010
0000
0000
0000
,  // measure 15
0010
0000
0000
0000
,  // measure 16
0100
0000
0000
0000
,  // measure 17
1000
0000
0001
0000
,  // measure 18
1000
1000
1000
0000
,  // measure 19
1001
0000
0100
0000
,  // measure 20
0010
0000
0010
0000
,  // measure 21
1000
0000
1000
0000
,  // measure 22
0100
0000
1000
0000
,  // measure 23
0010
0000
0010
0000
,  // measure 24
0100
0000
0100
0000
,  // measure 25
0001
0000
1000
0000
,  // measure 26
0001
0001
0001
0000
,  // measure 27
1000
0000
1000
0000
,  // measure 28
0010
0000
0000
0000
,  // measure 29
0100
0000
0001
0000
,  // measure 30
1000
1000
1000
0000
,  // measure 31
0001
0000
0100
0000
,  // measure 32
0010
0000
0000
0000
,  // measure 33
0100
0000
0000
0000
,  // measure 34
0001
0000
1000
1000
,  // measure 35
0001
0000
0010
0000
,  // measure 36
1000
0000
1000
0000
,  // measure 37
0100
0000
1000
0000
,  // measure 38
0001
0001
0001
0000
,  // measure 39
1000
0000
1000
0000
,  // measure 40
0001
0000
0001
0000
,  // measure 41
1000
0000
1000
0000
,  // measure 42
0001
0000
0001
0001
,  // measure 43
1000
0000
1000
0000
,  // measure 44
0010
0000
0010
0000
,  // measure 45
1000
0000
0001
0000
,  // measure 46
0100
0000
1000
0000
,  // measure 47
0001
0000
0000
0000
,  // measure 48
1000
0000
1000
0000
,  // measure 49
0001
0000
0001
0000
,  // measure 50
1000
0000
0000
1000
,  // measure 51
1001
0000
0001
0000
,  // measure 52
1000
1000
0010
0000
,  // measure 53
0100
0000
0100
0000
,  // measure 54
0001
0000
1000
0000
,  // measure 55
0100
0000
0100
0000
,  // measure 56
1000
1000
1000
0000
,  // measure 57
0010
0000
0001
0000
,  // measure 58
0100
0100
0100
0100
,  // measure 59
0001
0000
0010
0000
,  // measure 60
1000
0000
0100
0000
,  // measure 61
1000
0000
0000
0000
,  // measure 62
0010
0000
0000
0000
,  // measure 63
0010
0000
0100
0000
,  // measure 64
0001
0000
0010
0000
,  // measure 65
1000
0000
0000
0000
,  // measure 66
1000
0000
0001
0001
,  // measure 67
1001
0000
0000
0000
,  // measure 68
0100
0000
0000
0000
,  // measure 69
0010
0000
0000
0000
,  // measure 70
1000
0000
0000
0000
,  // measure 71
0001
0000
0000
0000
,  // measure 72
0100
0000
0000
0000
,  // measure 73
0010
0000
0000
0000
,  // measure 74
1000
0000
1000
1000
,  // measure 75
1001
0000
0000
0000
,  // measure 76
1000
0000
0000
0000
,  // measure 77
0010
0000
0000
0000
,  // measure 78
0100
0000
0000
0000
,  // measure 79
0001
0000
0000
0000
,  // measure 80
1000
0000
0000
0000
,  // measure 81
0100
0000
0000
0000
,  // measure 82
0010
0000
0001
0000
,  // measure 83
1000
0000
0000
0000
;

//---------------dance-single - ----------------
#NOTES:
     dance-single:
     :
     Medium:
     5:
     0.332797,0.447544,0.286605,0.316000,0.000000,317.000000,278.000000,39.000000,43.000000,0.000000,0.000000,0.332797,0.447544,0.286605,0.316000,0.000000,317.000000,278.000000,39.000000,43.000000,0.000000,0.000000:
0000
0000
0000
0000
,
0000
0000
0000
0000
,
0000
0000
0000
0000
,
1000
1000
1000
0000
,
0010
0010
0010
0000
,
0100
0100
0100
0000
,
0001
0010
0001
0000
1000
0000
1000
0000
,
0010
0010
0010
0000
,
0100
0100
0100
0000
,
0001
0001
0001
0000
,
1000
0010
0100
0000
0001
0000
0001
0000
,
1001
0000
0110
0000
,
0010
1000
0100
1000
,
1100
0000
0011
0000
,
0001
0100
0010
1000
,
1000
0000
0001
0000
,
1000
0000
1000
0000
,
0002
0000
0000
0000
,
0103
1000
0100
0110
,
1001
1000
0010
0100
,
0001
0010
0001
0001
,
0100
0010
1000
0100
,
1000
0010
0100
0000
0001
1000
0001
0000
,
1000
1000
0010
0010
,
1000
0100
0010
0001
,
0001
0100
0010
1000
,
0100
1000
0000
0100
1000
0000
1000
0000
,
0010
0010
1000
0001
,
0010
0010
0001
0100
,
0010
0010
1000
0100
,
1000
0000
0010
0000
0100
0100
0100
0000
,
0010
0010
0001
0001
,
0100
0100
0010
0010
,
2000
0000
0002
3003
,
1000
0000
0010
0100
,
1001
0010
0010
1000
,
0100
1000
0010
0100
,
0010
0001
0100
0000
0001
0000
0010
0000
,
1000
0000
0100
0000
1000
0000
0010
0010
,
0100
0100
0010
0010
,
1000
1000
0001
0001
,
1000
0010
0100
0001
,
1000
1000
0001
0001
,
1100
0010
0001
0001
,
0100
0010
1000
0100
,
1000
0010
1000
0010
,
0100
0001
0010
0001
,
0101
0011
1100
1010
,
0010
0100
0001
1000
,
0020
0000
0200
0330
,
2002
0000
3003
1001
,
1010
0010
0010
0100
,
0001
0010
0001
0100
,
0010
0010
1000
0100
,
1000
0010
1000
0100
,
1100
0011
0101
1010
,
0010
0000
0100
0000
0001
0000
0010
0001
,
0100
0100
0010
1000
,
0100
1000
0000
0100
1000
0000
1000
0000
,
0010
0001
0100
0010
,
0001
0010
0001
0100
,
0010
1000
0100
0010
,
0001
0000
0100
0000
0001
0010
0001
0000
,
0100
1000
0100
0001
,
0010
0000
0010
0000
0100
0000
0010
1000
,
0100
0010
0001
1000
,
2002
3003
1000
1000
,
2020
0030
3001
0000
,
0022
0030
1003
0000
,
0220
0300
1030
0000
,
2200
0300
3001
0000
,
0202
0300
1003
0000
,
2020
0030
3100
0000
,
2200
0300
3010
0000
,
2200
3300
1001
1001
,
0220
0030
0310
0000
,
2020
3000
1030
0000
,
2200
0300
3100
0000
,
0022
0003
0031
0000
,
0202
0300
0103
0000
,
2200
3000
1300
0000
,
0220
0300
0130
0000
,
0202
0003
0301
1000
,
2002
0000
0000
0000
,
0000
0000
0000
0000
,
0000
0000
0000
0000
,
0000
0000
0000
0000
,
3003
0000
0000
0000
;
