#TITLE:会社はワタシで廻ってる!?;
#SUBTITLE:;
#ARTIST:新谷さなえ;
#TITLETRANSLIT:;
#SUBTITLETRANSLIT:;
#ARTISTTRANSLIT:;
#GENRE:;
#CREDIT:;
#BANNER:Sekai wa watashi de mawatteru!.[X]-banner.png;
#BACKGROUND:Sekai wa watashi de mawatteru!.[X]-bg.png;
#LYRICSPATH:;
#CDTITLE:;
#MUSIC:Sekai wa watashi de mawatteru.ogg;
#OFFSET:-1.380000;
#SAMPLESTART:77.317406;
#SAMPLELENGTH:15.000000;
#SELECTABLE:YES;
#BPMS:0.000000=128.000000
;
#STOPS:
;
#BGCHANGES:;
#KEYSOUNDS:;
#ATTACKS:;

//---------------dance-single - ----------------
#NOTES:
     dance-single:
     :
     Hard:
     7:
     0.442256,0.515550,0.457712,0.091542,0.000000,372.000000,317.000000,55.000000,11.000000,0.000000,0.000000,0.442256,0.515550,0.457712,0.091542,0.000000,372.000000,317.000000,55.000000,11.000000,0.000000,0.000000:
// measure 0
0000
0000
0000
0000
,  // measure 1
0000
0000
0000
0000
,  // measure 2
0000
0000
0000
0000
,  // measure 3
0000
0000
0000
0000
,  // measure 4
1000
0100
0001
0010
,  // measure 5
1000
0100
0001
0010
,  // measure 6
1000
0100
0001
0100
1000
0100
0001
0100
,  // measure 7
1000
1000
0001
0001
0100
0010
1000
0100
,  // measure 8
0010
0000
0011
0000
0100
1000
0001
0100
,  // measure 9
0010
1010
0001
0101
,  // measure 10
1000
0000
1100
0000
0100
0010
0001
0010
,  // measure 11
0100
1100
0001
0101
,  // measure 12
1000
0010
0001
0000
1000
0100
0001
0000
,  // measure 13
1000
0100
0010
0100
1000
0001
0100
0000
,  // measure 14
1010
0100
0011
0100
,  // measure 15
1000
0100
0001
0100
1000
0000
0001
0000
,  // measure 16
1000
0010
0100
0000
0101
0000
1000
0000
,  // measure 17
0001
0010
0100
0000
1100
0000
0001
0000
,  // measure 18
0010
0001
0100
0000
0010
1000
0100
0000
,  // measure 19
1000
0010
0001
0010
1000
0001
0100
0000
,  // measure 20
0001
0010
0100
0000
1100
0000
0001
0000
,  // measure 21
1000
0010
0100
0000
0101
0000
1000
0000
,  // measure 22
0100
1000
0010
0000
0100
0001
0010
0000
,  // measure 23
0001
0100
1000
0100
0010
1000
0001
0001
,  // measure 24
0100
0001
0010
0000
0011
0000
1100
0000
,  // measure 25
0100
1000
0010
0000
1010
0000
0101
0000
,  // measure 26
1000
0100
0001
0000
1000
0010
0001
0000
,  // measure 27
1000
0010
0100
0001
0100
1000
0100
0000
,  // measure 28
0001
0100
0001
0000
1000
0100
0010
0001
,  // measure 29
1000
0010
1000
0000
0001
0010
0100
1000
,  // measure 30
0001
0100
0001
0000
1000
0100
0010
0000
,  // measure 31
0011
0110
1100
0101
,  // measure 32
1000
0010
2000
0000
3001
0010
0002
0000
,  // measure 33
0013
0100
0020
0000
0031
1000
0002
0000
,  // measure 34
0103
0010
0200
0000
0310
1000
0020
0000
,  // measure 35
1030
0100
0020
0000
0031
1000
0010
0110
,  // measure 36
0000
0001
0100
0100
0010
1000
0001
0001
,  // measure 37
1000
0100
0010
0000
0001
1000
0001
0200
,  // measure 38
0000
0301
0010
0001
0100
0010
1000
1100
,  // measure 39
0000
0100
0010
0011
0000
0001
0100
0110
,  // measure 40
0000
1001
0110
1001
0110
0000
0000
0000
,  // measure 41
0001
0100
1000
0000
0110
0000
1001
0000
,  // measure 42
1000
0100
0001
0000
0110
0000
1001
0000
,  // measure 43
0001
0010
0100
0000
1000
0010
0100
0000
,  // measure 44
1010
0101
1100
0101
,  // measure 45
1000
0100
0001
0000
0110
0000
1001
0000
,  // measure 46
0001
0100
1000
0000
0110
0000
1001
0000
,  // measure 47
1000
0100
0020
0000
0031
0100
0020
0000
,  // measure 48
1030
0100
0001
0010
,  // measure 49
1001
0000
0110
0000
0001
0010
1000
0000
,  // measure 50
1001
0000
0110
0000
1000
0010
0001
0000
,  // measure 51
0110
1001
0110
1001
,  // measure 52
0001
0010
1000
0001
0100
1000
1001
0000
,  // measure 53
1000
0100
0001
0100
1000
0010
0100
0210
,  // measure 54
0000
0301
0001
1000
1000
0100
0100
0010
,  // measure 55
0001
0000
1010
0000
0010
0100
0001
0010
,  // measure 56
0100
0000
1000
0001
0100
0001
1000
0100
,  // measure 57
0010
0000
0010
0000
0100
1000
0010
0110
,  // measure 58
0000
1001
0000
0110
0000
1001
0000
1000
,  // measure 59
0001
0000
0000
0000
;

//---------------dance-single - ----------------
#NOTES:
     dance-single:
     :
     Medium:
     5:
     0.310293,0.319150,0.124830,0.058254,0.000000,261.000000,246.000000,15.000000,7.000000,0.000000,0.000000,0.310293,0.319150,0.124830,0.058254,0.000000,261.000000,246.000000,15.000000,7.000000,0.000000,0.000000:
0000
0000
0000
0000
,
0000
0000
0000
0000
,
0000
0000
0000
0000
,
0000
0000
0000
0000
,
0001
0001
0100
0100
,
1000
1000
0010
0010
,
0001
0100
0001
0000
1000
0010
1000
0000
,
0001
0000
1000
0000
0001
0100
0010
1000
,
0001
0000
0001
0000
0010
0100
1000
0000
,
0001
0100
0010
1000
,
0001
0000
0010
0000
0100
1000
0100
0000
,
0010
0001
0100
1000
,
0010
0001
0010
0000
0100
0000
0100
0000
,
1000
0010
1000
0000
0100
0000
0100
0000
,
0001
0010
1000
0100
,
0001
0100
0001
0100
0010
0000
1000
0000
,
0001
0000
0010
0000
0100
1000
0100
0000
,
1000
0000
0010
0000
0100
0001
0100
0000
,
0001
0010
0100
1000
,
0001
0100
0001
0000
1000
0100
1000
0000
,
0001
0000
0010
0000
0100
1000
0001
0000
,
1000
0000
0010
0000
0100
0001
1000
0000
,
0001
0010
1000
0100
,
0001
1000
0001
1000
0001
1000
0001
0000
,
0010
0000
0001
0000
1000
0010
1000
0000
,
0100
0000
0010
0000
0001
1000
0001
0000
,
1000
0010
0001
0100
,
1000
0000
0001
0000
1000
0010
1000
0000
,
0001
0000
0010
0000
0001
0100
0001
0000
,
1000
0000
0010
0000
1000
0100
1000
0000
,
0001
0100
1000
0100
,
0001
0010
1000
0100
,
0001
0001
0010
0100
,
1000
1000
1000
1000
,
0001
0100
0010
0010
,
1000
0100
0001
0010
,
1000
0001
0100
0010
,
1000
0100
0010
0001
,
1000
0000
0010
0000
0100
0000
0100
0010
,
0000
0000
1000
0001
0000
0000
0100
0010
,
0000
1000
0001
1000
0001
0000
0000
0000
,
1001
0110
0001
1000
,
1001
0110
1000
0001
,
0010
0100
0010
0100
,
1000
0001
1000
0001
,
1000
0010
0100
0100
,
0001
0010
0100
0100
,
2000
3001
0002
1003
,
2000
3002
2003
3002
,
0013
0100
1100
1000
,
0010
0100
0101
0001
,
1000
1100
0001
0101
,
1000
0100
0001
0010
,
1000
0001
1000
0000
0010
0000
0010
0000
,
2000
0000
0100
3100
,
1000
1010
0010
0101
,
0001
0011
0100
1100
,
0001
0100
1000
0010
,
1001
0110
1001
1000
,
0001
0000
0000
0000
;

//---------------dance-single - ----------------
#NOTES:
     dance-single:
     :
     Easy:
     3:
     0.205673,0.220950,0.024966,0.024966,0.000000,173.000000,170.000000,3.000000,3.000000,0.000000,0.000000,0.205673,0.220950,0.024966,0.024966,0.000000,173.000000,170.000000,3.000000,3.000000,0.000000,0.000000:
0000
0000
0000
0000
,
0000
0000
0000
0000
,
0000
0000
0000
0000
,
0000
0000
0000
0000
,
1000
0000
0100
0000
,
0001
0000
0010
0000
,
1000
1000
0001
0001
,
1000
1000
1000
1000
,
0010
0000
0000
0000
,
1000
0001
1000
0000
,
0001
0010
0100
0000
,
1000
0010
0100
0000
,
0001
0000
0001
0100
,
0010
0000
0010
1000
,
0100
0000
0001
0000
,
0010
1000
0001
0000
,
1000
0010
0100
0100
,
0001
0010
0100
1000
,
0010
0000
0100
0000
,
0001
1000
1000
1000
,
0010
0000
0100
0001
,
1000
0000
0100
0010
,
0001
0000
1000
0000
,
0001
0001
0001
1000
,
0010
0000
0100
0100
,
0001
0000
0010
0010
,
0100
0000
1000
0000
,
0001
1000
0001
1000
,
0010
0000
0100
0100
,
0001
0000
0010
0010
,
0100
0000
1000
0000
,
1001
0000
1001
0000
,
0001
0001
0001
0001
,
1000
1000
1000
1000
,
0010
0010
0010
0010
,
0100
0001
0100
0001
,
1000
0100
0010
0100
,
1000
0001
0100
0010
,
1000
0001
1000
0001
,
0010
0000
0010
0000
,
0001
1000
1001
0000
,
1000
0010
0100
0000
,
0001
0010
0100
0000
,
1000
0010
1000
0010
,
0100
0001
0100
0001
,
1000
0100
0010
0000
,
0001
0100
0010
0000
,
2000
3000
0002
0003
,
2000
0000
0000
3000
,
0001
0010
0001
0000
,
1000
0010
1000
0000
,
0001
0010
0001
0010
,
0100
1000
0100
0000
,
1000
0001
0001
0000
,
0010
0100
0100
0000
,
1000
1000
0010
0000
,
0001
0001
0100
0000
,
1000
0010
0001
0100
,
1000
0001
1000
0000
,
0001
0000
0000
0000
;

//---------------dance-single - ----------------
#NOTES:
     dance-single:
     :
     Beginner:
     1:
     0.101053,0.171850,0.049932,0.008322,0.000000,85.000000,79.000000,6.000000,1.000000,0.000000,0.000000,0.101053,0.171850,0.049932,0.008322,0.000000,85.000000,79.000000,6.000000,1.000000,0.000000,0.000000:
0000
0000
0000
0000
,
0000
0000
0000
0000
,
0000
0000
0000
0000
,
0000
0000
0000
0000
,
0001
0000
0000
0000
,
0001
0000
0000
0000
,
1000
0000
1000
0000
,
0001
0001
0001
0001
,
0001
0000
0000
0000
,
0001
0000
0000
0000
,
0010
0000
0000
0000
,
0010
0000
0000
0000
,
0100
0000
0000
0000
,
0100
0000
0000
0000
,
1000
0000
0000
0000
,
0001
0000
0000
0000
,
1001
0000
0000
0000
,
0001
0000
0000
0000
,
0001
0000
0000
0000
,
0001
0000
0000
0000
,
1001
0000
0000
0000
,
1000
0000
0000
0000
,
0010
0000
0000
0000
,
1000
0000
0000
0000
,
0110
0000
0000
0000
,
0010
0000
0000
0000
,
0010
0000
0000
0000
,
0010
0000
0000
0000
,
1001
0000
0000
0000
,
1000
0000
0000
0000
,
0001
0000
0001
0000
,
0001
0000
0000
0000
,
0001
0000
0000
0000
,
0010
0000
0000
0000
,
0100
0000
0000
0000
,
1000
0000
0000
0000
,
0001
0000
0000
0000
,
0001
0000
0000
0000
,
0010
0000
0000
0000
,
0100
0000
0000
0000
,
0100
0000
0000
0000
,
1001
0000
1000
1000
,
0000
0000
0001
0001
,
0000
1000
0000
1000
,
0000
0001
0000
0001
,
0000
1000
1000
1000
,
0000
0001
0001
0001
,
0000
1000
0000
0001
,
0000
1001
0000
0000
,
1000
1000
1000
0000
,
0001
0001
0001
0000
,
0010
0000
0010
0000
,
0100
0000
0100
0000
,
1000
0000
0000
0000
,
0001
0000
0000
0000
,
0010
0000
0010
0000
,
0100
0000
0100
0000
,
1000
0000
1000
0000
,
0002
0000
0000
0000
,
0003
0000
0000
0000
;

//---------------dance-single - ----------------
#NOTES:
     dance-single:
     :
     Challenge:
     9:
     0.582542,0.613750,0.474356,0.116508,0.166441,490.000000,433.000000,57.000000,14.000000,0.000000,0.000000,0.582542,0.613750,0.474356,0.116508,0.166441,490.000000,433.000000,57.000000,14.000000,0.000000,0.000000:
0000
0000
0000
0000
,
0000
0000
0000
0000
,
0000
0000
0000
0000
,
0000
0000
0000
0000
,
0001
0000
0000
0000
0000
0100
0001
0000
0000
0100
0000
0000
0001
0000
0000
0010
0000
0000
1000
0000
0000
0010
0000
0000
,
0001
0000
0000
0000
0000
0100
0001
0000
0000
0100
0000
0000
0001
0000
0000
0010
0000
0000
1000
0000
0000
0010
0000
0000
,
0001
0100
1000
0100
0001
0010
1000
0010
,
0001
0000
0000
0000
0001
0000
0000
0000
1000
0000
0000
0000
0001
0100
0001
0100
0010
0000
0000
0000
1000
0000
0100
0000
0010
0000
0000
0000
0001
0000
0000
0000
,
0100
0000
0000
0000
0000
0000
0010
0000
0000
0000
0000
1000
0001
0000
0000
0001
0000
0000
0010
0000
0000
0100
0000
0000
,
1000
0010
0100
0000
0001
1000
0001
0000
,
0010
0000
0000
0000
0000
0000
0100
0000
0000
0000
0000
1000
0001
0000
0000
0001
0000
0000
0100
0000
0000
0110
0000
0000
,
0000
1001
0000
0110
0000
1001
0000
1000
,
0001
0000
0001
0100
0000
0000
0100
0000
0000
0001
0000
0000
0010
0000
0000
0100
0000
0000
0010
0000
0000
0001
0000
0000
,
1000
0000
1000
0010
0000
0000
0010
0000
0000
1000
0000
0000
0100
0000
0000
0010
0000
0000
0100
0000
0000
1000
0000
0000
,
1001
0010
0100
1001
0010
0100
0010
1001
,
0000
0011
0110
1100
1001
0000
0000
0001
,
1000
0000
0000
0010
0000
0000
0100
0000
0000
0010
0000
0010
1000
0000
0000
0100
0000
0000
0010
0000
0000
0001
0000
0000
,
1000
0000
0000
0010
0000
0000
0100
0000
0000
0010
0000
0010
1000
0000
0000
0100
0000
0000
0010
0000
0000
0001
0000
0000
,
1000
0000
0000
0010
0000
0000
0100
0000
0000
0010
0000
0010
1000
0000
0000
0100
0000
0000
0010
0000
0000
0001
0000
0000
,
0000
0110
0000
1001
0000
0110
0000
1000
,
0001
0000
0000
0010
0000
0000
0100
0000
0000
0010
0000
0010
0001
0000
0000
0100
0000
0000
0010
0000
0000
1000
0000
0000
,
0001
0000
0000
0010
0000
0000
0100
0000
0000
0010
0000
0010
0001
0000
0000
0100
0000
0000
0010
0000
0000
1000
0000
0000
,
0001
0000
0000
0010
0000
0000
0100
0000
0000
0010
0000
0010
0001
0000
0000
0100
0000
0000
0010
0000
0000
1000
0000
0000
,
0000
0110
0000
1001
0000
0110
1000
0001
,
1000
0000
0000
0100
0000
0000
0010
0000
0000
0100
0000
0100
1000
0000
0000
0100
0000
0000
0010
0000
0000
0001
0000
0000
,
1000
0000
0000
0010
0000
0000
0100
0000
0000
0010
0000
0010
1000
0000
0000
0010
0000
0000
0100
0000
0000
0001
0000
0000
,
1000
0000
0000
0100
0000
0000
0010
0000
0000
0100
0000
0100
1000
0000
0000
0100
0000
0000
0010
0000
0000
0001
0000
0000
,
0000
0110
0000
1001
0000
0110
0001
1000
,
0001
0000
0000
0010
0000
0000
0001
0000
0000
0100
0000
0100
0010
0000
0000
1000
0000
0000
0001
0000
0000
1000
0000
0000
,
0100
0000
0000
0001
0000
0000
0100
0000
0000
0010
0000
0010
0001
0000
0000
1000
0000
0000
0001
0000
0000
1000
0000
0000
,
0010
0000
0000
0100
0000
0000
1000
0000
0000
0100
0000
0100
0001
0000
0000
1000
0000
0000
0001
0000
0000
1000
0000
0000
,
0001
0000
0000
0010
0000
0010
0100
0000
0100
1000
0000
1000
0001
0000
0001
1000
0000
1000
0010
0000
0010
0100
0000
0100
,
0001
1000
0001
1000
0100
1000
0100
1000
,
0001
0100
0001
0100
0010
1000
0010
1000
,
0001
0010
0001
0010
0100
1000
0100
1000
,
0001
0100
0001
0100
0001
1000
0001
1001
,
0000
0000
0000
1000
0000
0000
0100
0000
0000
1000
0000
1000
0001
0000
0000
0100
0000
0000
0010
0000
0000
0100
0000
0000
,
0001
0000
0000
1000
0000
0000
0100
0000
0000
1000
0000
1000
0001
0000
0000
0100
0000
0000
0010
0000
0000
0100
0000
0000
,
0000
0001
0010
0001
0010
0100
1000
1010
,
0000
0101
1000
1100
0000
1010
0001
0011
,
0000
0110
1001
0110
1001
0000
0000
1001
,
0001
0000
0000
0010
0000
0000
0100
0000
0000
0010
0000
0010
0001
0000
0000
1000
0000
0000
0010
0000
0000
0100
0000
0000
,
0001
0000
0000
0010
0000
0000
0100
0000
0000
0010
0000
0010
0001
0000
0000
1000
0000
0000
0010
0000
0000
0100
0000
0000
,
0101
0000
0000
1000
0000
0000
1100
0000
0000
0001
0000
0000
0011
0000
0000
1000
0000
0000
1010
0000
0000
0220
0000
0330
,
0000
0000
0000
0220
0000
0000
0330
0000
0000
0220
0000
0330
1000
0000
0000
0010
0000
0000
0100
0000
0000
0001
0000
0000
,
1000
0000
0000
0100
0000
0000
0010
0000
0000
0100
0000
0100
1000
0000
0000
0001
0000
0000
0100
0000
0000
0010
0000
0000
,
1000
0000
0000
0100
0000
0000
0010
0000
0000
0100
0000
0100
1000
0000
0000
0001
0000
0000
0100
0000
0000
0010
0000
0000
,
0100
0000
0000
0001
0000
0001
0010
0000
0000
0100
0000
0000
1000
0000
0000
0010
0000
0010
0100
0000
0000
0002
0000
0000
,
0003
1100
1001
0101
0110
1000
1001
0001
,
1000
0000
0000
0100
0000
0000
0010
0000
0000
0100
0000
0100
1000
0000
0000
0001
0000
0000
0100
0000
0000
0010
0000
0000
,
1000
0000
0000
0100
0000
0000
0010
0000
0000
0100
0000
0100
1000
0000
0000
0001
0000
0000
0100
0000
0000
0010
0000
0000
,
1010
0000
0000
0001
0000
0000
0011
0000
0000
1000
0000
0000
1100
0000
0000
0001
0000
0000
0101
0000
0000
0220
0000
0330
,
0000
0000
0000
0220
0000
0000
0330
0000
0000
0220
0000
0330
0001
0000
0000
0100
0000
0000
0010
0000
0000
1000
0000
0000
,
0001
0000
0000
0010
0000
0000
0100
0000
0000
1000
0000
1000
0001
0000
0000
1000
0000
0000
0010
0000
0000
0210
0000
0000
,
0000
0301
0001
0001
1000
1000
0010
0100
,
0001
0000
0011
0000
0010
0100
1000
0001
,
0100
0001
0010
0000
0100
1000
0001
0000
,
0100
0000
1010
0000
0010
0100
0001
1001
,
0000
0110
0000
1001
0000
0110
0000
1000
,
0001
0000
0000
0000
;
