#TITLE:サプリミナル・ダイエット;
#SUBTITLE:;
#ARTIST:Charisma.com;
#TITLETRANSLIT:Sapuriminal Diet;
#SUBTITLETRANSLIT:;
#ARTISTTRANSLIT:;
#GENRE:;
#CREDIT:mf32892;
#BANNER:[Girls Week] - Sapuriminal Diet-bn.png;
#BACKGROUND:[Girls Week] - Sapuriminal Diet-bg.png;
#LYRICSPATH:;
#CDTITLE:cdtitle.png;
#MUSIC:[Girls Week] - Sapuriminal Diet.ogg;
#OFFSET:1.064983;
#SAMPLESTART:65.164299;
#SAMPLELENGTH:15.687981;
#LASTBEATHINT:280.000000;
#SELECTABLE:YES;
#DISPLAYBPM:129.0000;
#BPMS:0.000000=129.000000
,68.000000=128.800003
,70.000000=126.800011
,72.000000=129.000000
,136.000000=128.899994
,142.000000=129.000000
,206.000000=132.000000
,208.000000=129.000000
;
#STOPS:
;
#BGCHANGES:2.250=[Girls Week] - Sappuriminaru Diet.mp4=1.000=0=0=1=====,
99999=-nosongbg-=1.000=0=0=0 // don't automatically add -songbackground-
;
#KEYSOUNDS:;
#ATTACKS:;

//---------------dance-single - ----------------
#NOTES:
     dance-single:
     :
     Hard:
     8:
     0.478833,0.433176,0.133185,0.207177,0.048095,407.000000,18.000000,28.000000,0.000000,0.000000,0.000000,0.478833,0.433176,0.133185,0.207177,0.048095,407.000000,18.000000,28.000000,0.000000,0.000000,0.000000:
0000
0000
0000
0000
,
0000
0000
0000
0000
,
0000
0000
0000
0000
,
0000
0000
0000
0000
,
0000
0000
0000
0000
,
0000
0000
0000
0000
,
1000
0000
0102
0000
0013
0100
1000
0001
,
0010
0000
2100
0000
3010
0100
0001
1000
,
0010
0000
0102
0000
0013
0100
1000
0001
,
0100
0020
0000
1030
0000
0001
0001
1000
,
0001
0000
0011
0000
1000
0010
0001
0010
,
1000
0002
0000
0013
0000
0100
0100
1000
,
0010
0000
0102
0000
0013
0100
1000
0001
,
0100
0020
0000
1030
0000
0100
0100
1000
,
0001
0000
0012
0000
0103
0010
1000
0100
,
0010
0000
2100
0000
3010
0100
0001
0010
,
0100
0000
0021
0000
0130
1000
0010
0100
,
0001
2000
0000
3100
0000
0000
0000
0000
,
0010
0001
0100
0010
0100
0001
1000
0000
,
0010
1000
0100
0010
0100
1000
0001
0000
,
0100
0010
1000
0100
0010
0001
0100
0000
,
0010
0100
0001
0010
0100
1000
0010
0000
,
0100
0001
1000
0100
0010
0100
0001
0000
,
0100
0010
0100
1000
0001
0100
1000
0000
,
0100
0001
0010
0100
0010
1000
0010
0000
,
0001
0000
0000
0000
0000
0000
0000
0000
1000
0001
1000
0001
1000
0000
0000
0000
,
0001
0100
0010
1000
0100
1000
0001
0000
,
1000
0000
0001
0000
0010
0000
0001
0000
0010
0100
0000
1000
0000
0000
0001
0000
,
0100
0010
0100
0001
1000
0100
0001
0000
,
0100
0000
1000
0000
0010
0000
1000
0000
0100
0010
0100
0000
0010
0000
0000
0000
,
0001
0010
0100
1000
0001
0010
0100
1000
,
0010
0100
0001
1000
0010
0100
0001
1000
,
0100
0001
0100
1000
0010
0001
0010
1000
,
0100
0010
0001
0100
1000
0100
0001
0010
,
0200
0000
0000
0000
,
0000
0000
0000
0000
0300
1000
1000
0001
,
1000
0000
1010
0000
0001
0010
1000
0010
,
0001
2000
0000
3010
0000
0100
0100
0001
,
0010
0000
2100
0000
3010
0100
0001
1000
,
0100
0020
0000
0031
0000
0100
0100
0001
,
1000
0000
2010
0000
3100
0010
0001
0100
,
0010
0000
0102
0000
0013
0100
1000
0010
,
0100
0000
1020
0000
0130
0001
0010
0100
,
1000
0002
0000
1003
0000
0010
0010
1000
,
0010
0000
0101
0000
0100
0001
0010
0001
,
0010
0200
0000
1300
0000
0001
0001
1000
,
0010
0000
0102
0000
0013
0100
1000
0010
,
0100
1000
0100
0001
0000
1000
0100
1000
,
0001
0000
0021
0000
0130
1000
0001
0100
,
1000
0000
0120
0000
0130
0001
1000
0100
,
0001
0000
0120
0000
0130
1000
0001
0100
,
1000
0200
0000
0310
0000
0000
0000
0000
,
1000
0000
0001
0000
0010
0000
0001
0000
0100
0000
0010
0000
1000
0000
0001
0010
,
0000
0000
0100
0000
1000
0000
0010
0000
0100
0000
0010
0000
1000
0000
0001
0010
,
0000
0000
0100
0000
1000
0000
0001
0000
0100
0000
1000
0100
0000
0010
1000
0000
,
0001
0020
0000
0130
0000
1000
0001
0000
,
1000
0000
0001
0000
0100
0000
0001
0000
0010
0000
0100
0000
1000
0000
0001
0100
,
0000
0000
1000
0000
0100
0000
0010
0000
1000
0000
0100
0000
1000
0000
0001
0010
,
0000
0000
0100
0000
0010
0000
0001
0000
1000
0000
0010
0100
0000
0010
1000
0000
,
0100
0020
0000
0031
0000
1000
0001
0000
,
0010
0001
0100
0010
0100
0001
0010
0000
,
0100
1000
0010
0001
0010
1000
0001
0000
,
1000
0001
0010
0001
1000
0100
0010
0000
,
0100
1000
0010
1000
0001
0100
0010
0000
,
0100
0001
1000
0100
0010
0100
1000
0010
,
0100
0001
0010
0100
0001
0100
0010
0001
,
0100
0100
0010
0010
1000
1000
0001
0001
,
0010
1000
0010
0001
0100
1000
0100
0001
,
2000
0000
0000
0000
0000
0000
3001
1000
;

//---------------dance-single - ----------------
#NOTES:
     dance-single:
     :
     Challenge:
     10:
     0.747318,0.713467,0.118387,0.073992,0.969293,681.000000,16.000000,10.000000,0.000000,0.000000,0.000000,0.747318,0.713467,0.118387,0.073992,0.969293,681.000000,16.000000,10.000000,0.000000,0.000000,0.000000:
0000
0000
0000
0000
,
0000
0000
0000
0000
,
0000
0000
0000
0000
,
0000
0000
0000
0000
,
0000
0000
0000
0000
,
0000
0000
0000
0000
,
1000
0001
0100
0001
1000
0100
0010
0000
,
0001
1000
0100
1000
0001
0100
0010
0000
,
1000
0100
0010
0100
1000
0100
0001
0000
,
0100
2000
0000
3001
0000
1000
1000
0000
,
0001
0010
0001
0100
1000
0100
0010
0100
,
0001
1000
0001
1000
0001
1000
0001
1000
0010
0000
0100
0000
0001
0100
0000
0001
,
1000
0100
1000
0010
0001
0010
0100
0010
,
1000
0001
1000
0001
1000
0001
0010
0100
1000
0000
0001
0000
0010
0100
0000
1000
,
0001
0100
1000
0100
0010
0100
0010
1000
,
0100
1000
0100
1000
0100
0000
0010
0001
1000
0000
0001
0000
0100
0001
0000
0010
,
0001
0000
1000
0000
0100
0010
0100
0010
0001
0000
1000
0001
0000
0010
0100
0000
,
0010
0001
0010
0001
0010
0001
0010
0001
1000
0000
0010
0100
0000
0100
0001
0000
,
1000
0100
0000
1000
0010
0000
1000
0001
1000
0100
0000
0010
0001
0100
0000
0010
,
0100
0001
0100
0001
1000
0001
1000
0001
0010
0100
1000
0001
1000
0020
0000
0130
,
0002
0000
0013
0100
1000
0100
0000
1000
0001
0100
0000
0001
0100
0010
0000
0100
,
0001
1000
0001
1000
0100
0000
0010
0100
1000
0001
0000
0100
0010
0200
0000
0000
,
0310
1000
0010
1000
0100
0010
0000
0001
1000
0010
0000
1000
0001
0100
0000
0001
,
1000
0100
1000
0100
0010
0100
0000
0100
0010
0001
0000
1000
0001
0200
0000
0000
,
0310
0000
0010
0000
1000
0001
1000
0001
0010
0000
0100
1000
0100
0010
0000
0001
,
0100
0000
0010
0100
0010
0000
0100
0010
2000
0000
3001
0010
0100
1000
0002
0000
,
1003
0000
0100
0000
0010
0001
0010
0100
0000
0100
1000
0000
0001
1000
0001
1000
,
0010
0000
0010
0000
0100
0000
0100
0000
0001
1000
0000
0100
0000
0000
0010
0000
,
0001
0000
1000
0000
0001
0100
0010
1000
0000
0100
1000
0000
0000
0100
1000
0000
,
0001
0000
0010
0100
1000
0100
1000
0100
1000
0001
1000
0001
0100
0000
0010
0000
,
1000
0000
0100
0010
0100
0010
0100
0010
0000
0001
0000
1000
0001
0100
0001
0100
,
0001
0000
0010
0100
0010
0100
0010
0100
0000
1000
0000
0001
0100
0001
0100
0010
,
1000
0000
1000
0001
1000
0000
0001
0000
0010
0100
0000
0010
0100
0000
1000
0001
,
0100
0001
0100
0001
1000
0000
0100
0010
0001
1000
0001
1000
0010
0000
1000
0000
,
0001
0000
0000
0000
0000
0000
0000
0000
0000
0000
0000
0000
0000
0010
0000
0000
0000
0000
0000
0000
0000
0000
0000
0000
0000
0000
0000
0100
0000
0000
0000
0000
0000
0000
0000
0000
0000
0000
0000
0000
0000
1000
0000
0000
0000
0000
0000
0000
0000
0000
0000
0000
0000
0000
0000
0000
0000
0000
0000
0000
0000
0000
0000
0010
0000
0000
0000
0000
0000
0000
0000
0000
0000
0000
0000
0100
0000
0000
0000
0000
0000
0000
0000
0000
0000
0000
0000
0001
0000
0000
0000
0000
0000
0000
0000
0000
0000
0000
0000
0000
0000
0000
0010
0000
0000
0000
0000
0000
0000
0000
0000
0000
0000
0000
0000
0000
0000
0001
0000
0000
0000
0000
0000
0000
0000
0000
0000
0000
0000
0000
0000
0010
0000
0000
0000
0000
0000
0000
0000
0000
0000
0000
0000
0000
0000
0000
0000
0000
0000
0000
0100
0000
0000
0000
0000
0000
0000
0000
0000
0000
0000
0000
0000
0000
0000
0000
0000
0000
0000
0000
0000
0000
0000
0000
0000
0000
0000
0000
0000
0000
0000
0000
0000
0000
0000
0000
0000
0000
0000
0000
0000
0000
,
0000
2002
0000
0000
0000
0000
0000
0000
0000
0000
0000
0000
0000
0000
0000
0000
0000
0000
0000
0000
0000
0000
0000
0000
0000
0000
0000
0000
0000
0000
0000
0000
3003
0000
0000
0000
0000
0000
0000
0000
0000
0000
0000
0000
0000
0000
0000
0000
0110
0000
0000
0000
0000
0000
0000
0000
0000
0000
0000
0000
0000
0000
0000
0000
,
1000
0000
0001
0000
1000
0100
1000
0100
0010
0000
0001
1000
0000
1000
0001
0000
,
1000
0001
1000
0001
1000
0001
1000
0001
0100
0000
0010
1000
0000
0001
1000
0000
,
0001
0000
0010
0000
0001
0100
0001
0100
0010
0000
1000
0001
0000
0001
1000
0000
,
0001
1000
0001
1000
0001
1000
0100
0010
0001
0000
1000
0100
0000
0010
0100
0000
,
1000
0000
0010
0000
0100
0001
0100
0001
1000
0000
0100
0010
0000
0001
1000
0000
,
0001
0000
0100
0000
0010
1000
0010
1000
0001
0000
0010
0100
0000
1000
0010
0000
,
0100
0000
0001
0000
0010
0100
0010
0100
1000
0000
0010
0100
0000
0001
1000
0000
,
0100
1000
0100
1000
0100
1000
0100
1000
0001
0000
0100
0010
0000
0010
1000
0000
,
0100
0000
1000
0000
0001
0010
0100
1000
0010
0000
0100
0001
0000
0001
1000
0000
,
0001
0010
0100
0010
0001
0010
0100
1000
0001
0000
1000
0010
0000
0010
0100
0000
,
0001
0000
1000
0000
0001
0100
0010
1000
0001
0000
0010
0100
0000
0100
1000
0000
,
0010
1000
0100
1000
0010
1000
0100
0010
0001
0000
1000
0010
0000
0010
0100
0000
,
0001
0000
0010
0000
0100
0010
0001
1000
0010
0000
0100
0001
0000
1000
0001
0000
,
1000
0000
0010
0000
0100
0001
1000
0100
0010
0000
0001
1000
0000
0001
0100
0000
,
0010
0000
1000
0000
0100
0010
0001
1000
0010
0000
1000
0001
0000
0001
0010
0000
,
0100
1000
0100
1000
0100
1000
0100
1000
0001
0000
0100
0010
0000
1000
0001
0000
,
1000
0000
1000
0000
0001
0010
0000
0010
0100
0000
0100
0000
1000
0000
0001
0100
,
0000
0010
1000
0000
0100
1000
0100
1000
0001
0000
0010
0000
0100
0000
0010
0001
,
0000
0001
1000
0000
0010
0100
0000
0100
1000
0000
0100
0010
0000
1000
0001
0000
,
0010
0100
0010
0100
0010
0100
1000
0001
0100
0000
0010
1000
0000
0001
1000
0000
,
0001
0000
0001
0000
1000
0100
0000
0100
0010
0000
0010
0000
0001
0000
1000
0010
,
0000
0100
0001
0000
0010
0001
0010
0001
1000
0000
0100
0000
0010
0000
0100
1000
,
0000
1000
0001
0000
0100
0010
0000
0010
0001
0000
0010
0100
0000
0001
1000
0000
,
0100
0010
0100
0010
0100
0010
0100
0010
0001
0100
0010
1000
0001
0000
0000
0000
,
1010
0000
0100
0000
0001
0000
1000
0001
0010
0000
0100
0000
1000
0000
0001
1000
,
0010
0000
0100
0000
0001
0000
0010
0100
0000
1000
0000
0001
0100
0001
0100
0001
,
1000
0000
0100
0000
0001
0000
0100
1000
0000
0001
0000
1000
0100
1000
0100
1000
,
0001
0000
0100
0000
1000
0000
0100
0001
1000
0000
1000
0000
0001
0000
0001
0000
,
1000
1100
1000
1001
1000
1010
1000
1001
,
0001
0101
0001
1001
0001
0011
0001
1001
,
1000
1100
1000
1001
0001
0011
0001
1001
,
0001
0100
0001
0100
0010
1000
0010
1000
0100
0010
0001
0100
0010
1000
0100
0010
,
0001
1000
0010
0200
0000
0000
0310
1001
;

//---------------dance-single - ----------------
#NOTES:
     dance-single:
     :
     Medium:
     6:
     0.382644,0.356733,0.155383,0.221976,0.000000,311.000000,21.000000,30.000000,0.000000,0.000000,0.000000,0.382644,0.356733,0.155383,0.221976,0.000000,311.000000,21.000000,30.000000,0.000000,0.000000,0.000000:
0000
0000
0000
0000
,
0000
0000
0000
0000
,
0000
0000
0000
0000
,
0000
0000
0000
0000
,
0000
0000
0000
0000
,
0000
0000
0000
0000
,
0010
0000
1002
0000
0013
0100
1000
0000
,
0010
0000
2001
0000
3010
0100
0001
0000
,
0010
0000
1002
0000
0013
0100
0010
0100
,
0000
0000
0000
0000
,
1000
0000
1100
0000
0001
0010
0100
0000
,
1000
0002
0000
1003
0000
0001
0001
0000
,
0100
0000
0102
0000
0103
0010
1000
0000
,
0001
2000
0000
3001
0000
1000
1000
0000
,
0100
0000
1200
0000
0310
0001
0100
0000
,
0010
0000
0201
0000
0310
1000
0100
0000
,
0010
0000
1200
0000
0310
0001
0100
0000
,
0010
2000
0000
3001
0000
0000
0000
0000
,
1000
0000
0100
0000
1000
0001
0100
0000
,
0010
0000
0100
0000
0001
1000
0100
0000
,
0010
0000
0001
0000
1000
0001
0100
0000
,
0010
0000
1000
0000
0001
1000
0100
0000
,
0010
0000
0001
0000
0100
0001
0100
0001
,
1000
0000
0010
0000
1000
0100
1000
0001
,
0100
0000
0010
0000
0100
0001
0100
0001
,
1000
0000
0002
1003
,
0001
0100
0001
0000
0100
0000
0100
0000
,
0001
1000
0100
1000
0100
0000
0010
0000
,
0001
0010
0001
0000
1000
0000
1000
0000
,
0001
1000
0001
1000
0010
0000
0010
0000
,
1000
0100
1000
0000
0001
0000
0010
0000
,
0001
0100
0001
0000
1000
0000
0010
0000
,
1000
0100
1000
0000
0001
0100
0001
0000
,
0010
0100
0010
0100
0020
0000
0032
0000
,
2000
0000
0000
0000
,
0000
0000
3000
1003
,
0001
0000
0101
0000
1000
0010
0100
0000
,
0001
2000
0000
3001
0000
1000
1000
0000
,
0100
0000
2100
0000
3100
0010
0001
0000
,
1000
0002
0000
1003
0000
0001
0001
0000
,
0100
0000
0201
0000
0310
1000
0100
0000
,
0010
0000
1200
0000
0310
0001
0100
0000
,
0010
0000
0201
0000
0310
1000
0100
0000
,
0010
0002
0000
1003
0000
0001
0001
0000
,
1000
0000
1010
0000
0001
0010
1000
0000
,
0010
0002
0000
1003
0000
0010
0010
0000
,
0100
0000
0102
0000
1003
0100
0001
0000
,
0100
0010
0100
1000
0000
0001
0001
0000
,
0010
0000
0012
0000
1003
0010
0001
0000
,
0010
0000
2010
0000
3001
0010
1000
0000
,
0010
0000
0012
0000
1003
0010
0001
0000
,
0010
0200
0000
0301
0000
0000
0000
0000
,
0001
0000
0100
0000
0010
1000
0100
0000
,
1000
0000
0001
0000
0010
0001
0100
0000
,
0010
0000
1000
0000
0001
0010
0100
0000
,
1000
0010
1000
0010
0100
0000
1001
0000
,
1000
0000
0100
0000
0010
0001
0100
0000
,
0001
0000
1000
0000
0010
1000
0100
0000
,
0010
0000
0001
0000
1000
0010
0100
0000
,
0001
0010
0001
0010
0100
0000
1001
0000
,
0001
0100
0001
0000
1000
0100
1000
0000
,
0001
0010
0100
1000
0100
0000
1100
0000
,
1000
0010
1000
0010
0100
0000
0100
0000
,
0001
0010
0001
0010
0100
0000
0100
0000
,
1000
0001
1000
0000
0100
0010
0100
0000
,
0010
0001
0010
0000
0001
1000
0001
0000
,
0100
0010
0100
0010
0100
0010
0100
0010
,
2000
0000
0002
3003
,
0020
0000
0000
0000
0000
0000
0130
0010
;

//---------------dance-single - ----------------
#NOTES:
     dance-single:
     :
     Easy:
     3:
     0.234660,0.229329,0.029597,0.162782,0.000000,196.000000,4.000000,22.000000,0.000000,0.000000,0.000000,0.234660,0.229329,0.029597,0.162782,0.000000,196.000000,4.000000,22.000000,0.000000,0.000000,0.000000:
0000
0000
0000
0000
,
0000
0000
0000
0000
,
0000
0000
0000
0000
,
0000
0000
0000
0000
,
0000
0000
0000
0000
,
0000
0000
0000
0000
,
1000
0010
1000
0000
,
0001
0100
0001
0000
,
0010
0001
0010
0100
,
1000
0000
0000
0000
,
0001
0001
1000
1000
,
0002
0000
1003
0000
,
0100
0100
0010
0010
,
0200
0000
1300
0000
,
0001
1000
0020
0000
,
1030
0001
0020
0000
,
0031
1000
0020
0000
,
0230
0000
0301
0001
,
1000
0100
1000
0000
,
0001
0010
0001
0000
,
0100
0001
0100
0000
,
0010
1000
0010
0000
,
1000
0001
1000
0000
,
0001
0010
0001
0000
,
1000
0100
1000
0000
,
1001
0000
0002
2003
,
3001
0001
0100
0000
,
0010
1000
0010
1000
,
0001
1000
0100
0000
,
0010
0001
0010
0001
,
1000
1000
0010
0010
,
0100
0100
0001
0001
,
1000
0001
1000
0001
,
1000
0100
1000
0100
,
2000
0000
0000
0000
,
0002
0000
3003
1001
,
1000
1000
0001
0001
,
2000
0000
3001
0000
,
0010
0010
0100
0100
,
0020
0000
0031
0000
,
1000
0001
0200
0000
,
0301
1000
0200
0000
,
1300
0001
0200
0000
,
0320
0000
1030
0000
,
0001
0010
0100
0010
,
0002
0000
1003
0000
,
0001
0100
0010
0100
,
0001
0001
1000
0000
,
1000
0100
2000
0000
,
3001
0100
0002
0000
,
0103
0010
0200
0000
,
0310
1000
0001
0000
,
1000
0100
1000
1000
,
0000
0001
0100
0001
,
0000
0100
0010
0100
,
0000
0001
0000
1001
,
1000
0100
1000
0001
,
0000
0010
0001
0010
,
0000
0100
1000
0100
,
1000
0001
0000
1001
,
0001
0001
0100
0100
,
0010
1000
0010
0000
,
1000
1000
0100
0000
,
0010
0001
0010
0000
,
0001
0001
1000
1000
,
0001
0001
1000
1000
,
0010
0100
0010
0100
,
0001
1000
0001
1000
,
0200
0000
0000
0000
0000
0000
2300
3000
;
