#VERSION:0.83;
#TITLE:River;
#SUBTITLE:;
#ARTIST:Bishop Briggs;
#TITLETRANSLIT:;
#SUBTITLETRANSLIT:;
#ARTISTTRANSLIT:;
#GENRE:;
#ORIGIN:;
#CREDIT:;
#BANNER:[Girls Week] - River.png;
#BACKGROUND:[Girls Week] - River-bg.png;
#PREVIEWVID:;
#JACKET:[Girls Week] - River-jacket.png;
#CDIMAGE:;
#DISCIMAGE:;
#LYRICSPATH:;
#CDTITLE:cdtitle.png;
#MUSIC:[Girls Week] - River.ogg;
#OFFSET:-0.168500;
#SAMPLESTART:96.001495;
#SAMPLELENGTH:15.000000;
#SELECTABLE:YES;
#DISPLAYBPM:125.000000;
#BPMS:0.000=125.000,
34.000=62.500,
34.500=125.000,
35.000=250.000,
36.000=125.000,
64.000=62.500,
64.500=125.000,
65.000=250.000,
66.000=125.000,
98.000=62.500,
98.500=125.000,
99.000=250.000,
100.000=125.000,
145.000=62.500,
145.500=125.000,
146.000=250.000,
147.000=125.000,
161.000=62.500,
161.500=125.000,
162.000=250.000,
163.000=125.000,
241.000=62.500,
241.500=125.000,
242.000=250.000,
243.000=125.000,
257.000=62.500;
#STOPS:133.750=0.480,
195.000=1.440,
229.750=0.480,
257.000=0.960;
#DELAYS:;
#WARPS:;
#TIMESIGNATURES:0.000=4=4;
#TICKCOUNTS:0.000=4;
#COMBOS:0.000=1;
#SPEEDS:0.000=1.000=0.000=0;
#SCROLLS:0.000=1.000;
#FAKES:;
#LABELS:0.000=Song Start;
#LASTSECONDHINT:128.000000;
#BGCHANGES:;
#KEYSOUNDS:;
#ATTACKS:
;

//---------------dance-single - ----------------
#NOTEDATA:;
#CHARTNAME:;
#STEPSTYPE:dance-single;
#DESCRIPTION:;
#CHARTSTYLE:;
#DIFFICULTY:Beginner;
#METER:2;
#RADARVALUES:0.149116,0.225217,0.101265,0.000000,0.007790,134.000000,121.000000,13.000000,0.000000,10.000000,0.000000,0.000000,0.000000,0.000000,0.149116,0.225217,0.101265,0.000000,0.007790,134.000000,121.000000,13.000000,0.000000,10.000000,0.000000,0.000000,0.000000,0.000000;
#CREDIT:;
#DISPLAYBPM:125.000000;
#NOTES:
// measure 0
0000
0000
0000
0000
,  // measure 1
0100
0000
0010
0000
,  // measure 2
0000
0000
0010
0000
,  // measure 3
0000
0000
1000
0000
,  // measure 4
0000
0000
1000
0000
,  // measure 5
0100
0000
0010
0000
,  // measure 6
0000
0000
0010
0000
,  // measure 7
0000
0000
0001
0000
,  // measure 8
0001
0000
0M00
0000
,  // measure 9
1000
0000
0010
0000
,  // measure 10
1000
0000
0000
0000
,  // measure 11
0001
0000
0010
0000
,  // measure 12
0001
0000
0000
0000
,  // measure 13
1000
0000
0001
0000
,  // measure 14
0100
0000
0000
0000
,  // measure 15
0001
0000
1000
0000
,  // measure 16
01M0
0000
1001
1001
,  // measure 17
1001
0000
0010
0000
,  // measure 18
1000
0000
0001
0000
,  // measure 19
1001
0000
0010
0000
,  // measure 20
0001
0000
1000
0000
,  // measure 21
0110
0000
0100
0000
,  // measure 22
1000
0000
0001
0000
,  // measure 23
0100
0000
0100
0000
,  // measure 24
0100
0000
M000
0000
,  // measure 25
0001
0000
0010
0000
,  // measure 26
0100
0000
0010
0000
,  // measure 27
1000
0000
0010
0000
,  // measure 28
0100
0000
0010
0000
,  // measure 29
0001
0000
0100
0000
,  // measure 30
1000
0000
0100
0000
,  // measure 31
0001
0000
0001
0000
,  // measure 32
1000
0000
1000
0000
,  // measure 33
1001
0000
0000
0000
1001
0000
0000
0M00
0000
0000
0000
0000
0001
0000
0000
0000
,  // measure 34
0000
0010
0000
0100
,  // measure 35
0000
1000
0000
0010
,  // measure 36
0000
M100
0000
0001
,  // measure 37
0000
0100
0000
1000
,  // measure 38
0000
0100
0000
0010
,  // measure 39
0000
0010
0000
0100
,  // measure 40
0000
000M
0000
1001
,  // measure 41
0000
0000
0100
0100
,  // measure 42
0100
0100
0000
1001
,  // measure 43
0000
0000
0010
0010
,  // measure 44
0010
0010
0000
0110
,  // measure 45
0000
0000
1000
1000
,  // measure 46
1000
1000
0000
0110
,  // measure 47
0000
0000
0001
0001
,  // measure 48
0001
0001
0000
0M00
,  // measure 49
1000
0000
0010
0000
,  // measure 50
0100
0000
0010
0000
,  // measure 51
0001
0000
0010
0000
,  // measure 52
0100
0000
0010
0000
,  // measure 53
1000
0000
0100
0000
,  // measure 54
0001
0000
0100
0000
,  // measure 55
1000
0000
1000
0000
,  // measure 56
0001
0000
0001
0000
,  // measure 57
0110
0000
0000
0000
0110
0000
0000
M000
0000
0000
0000
0000
0100
0000
0000
0000
,  // measure 58
0000
0010
0000
0001
,  // measure 59
0000
0100
0000
0010
,  // measure 60
0000
1M00
0000
0001
,  // measure 61
0000
0010
0000
1000
,  // measure 62
0000
0010
0000
0001
,  // measure 63
0000
0100
0000
0010
,  // measure 64
0000
M000
0000
0000
;

//---------------dance-single - ----------------
#NOTEDATA:;
#CHARTNAME:;
#STEPSTYPE:dance-single;
#DESCRIPTION:;
#CHARTSTYLE:;
#DIFFICULTY:Easy;
#METER:3;
#RADARVALUES:0.257057,0.325314,0.155792,0.148003,0.007790,231.000000,211.000000,20.000000,19.000000,10.000000,0.000000,0.000000,0.000000,0.000000,0.257057,0.325314,0.155792,0.148003,0.007790,231.000000,211.000000,20.000000,19.000000,10.000000,0.000000,0.000000,0.000000,0.000000;
#CREDIT:;
#DISPLAYBPM:125.000000;
#NOTES:
0000
0000
0000
0000
,
1001
1000
0010
0000
,
0000
0001
0010
0000
,
0000
1000
0100
0000
,
0000
0001
0100
0000
,
0110
0010
0001
0000
,
0000
0100
0001
0000
,
0100
0010
1000
0001
,
0010
0100
20M0
0000
,
3001
0001
0100
0010
,
2000
0100
3100
0000
,
1000
1000
0010
0100
,
0002
0010
0013
0000
,
0100
0010
0001
1000
,
0020
0100
0130
0000
,
0010
0100
0001
1000
,
010M
0000
0010
0010
,
0010
0000
0001
0001
,
0001
0000
0000
0100
,
0010
0000
1000
1000
,
1000
0000
0100
0010
,
0001
0000
0100
0100
,
0100
0000
0010
0000
,
1000
0100
0001
0100
,
1000
1000
00M2
0000
,
0103
0010
0010
0100
,
0001
0010
0110
0000
,
0100
0010
0010
0100
,
1000
0010
0110
0000
,
0100
0001
0002
1003
,
0100
1000
2000
3001
,
0001
0010
1000
0010
,
0001
1000
0110
0000
,
0100
0000
0000
0000
0010
0000
0000
M000
0100
0000
0000
0000
0001
0000
0000
0000
,
0010
0110
0000
0001
,
0010
0010
0100
1000
,
0010
011M
0000
0100
,
0010
0020
1030
0100
,
0010
0020
0031
1000
,
0100
0001
0100
1000
,
0001
M110
0000
0100
,
0000
1001
0100
0100
,
0001
1000
0000
0100
,
0000
1001
0010
0010
,
1000
0001
0000
1000
,
0000
0110
0100
1000
,
0001
0010
0000
0001
,
0000
0110
0010
1000
,
0001
0200
0000
031M
,
1000
0000
0010
0000
0020
0030
0100
0000
,
0001
0010
0011
0000
,
0001
0100
0201
0310
,
1000
0100
1200
0000
,
1300
0001
0002
0013
,
0001
1000
2000
3100
,
1000
0010
0001
0010
,
1000
0001
2002
3003
,
1010
0000
0000
0000
0011
0000
0000
M000
0101
0000
0000
0000
1100
0000
0000
0000
,
0010
0010
0000
1000
,
0010
0100
0001
0010
,
0100
100M
0000
0001
,
0010
0020
0130
1000
,
0100
0200
0310
0001
,
0100
1000
0100
0001
,
0010
M100
0000
0000
;

//---------------dance-single - ----------------
#NOTEDATA:;
#CHARTNAME:;
#STEPSTYPE:dance-single;
#DESCRIPTION:;
#CHARTSTYLE:;
#DIFFICULTY:Medium;
#METER:6;
#RADARVALUES:0.360548,0.400516,0.186951,0.163582,0.315480,324.000000,300.000000,24.000000,21.000000,10.000000,0.000000,0.000000,0.000000,0.000000,0.360548,0.400516,0.186951,0.163582,0.315480,324.000000,300.000000,24.000000,21.000000,10.000000,0.000000,0.000000,0.000000,0.000000;
#CREDIT:;
#DISPLAYBPM:125.000000;
#NOTES:
0000
0000
0000
0000
,
0110
0000
0000
0001
0000
0100
0010
0000
1000
0000
0000
0000
,
0000
0000
0000
1000
0000
0100
0010
0000
0001
0000
0000
0000
,
0000
0000
0000
0001
0000
0010
0100
0000
1000
0000
0000
0000
,
0000
0000
0000
1000
0000
0010
0100
0000
0001
0000
0000
0000
,
1001
0000
0000
0010
0000
0100
0001
0000
1000
0000
0000
0000
,
0000
0000
0000
0100
0000
0010
0001
0000
1000
0000
0000
0000
,
0002
0203
2300
3200
,
0301
0000
0010
0100
0000
1000
00M2
0000
0000
0000
0000
0000
,
1003
0000
0000
0100
0000
1000
0010
0000
0000
0100
0000
0000
,
0001
0001
1001
0000
,
0001
0000
0010
0001
0000
0000
0100
0000
0000
0010
0000
0000
,
1000
0000
0010
0000
0000
0000
0110
0000
0000
0000
0000
0000
,
0001
0000
0000
1000
0000
0100
0010
0000
0000
0100
0000
0000
,
1000
1000
1001
0000
,
0001
0000
0100
0010
0000
1000
0001
0000
0000
0001
0000
0000
,
10M0
0000
1001
0110
,
1001
0000
0001
0100
,
0010
0000
0100
0001
0000
0000
0000
0000
0000
0010
0000
0000
,
0100
0000
1000
0100
,
0010
0000
0100
1000
0000
0000
0000
0000
0000
0001
0000
0000
,
1000
0000
0010
0100
,
0001
0000
1000
0100
0000
0000
0010
0000
0000
0000
0000
0001
,
0100
0100
0010
0010
,
1000
0000
0100
0010
0000
0001
2M00
0000
0000
0000
0000
0000
,
3001
0000
0000
0010
0000
0000
0010
0000
0000
0100
0000
0100
,
1000
0000
0000
0010
0000
0100
0010
0000
1000
0001
0000
0000
,
1000
0010
0010
0100
,
0001
0000
0000
0010
0000
0100
0010
0000
0001
0100
0000
0000
,
0001
0000
0000
1000
0000
0010
1000
0000
0010
1000
0000
0000
,
1001
0000
0000
0001
0000
0010
0001
0000
0010
0001
0000
0000
,
2000
3200
0302
0203
,
1300
0000
0010
0100
0000
0001
0010
0000
0100
1000
0000
0000
,
0110
0000
0000
0000
1001
0000
0000
00M0
1001
0000
0000
0000
0110
0000
0000
0000
,
0010
0000
0100
0010
0000
1000
0100
0000
0000
1000
0000
0000
,
0001
0000
0000
0010
0000
0000
0100
0000
0010
0001
0000
0000
,
0010
0000
0100
200M
0000
0000
0000
0000
0000
3100
0000
0000
,
1000
0000
0001
0010
0000
0001
1000
0000
0000
1001
0000
0000
,
0001
0000
1000
0010
0000
1000
0001
0000
0000
0002
0000
0000
,
0203
0000
0000
2300
0000
0000
3200
0000
0000
0301
0000
0010
,
0100
0000
1000
00M2
0000
0000
0000
0000
0000
1003
0000
0000
,
0000
0000
0000
0110
0000
0000
0100
0000
0000
0001
0000
0010
,
0001
0000
0010
0001
0000
0000
0000
0000
0000
0010
0000
0000
,
0000
0000
0000
1001
0000
0000
0010
0000
0000
1000
0000
0100
,
1000
0000
0100
1000
0000
0000
0000
0000
0000
1002
0000
0000
,
0000
0000
0000
0013
0000
0000
0100
0000
0000
1000
0000
0010
,
0100
0000
0010
1000
0000
0000
0100
0000
0000
0120
0000
0000
,
0000
0000
0000
0130
0000
0000
0010
0000
0000
0001
0000
0100
,
0010
0000
0100
0002
0000
0000
0000
0000
0000
10M3
0000
0000
,
0100
0000
0000
0010
0000
0000
0010
0000
0000
0001
0000
0100
,
1000
0000
0000
0100
0000
0001
0010
0000
0001
0100
0000
0000
,
0100
0000
0000
0010
0000
0000
0010
0000
0000
1000
0000
0100
,
0001
0000
0000
0100
0000
0010
1000
0000
0010
0100
0000
0000
,
1000
0000
0000
0001
0000
0100
0010
0000
0100
0001
0000
0000
,
1001
0000
0000
1000
0000
0100
0010
0000
0100
1000
0000
0000
,
0001
0001
1000
1000
,
0001
0000
0100
0010
0000
0100
1000
0000
0100
0001
0000
0000
,
1001
0000
0000
0000
0110
0000
0000
M000
0110
0000
0000
0000
1001
0000
0000
0000
,
0010
0000
0100
0001
0000
0010
0100
0000
0000
1000
0000
0000
,
0010
0000
0000
0001
0000
0000
0010
0000
0100
0001
0000
0000
,
0010
0000
0100
200M
0000
0000
0000
0000
0000
3001
0000
0000
,
1000
0000
0010
0001
0000
0010
1000
0000
0000
1001
0000
0000
,
0001
0000
0100
1000
0000
0100
0001
0000
0000
0010
0000
0000
,
0010
0000
0000
0100
0000
0000
0100
0000
0000
1000
0000
0100
,
0001
0000
0000
0000
0000
0000
0000
0000
0100
0000
0000
0000
M020
0030
0000
0000
0000
0000
0000
0000
0000
0000
0000
0000
0000
0000
0000
0000
0000
0000
0000
0000
0000
0000
0000
0000
0000
0000
0000
0000
0000
0000
0000
0000
0000
0000
0000
0000
;

//---------------dance-single - ----------------
#NOTEDATA:;
#CHARTNAME:;
#STEPSTYPE:dance-single;
#DESCRIPTION:;
#CHARTSTYLE:;
#DIFFICULTY:Hard;
#METER:7;
#RADARVALUES:0.481843,0.500807,0.444008,0.716645,0.521904,433.000000,376.000000,57.000000,92.000000,10.000000,0.000000,0.000000,0.000000,0.000000,0.481843,0.500807,0.444008,0.716645,0.521904,433.000000,376.000000,57.000000,92.000000,10.000000,0.000000,0.000000,0.000000,0.000000;
#CREDIT:;
#DISPLAYBPM:125.000000;
#NOTES:
0000
0000
0000
0000
,
1001
0000
0000
0001
0000
0100
0010
0000
0100
0001
0000
0000
,
0000
0000
0000
1000
0000
0100
0010
0000
0001
1000
0000
0000
,
0000
0000
0000
1000
0000
0100
0010
0000
0100
1000
0000
0000
,
0000
0000
0000
0001
0000
0100
0010
0000
1000
0001
0000
0000
,
0110
0000
0000
0100
0000
0001
0010
0000
0100
1000
0000
0000
,
0000
0000
0000
0100
0000
1000
0010
0000
0100
0001
0000
0000
,
2200
0000
3300
0202
0000
0303
0022
0000
0033
2020
0000
3030
,
0100
0000
1000
0010
0000
0100
M002
0000
0000
0000
0000
0000
,
1003
0000
0000
0100
0000
1000
0002
0000
0000
0013
0000
0000
,
0001
0000
0100
0010
0000
1000
0100
0000
0010
0001
0000
0000
,
1001
0000
0001
0100
0000
0001
2000
0000
0000
3100
0000
0000
,
1000
0000
0010
0100
0000
0001
0010
0000
0100
1000
0000
0000
,
0020
0000
0000
0130
0000
0001
0200
0000
0000
0310
0000
0000
,
1000
0000
0100
0001
0000
0100
1000
0000
0001
0010
0000
0000
,
0100
0000
1000
0010
0000
0100
0020
0000
0000
0130
0000
0000
,
10M1
0000
0110
0110
,
1001
0000
0000
0100
0000
1000
0010
0000
0000
0100
0000
0000
,
0010
0000
1000
0100
0000
0000
0010
0000
0000
0110
0000
0000
,
1001
0000
0000
0100
0000
0001
0010
0000
0000
0100
0000
0000
,
0010
0000
0001
0100
0010
1000
0001
0000
0000
1001
0000
0000
,
0110
0000
0000
0100
0000
0001
0010
0000
0000
1000
0000
0000
,
0010
0000
0001
0100
0000
0000
1000
0000
0000
0100
0000
0001
,
1000
0000
0000
1000
0000
0100
0001
0000
0000
0001
0000
0100
,
1000
0000
0010
0100
0000
0002
20M0
0000
0000
0000
0000
3003
,
2200
0000
3300
0220
0000
0330
0022
0000
0033
0001
0000
0100
,
0001
0000
0000
0010
0000
0001
0010
0000
0100
1000
0001
1000
,
0002
0000
0003
0220
0000
0330
2020
0000
3030
1000
0000
0100
,
1000
0000
0000
0010
0000
1000
0010
0000
0100
0001
1000
0001
,
1000
0000
0000
1000
0000
0001
0010
0000
1000
0010
0000
0000
,
0110
0000
0000
0001
0000
1000
0010
0000
0001
0010
0000
0000
,
0202
0000
0303
2020
0000
3030
2200
0000
3300
0022
0000
0033
,
0001
0000
0010
1000
0000
0010
0100
0000
1000
0001
1000
0001
,
0011
0000
0000
0000
1010
0000
0000
0M00
1010
0000
0000
0000
0011
0000
0000
0000
,
0010
0000
0100
0010
0000
0000
0001
1000
0001
2000
0000
3000
,
0220
0000
0330
0022
0000
0033
0001
0000
0100
0001
0000
0000
,
0010
0000
0001
2M00
0000
0000
0000
0000
0000
3001
0000
0000
,
0001
0000
0100
0010
0000
0001
1000
0000
0000
0120
0000
0000
,
1030
0000
0100
0010
0000
0001
1000
0001
1000
0200
0000
0300
,
0022
0000
0033
0202
0000
0303
2020
0000
3030
0001
0000
0100
,
0010
0000
2000
0M02
0000
0000
0000
0000
3003
0110
0000
0000
,
0010
1000
0001
0100
0000
0000
0200
0000
0000
0301
0000
0010
,
1000
0000
0010
0001
0000
0000
0001
1000
0001
1000
0000
0000
,
0100
1000
0001
0010
0000
0000
0020
0000
0000
0031
0000
0100
,
1000
0000
0100
0001
0000
0000
0010
0100
0010
0100
0000
0000
,
0010
0001
1000
0100
0000
0000
0200
0000
0000
1300
0000
0010
,
0001
0000
0010
1000
0000
0000
1000
0001
1000
0001
0000
0000
,
0100
0001
1000
0010
0000
0000
0020
0000
0000
1030
0000
0100
,
0001
0000
0100
1000
0010
0100
0001
0010
0100
200M
3000
0000
,
0202
0000
0303
0220
0000
0330
2020
0000
3030
1000
0000
0100
,
1000
0000
0000
0010
0000
1000
0010
0000
0100
0001
1000
0001
,
2000
0000
3000
0220
0000
0330
0022
0000
0033
0001
0000
0100
,
0001
0000
0000
0010
0000
0001
0010
0000
0100
1000
0001
1000
,
0001
0000
0000
0010
0000
1000
0001
0000
0100
1000
0000
0000
,
2001
0000
0000
3010
0000
0001
1000
0000
0100
0001
0000
0000
,
2002
0000
3003
0220
0000
0330
0202
0000
0303
2020
0000
3030
,
1000
0000
0100
0010
0000
0001
1000
0010
0100
0010
0100
0001
,
0101
0000
0000
0000
1010
0000
0000
000M
0110
0000
0000
0000
1001
0000
0000
0000
,
0010
0000
0100
0001
0000
0010
0100
1000
0001
2000
0000
3000
,
0220
0000
0330
0202
0000
0303
0001
0000
1000
0100
0000
0000
,
0010
0000
0001
2M00
0000
0000
0000
0000
0000
3001
0000
0000
,
1000
0000
0010
0001
0000
1000
0100
0000
0000
0210
0000
0000
,
0301
0000
0100
1000
0000
0001
0010
0000
0000
2020
0000
3030
,
0202
0000
0303
0022
0000
0033
2200
0000
3300
0010
0000
0100
,
0001
0000
0000
0000
1000
0000
020M
0300
0000
0000
0000
0000
0000
0000
0000
0000
0000
0000
0000
0000
0000
0000
0000
0000
;
