#TITLE:Problem;
#SUBTITLE:;
#ARTIST:Ariana Grande feat. Iggy Azelea;
#TITLETRANSLIT:;
#SUBTITLETRANSLIT:;
#ARTISTTRANSLIT:;
#GENRE:;
#CREDIT:;
#BANNER:;
#BACKGROUND:;
#LYRICSPATH:;
#CDTITLE:;
#MUSIC:Problem.ogg;
#OFFSET:-0.580;
#SAMPLESTART:45.340;
#SAMPLELENGTH:12.000;
#SELECTABLE:YES;
#BPMS:0.000=206.000;
#STOPS:;
#TIMESIGNATURES:0.000=4=4
;
#BGCHANGES:;
#KEYSOUNDS:;

//---------------dance-single - ----------------
#NOTES:
     dance-single:
     :
     Challenge:
     9:
     0.680,0.749,0.077,1.000,0.032,503.000,11.000,166.000,15.000,0.000,0.000,0.680,0.749,0.077,1.000,0.032,503.000,11.000,166.000,15.000,0.000,0.000:
0000
0000
0000
0000
,
0000
0000
0000
0000
,
0000
0000
0000
0000
,
0000
0000
0000
0000
,
0000
0000
0000
0000
,
0000
0000
0000
0000
,
0000
0000
0000
0000
,
0000
0000
0000
0000
,
0000
0000
0000
0000
,
0011
0001
0100
0010
1000
0100
0010
0001
,
0200
0300
0200
0300
0000
0001
1000
0100
,
0020
0030
0020
0030
0000
0001
1000
0000
,
0020
0100
0130
0000
,
0110
0010
1000
0100
0010
0001
0100
0001
,
0020
0030
0020
0030
0000
0001
1000
0010
,
0200
0300
0200
0300
0000
0010
1000
0000
,
0200
0010
0310
0000
,
0210
2300
3002
0203
,
2300
3200
0302
2003
,
0000
3020
0032
0023
,
2030
3200
2300
3001
,
1001
1000
0100
0010
0001
0100
0010
1000
,
0200
0300
0200
0300
0000
1000
0001
0100
,
0020
0030
0020
0030
0000
1000
0001
0000
,
0020
0100
0130
0000
,
0020
0000
0000
0230
1000
0000
0010
0000
,
0000
0000
2300
0000
3002
0000
0000
0203
,
0320
0000
0000
0230
0001
0000
0010
0000
,
0000
0300
0101
0000
0101
0000
0000
0000
,
0200
0000
0000
0320
1000
0000
0100
0000
,
0000
0000
2030
0000
3002
0000
0000
0023
,
0230
0000
0000
0320
0001
0000
0100
0000
,
0000
0030
0011
0000
0011
0000
0000
0000
,
0020
0000
0032
0000
1003
0100
M100
0002
,
0000
0023
0000
0000
0000
0032
2003
0000
,
3020
0000
2030
0000
3001
0100
010M
2000
,
0000
3020
0000
0000
0000
2030
3002
0000
,
0203
0000
0302
0000
1003
0010
M010
0002
,
0000
0203
0000
0000
0000
0302
2003
0000
,
0001
3002
0100
0203
,
0010
0000
0000
0000
0310
0000
1000
0001
1000
0000
0200
0000
0010
0000
0310
0000
,
0200
0000
2300
0000
3001
0010
001M
2000
,
0000
3200
0000
0000
0000
2300
3002
0000
,
0203
0000
0302
0000
1003
0010
M010
0002
,
0000
0203
0000
0000
0000
0302
2003
0000
,
3020
0000
2030
0000
3001
0100
010M
2000
,
0000
3020
0000
0000
0000
2030
3002
0000
,
1000
2003
0010
3020
,
0100
0000
0000
0000
0130
0000
0001
1000
0001
0000
0020
0000
0100
0000
0130
0000
,
0020
0000
0000
2030
0000
0000
3020
0000
,
0000
0000
0032
0000
0000
0203
0000
0000
,
0302
0000
0000
1000
1000
1000
1003
0000
,
0000
0000
0001
0000
0000
0100
0000
0000
,
0110
0000
0010
0100
0010
1000
0100
0001
,
0100
1000
0001
0010
0001
0000
1000
0000
,
0000
0000
0001
0000
0100
0000
0000
0010
0000
0000
0100
0000
0001
0000
1000
0000
,
0010
0001
0010
0100
0001
0000
1000
0000
,
0010
0001
0010
1000
0100
0000
0010
0001
,
0100
1000
0100
0001
1000
0000
0100
0010
,
1000
0010
0000
0100
1000
0010
0100
0001
,
1000
1000
1000
1000
0100
0000
0010
0000
,
0011
0000
0001
1000
0001
0100
1000
0001
,
0010
1000
0001
1000
0001
0010
1000
0001
,
0100
1000
0010
0100
1000
0100
0001
1000
,
0010
0001
0010
0100
0001
1000
0100
0010
,
0001
0000
1000
0000
0010
0000
1000
0100
,
0010
1000
0010
0100
1000
0100
0001
1000
,
0010
0001
1000
0100
1000
0000
0001
0100
,
0001
0000
1000
0000
0001
0000
0010
0100
0010
0000
0001
0000
0001
0000
0001
0000
,
1001
0000
1000
0001
1000
0010
0001
1000
,
0100
0001
0100
0010
1000
0000
1000
0100
,
0010
0100
1000
0010
0100
0001
1000
0100
,
1000
0010
0001
0010
0100
0000
1000
0100
,
0001
0010
1000
0000
0010
0010
0100
1000
,
0001
0000
0000
0000
1000
0000
0000
0001
0000
0000
0100
0000
0010
0000
0000
0000
,
1000
1000
1000
0000
0100
0001
0100
0010
,
0001
0000
0000
0000
0100
0000
0000
0010
0000
0000
0100
0000
0010
0000
0000
0000
,
2000
0000
0000
0000
,
0000
3002
0000
0000
,
0023
0000
0000
0000
,
0000
0230
0000
0000
,
0320
0000
0000
0000
,
0000
0032
0000
0000
,
2003
0000
0000
0000
,
0000
3002
0000
0000
,
0103
0000
0000
0001
0000
0000
1000
0001
,
0000
0000
0000
1000
0000
0000
0100
0000
,
0010
0000
0000
0001
0000
0000
1000
0000
,
0002
0000
0203
0000
,
0310
0000
0000
1000
0000
0000
0001
0000
,
1000
0000
0000
0100
0000
0000
0010
0000
,
0100
0000
0000
1000
0000
0000
0001
0000
,
0020
0000
0032
0000
,
0003
0000
0000
0000
,
0000
0000
0000
0000
,
0020
0000
0032
0000
1003
0100
M100
0002
,
0000
0023
0000
0000
0000
0032
2003
0000
,
3020
0000
2030
0000
3001
0100
010M
2000
,
0000
3020
0000
0000
0000
2030
3002
0000
,
0203
0000
0302
0000
1003
0010
M010
0002
,
0000
0203
0000
0000
0000
0302
2003
0000
,
0001
3002
0100
0203
,
0010
0000
0000
0000
0310
0000
1000
0001
1000
0000
0200
0000
0010
0000
0310
0000
,
0200
0000
2300
0000
3001
0010
001M
2000
,
0000
3200
0000
0000
0000
2300
3002
0000
,
0203
0000
0302
0000
1003
0010
M010
0002
,
0000
0203
0000
0000
0000
0302
2003
0000
,
3020
0000
2030
0000
3001
0100
010M
2000
,
0000
3020
0000
0000
0000
2030
3002
0000
,
1000
2003
0010
3020
,
0100
0000
0000
0000
0130
0000
0001
1000
0001
0000
0020
0000
0100
0000
0130
0000
,
0020
0000
0032
0000
1003
0100
M100
0002
,
0000
0023
0000
0000
0000
0032
2003
0000
,
3020
0000
2030
0000
3001
0100
010M
2000
,
0000
3020
0000
0000
0000
2030
3002
0000
,
0203
0000
0302
0000
1003
0010
M010
0002
,
0000
0203
0000
0000
0000
0302
2003
0000
,
0001
3002
0100
0203
,
0010
0000
0000
0000
0310
0000
1000
0001
1000
0000
0200
0000
0010
0000
0310
0000
;

//---------------dance-single - ----------------
#NOTES:
     dance-single:
     :
     Hard:
     8:
     0.558,0.666,0.126,0.301,0.032,497.000,18.000,43.000,0.000,0.000,0.000,0.558,0.666,0.126,0.301,0.032,497.000,18.000,43.000,0.000,0.000,0.000:
0000
0000
0000
0000
,
0000
0000
0000
0000
,
0000
0000
0000
0000
,
0000
0000
0000
0000
,
0000
0000
0000
0000
,
0000
0000
0000
0000
,
0000
0000
0000
0000
,
0000
0000
0000
0000
,
0000
0000
0000
0000
,
0010
0001
0010
0001
1000
0100
0010
0002
,
1000
0000
1003
0000
0000
0001
0100
0002
,
0100
0000
0103
0000
0000
0010
1000
0000
,
0002
1000
1003
0000
,
0010
1000
0010
1000
0001
0100
0010
2000
,
0001
0000
3001
0000
0000
1000
0100
2000
,
0100
0000
3100
0000
0000
0010
0001
0000
,
2000
0001
3001
0000
,
1001
0001
0100
0010
,
2000
0100
0100
3100
,
0000
1000
0100
1000
,
0002
0100
0100
0103
,
0100
0001
0100
0001
1000
0010
0100
0002
,
1000
0000
1003
0000
0000
0001
0010
0002
,
0010
0000
0013
0000
0000
0100
1000
0000
,
0002
1000
1003
0000
,
2000
0000
0000
3100
0020
0000
0130
0000
,
0000
0000
2000
0000
3100
0000
0000
0020
,
0130
0000
0000
2000
3100
0000
0020
0000
,
0000
0130
2000
0000
,
3002
0000
0000
0103
0020
0000
0130
0000
,
0000
0000
0002
0000
0103
0000
0000
0020
,
0130
0000
0000
0002
0103
0000
0020
0000
,
0000
0000
0130
0000
0002
0000
0000
0003
,
1001
0000
1000
0000
0100
0010
0100
1000
,
0000
0001
0000
0000
0000
1000
0010
0000
,
0110
0000
0100
0000
0001
1000
0001
0100
,
0000
0010
0000
0000
0000
0100
0001
0000
,
1001
0000
1000
0000
0100
0010
0100
1000
,
0000
0001
0000
0000
0000
1000
0100
0000
,
0010
0010
0001
0001
,
1000
0000
0000
0000
1000
0000
0000
0001
0100
0000
0010
0000
0100
0000
0001
0000
,
1001
0000
1000
0000
0010
0100
0010
1000
,
0000
0001
0000
0000
0000
1000
0100
0000
,
0110
0000
0010
0000
0001
1000
0001
0010
,
0000
0100
0000
0000
0000
0010
0001
0000
,
1001
0000
1000
0000
0010
0100
0010
1000
,
0000
0001
0000
0000
0000
1000
0010
0000
,
0100
0100
0001
0001
,
1000
0000
0000
0000
1000
0000
0000
0001
0010
0000
0100
0000
0010
0000
0001
0000
,
2000
0000
0000
3020
0000
0000
0032
0000
,
0000
0000
0023
0000
0000
0230
0000
0000
,
0302
0000
0000
1000
1000
1000
1003
0000
,
0000
0000
0001
0000
0000
1000
0000
0000
,
1100
0000
0100
1000
0100
1000
0001
1000
,
0001
1000
0001
0100
0001
0000
1000
0000
,
0000
0000
0001
0000
1000
0000
0000
0100
0000
0000
1000
0000
0001
0000
0010
0000
,
0001
1000
0001
0010
0001
0000
1000
0000
,
0010
0100
0010
0100
0010
0000
1000
0001
,
0010
0100
0010
0100
1000
0000
0001
0100
,
0001
0100
0000
0001
1000
0001
1000
0001
,
1000
0100
0010
0001
1000
0000
0001
0000
,
1001
0000
1000
0010
1000
0100
1000
0010
,
0100
0010
1000
0001
1000
0010
1000
0100
,
0010
0100
1000
0001
0010
0100
0010
0001
,
0100
0001
1000
0010
1000
0001
1000
0100
,
0010
0000
0001
0000
1000
0000
0001
1000
,
0010
1000
0100
1000
0001
0010
0001
0100
,
0010
0100
0001
1000
0100
0000
0010
0001
,
1000
0000
0001
0000
0100
0000
0000
0010
0100
0000
0001
0000
0100
0000
0001
0000
,
1000
0000
0100
0010
0100
1000
0010
0100
,
0001
0010
0001
1000
0001
0000
1000
0100
,
1000
0001
1000
0010
0100
0001
1000
0100
,
0010
0001
0010
0100
1000
0000
0001
0100
,
0001
1000
0001
0000
0010
0010
0100
1000
,
0100
0000
0000
0000
1000
0000
0000
0001
0000
0000
1000
0000
0001
0000
0000
0000
,
1000
0010
1000
0000
0100
1000
0100
0010
,
0001
0000
0000
0000
1000
0000
0000
0010
0000
0000
1000
0000
0001
0000
0000
0000
,
2000
0000
0000
0000
,
0000
3002
0000
0000
,
0023
0000
0000
0000
,
0000
0230
0000
0000
,
0320
0000
0000
0000
,
0000
0032
0000
0000
,
2003
0000
0000
0000
,
0000
3002
0000
0000
,
0103
0000
0000
0001
0000
0000
1000
0001
,
0000
0000
0000
1000
0000
0000
0100
0000
,
0010
0000
0000
0001
0000
0000
1000
0000
,
0002
0000
0203
0000
,
0310
0000
0000
1000
0000
0000
0001
0000
,
1000
0000
0000
0100
0000
0000
0010
0000
,
0100
0000
0000
1000
0000
0000
0001
0000
,
0020
0000
0032
0000
,
0003
0000
0000
0000
,
0000
0000
0000
0000
,
1001
0000
1000
0000
0100
0010
0100
1000
,
0000
0001
0000
0000
0000
1000
0010
0000
,
0110
0000
0100
0000
0001
1000
0001
0100
,
0000
0010
0000
0000
0000
0100
0001
0000
,
1001
0000
1000
0000
0100
0010
0100
1000
,
0000
0001
0000
0000
0000
1000
0100
0000
,
0010
0010
0001
0001
,
1000
0000
0000
0000
1000
0000
0000
0001
0100
0000
0010
0000
0100
0000
0001
0000
,
1001
0000
1000
0000
0010
0100
0010
1000
,
0000
0001
0000
0000
0000
1000
0100
0000
,
0110
0000
0010
0000
0001
1000
0001
0010
,
0000
0100
0000
0000
0000
0010
0001
0000
,
1001
0000
1000
0000
0010
0100
0010
1000
,
0000
0001
0000
0000
0000
1000
0010
0000
,
0100
0100
0001
0001
,
1000
0000
0000
0000
1000
0000
0000
0001
0010
0000
0100
0000
0010
0000
0001
0000
,
1001
0000
1000
0000
0100
0010
0100
1000
,
0000
0001
0000
0000
0000
1000
0010
0000
,
0110
0000
0100
0000
0001
1000
0001
0100
,
0000
0010
0000
0000
0000
0100
0001
0000
,
1001
0000
1000
0000
0100
0010
0100
1000
,
0000
0001
0000
0000
0000
1000
0100
0000
,
0010
0010
0001
0001
,
1000
0000
0000
0000
1000
0000
0000
0001
0100
0000
0010
0000
0100
0000
0001
0000
;

//---------------dance-single - ----------------
#NOTES:
     dance-single:
     :
     Medium:
     6:
     0.385,0.581,0.217,0.063,0.007,345.000,31.000,9.000,0.000,0.000,0.000,0.385,0.581,0.217,0.063,0.007,345.000,31.000,9.000,0.000,0.000,0.000: // measure 1
0000
0000
0000
0000
,  // measure 2
0000
0000
0000
0000
,  // measure 3
0000
0000
0000
0000
,  // measure 4
0000
0000
0000
0000
,  // measure 5
0000
0000
0000
0000
,  // measure 6
0000
0000
0000
0000
,  // measure 7
0000
0000
0000
0000
,  // measure 8
0000
0000
0000
0000
,  // measure 9
0000
0000
0000
0000
,  // measure 10
0011
0000
0001
0100
0001
0000
0100
0000
,  // measure 11
0010
0100
0000
0001
,  // measure 12
1000
0001
0000
1000
,  // measure 13
0100
1000
1100
0000
,  // measure 14
1010
0000
1000
0100
1000
0000
0100
0000
,  // measure 15
0010
0100
0000
1000
,  // measure 16
0001
1000
0000
0001
,  // measure 17
0100
0001
0101
0000
,  // measure 18
0001
1000
0001
1000
,  // measure 19
0010
0100
0010
0100
,  // measure 20
0000
0001
0001
0001
,  // measure 21
1000
0100
1000
0001
,  // measure 22
0011
0000
0001
0100
0001
0000
0100
0000
,  // measure 23
0010
0100
0000
0001
,  // measure 24
1000
0001
0000
1000
,  // measure 25
0100
1000
1100
0000
,  // measure 26
1000
0000
0000
0001
1000
0000
0001
0000
,  // measure 27
0000
0000
1000
0000
0001
0000
0000
0100
,  // measure 28
0010
0000
0000
0100
0010
0000
0100
0000
,  // measure 29
0000
0010
0100
0000
,  // measure 30
0001
0000
0000
1000
0001
0000
1000
0000
,  // measure 31
0000
0000
0001
0000
1000
0000
0000
0100
,  // measure 32
0010
0000
0000
0100
0010
0000
0100
0000
,  // measure 33
0000
0010
0100
0000
,  // measure 34
1100
0000
0000
1100
0000
0000
1100
0000
,  // measure 35
0000
1100
0000
0000
,  // measure 36
0011
0000
0000
0011
0000
0000
0011
0000
,  // measure 37
0000
0011
0000
0000
,  // measure 38
0101
0000
0000
0101
0000
0000
0101
0000
,  // measure 39
0000
0000
0101
0000
0000
0001
0100
0000
,  // measure 40
0010
0010
0100
0100
,  // measure 41
0010
0100
0110
0000
,  // measure 42
1010
0000
0000
1000
0000
0000
0010
0000
,  // measure 43
0000
0000
1000
0000
0000
0100
0000
0000
,  // measure 44
1000
0000
0000
0001
0010
0001
0010
0000
,  // measure 45
0000
0000
0001
0000
0000
0010
0000
0000
,  // measure 46
0011
0000
0000
0001
0000
0000
0010
0000
,  // measure 47
0000
0000
0001
0000
0000
1000
0100
0000
,  // measure 48
0010
0010
0100
0100
,  // measure 49
0010
0100
0110
0000
,  // measure 50
0010
0000
0000
0010
0000
0000
0010
0000
,  // measure 51
0000
0000
0100
0000
0000
1000
0000
0000
,  // measure 52
0010
0000
0000
0100
0010
0100
0010
0000
,  // measure 53
0000
0000
0100
0000
0000
0001
0000
0000
,  // measure 54
0010
0001
0010
0001
,  // measure 55
1000
0001
1000
0001
,  // measure 56
0000
0100
0010
0100
,  // measure 57
0010
1000
0010
1000
,  // measure 58
0001
0001
0001
0000
,  // measure 59
1000
1000
1000
0000
,  // measure 60
0010
0000
0100
0000
,  // measure 61
0010
1000
0010
1000
,  // measure 62
0001
0000
1000
0000
0100
1000
0100
1000
,  // measure 63
0100
1000
0100
0000
1000
0001
1000
0001
,  // measure 64
1000
0001
1000
0000
0001
0100
0001
0100
,  // measure 65
0001
0100
0001
0000
0100
0010
0100
0010
,  // measure 66
0100
0100
0100
0010
,  // measure 67
1000
0001
0010
0001
,  // measure 68
1000
0001
1000
0010
,  // measure 69
0200
0000
0000
0000
,  // measure 70
0301
0000
1000
0000
0001
0010
0001
0010
,  // measure 71
0001
0010
0001
0010
0100
0000
1000
0000
,  // measure 72
0001
0000
1000
0000
0010
0000
0100
0001
,  // measure 73
1000
0001
1000
0001
1000
0000
0100
0000
,  // measure 74
0010
0010
0010
0001
,  // measure 75
0100
0000
0000
0000
0100
0000
0000
0100
0000
0000
0100
0000
0010
0000
0000
0000
,  // measure 76
1000
0010
1000
0000
0010
1000
0010
1000
,  // measure 77
0010
0000
0000
0000
1000
0000
0000
0001
0000
0000
1000
0000
0001
0000
0000
0000
,  // measure 78
2000
0000
0000
0000
,  // measure 79
0000
3002
0000
0000
,  // measure 80
0023
0000
0000
0000
,  // measure 81
0000
0230
0000
0000
,  // measure 82
0320
0000
0000
0000
,  // measure 83
0000
0032
0000
0000
,  // measure 84
2003
0000
0000
0000
,  // measure 85
0000
3002
0000
0000
,  // measure 86
0103
0000
0000
0000
,  // measure 87
0010
0000
0000
0000
,  // measure 88
0100
0000
0000
0000
,  // measure 89
0001
0000
1000
0000
,  // measure 90
0001
0000
0000
0000
,  // measure 91
1000
0000
0000
0000
,  // measure 92
0100
0000
0000
0000
,  // measure 93
0010
0000
0001
0000
,  // measure 94
0000
0000
0000
0000
,  // measure 95
0000
0000
0000
0000
,  // measure 96
0011
0000
0000
0001
0000
0000
0010
0000
,  // measure 97
0000
0000
0001
0000
0000
0100
0000
0000
,  // measure 98
0001
0000
0000
1000
0010
1000
0010
0000
,  // measure 99
0000
0000
1000
0000
0000
0010
0000
0000
,  // measure 100
1010
0000
0000
1000
0000
0000
0010
0000
,  // measure 101
0000
0000
1000
0000
0000
0001
0100
0000
,  // measure 102
0010
0010
0100
0100
,  // measure 103
0010
0100
0110
0000
,  // measure 104
1010
0000
0000
1000
0000
0000
0010
0000
,  // measure 105
0000
0000
1000
0000
0000
0100
0000
0000
,  // measure 106
1000
0000
0000
0001
0010
0001
0010
0000
,  // measure 107
0000
0000
0001
0000
0000
0010
0000
0000
,  // measure 108
0011
0000
0000
0001
0000
0000
0010
0000
,  // measure 109
0000
0000
0001
0000
0000
1000
0100
0000
,  // measure 110
0010
0010
0100
0100
,  // measure 111
0010
0100
0110
0000
,  // measure 112
0011
0000
0000
0001
0000
0000
0010
0000
,  // measure 113
0000
0000
0001
0000
0000
0100
0000
0000
,  // measure 114
0001
0000
0000
1000
0010
1000
0010
0000
,  // measure 115
0000
0000
1000
0000
0000
0010
0000
0000
,  // measure 116
1010
0000
0000
1000
0000
0000
0010
0000
,  // measure 117
0000
0000
1000
0000
0000
0001
0100
0000
,  // measure 118
0010
0010
0100
0100
,  // measure 119
0010
0100
0110
0000
;

//---------------dance-single - ----------------
#NOTES:
     dance-single:
     :
     Easy:
     3:
     0.181,0.207,0.091,0.028,0.000,164.000,13.000,4.000,0.000,0.000,0.000,0.181,0.207,0.091,0.028,0.000,164.000,13.000,4.000,0.000,0.000,0.000: // measure 1
0000
0000
0000
0000
,  // measure 2
0000
0000
0000
0000
,  // measure 3
0000
0000
0000
0000
,  // measure 4
0000
0000
0000
0000
,  // measure 5
0000
0000
0000
0000
,  // measure 6
0000
0000
0000
0000
,  // measure 7
0000
0000
0000
0000
,  // measure 8
0000
0000
0000
0000
,  // measure 9
0000
0000
0000
0000
,  // measure 10
1001
0000
0000
0000
,  // measure 11
0000
0100
0000
0000
,  // measure 12
0110
0000
0000
0000
,  // measure 13
0000
0001
0000
0000
,  // measure 14
1001
0000
0000
0000
,  // measure 15
0000
0010
0000
0000
,  // measure 16
0110
0000
0000
0000
,  // measure 17
0000
0001
0000
0000
,  // measure 18
1001
0000
0000
0000
,  // measure 19
0000
1100
0000
0000
,  // measure 20
1100
0000
0000
0000
,  // measure 21
0000
0101
0000
0000
,  // measure 22
0101
0000
0000
0000
,  // measure 23
0000
1010
0000
0000
,  // measure 24
1010
0000
0000
0000
,  // measure 25
0000
0011
0000
0000
,  // measure 26
0011
0000
0000
0000
,  // measure 27
0001
0000
0000
0000
,  // measure 28
1000
0000
0100
0000
,  // measure 29
1000
0000
0100
0000
,  // measure 30
0010
0000
0000
0000
,  // measure 31
0001
0000
0000
0000
,  // measure 32
1000
0000
0010
0000
,  // measure 33
1000
0000
0010
0000
,  // measure 34
0100
0000
0000
0100
0000
0000
0100
0000
,  // measure 35
0000
0000
0000
0000
,  // measure 36
0001
0000
0000
0001
0000
0000
0001
0000
,  // measure 37
0000
0000
0000
0000
,  // measure 38
1000
0000
0000
1000
0000
0000
1000
0000
,  // measure 39
0000
0000
0000
0000
,  // measure 40
0001
0000
0001
0000
,  // measure 41
1000
0000
1000
0000
,  // measure 42
0010
0000
0000
0100
0000
0000
0010
0000
,  // measure 43
0000
0000
0000
0000
,  // measure 44
1000
0000
0000
0001
0000
0000
1000
0000
,  // measure 45
0000
0000
0000
0000
,  // measure 46
0001
0000
0000
0010
0000
0000
0001
0000
,  // measure 47
0000
0000
0000
0000
,  // measure 48
1000
0000
1000
0000
,  // measure 49
0001
0000
0001
0000
,  // measure 50
0100
0000
0000
0100
0000
0000
0100
0000
,  // measure 51
0000
0000
0100
0000
0000
0100
0000
0000
,  // measure 52
0100
0000
0100
0100
,  // measure 53
0000
0000
0100
0000
0000
0100
0000
0000
,  // measure 54
0100
0000
0000
0000
,  // measure 55
0010
0000
0000
0000
,  // measure 56
1000
0000
0000
0000
,  // measure 57
0001
0000
0000
0000
,  // measure 58
1000
0000
0000
0000
,  // measure 59
0100
0000
0000
0000
,  // measure 60
0010
0000
0000
0000
,  // measure 61
0001
0000
0000
0000
,  // measure 62
1000
0000
0001
0000
,  // measure 63
0001
0000
1000
0000
,  // measure 64
1000
0000
0010
0000
,  // measure 65
0010
0000
0100
0000
,  // measure 66
0100
0000
0001
0000
,  // measure 67
1000
0000
0001
0000
,  // measure 68
1000
0000
0000
0000
,  // measure 69
0001
0000
0000
0000
,  // measure 70
1000
0000
0100
0000
,  // measure 71
0100
0000
0010
0000
,  // measure 72
0010
0000
0001
0000
,  // measure 73
1000
0000
0001
0000
,  // measure 74
0100
0000
0010
0000
,  // measure 75
1000
0000
0001
0000
,  // measure 76
1000
0000
0100
0000
,  // measure 77
1000
0000
0000
0001
0000
0000
1000
0000
,  // measure 78
0001
0000
0000
0000
,  // measure 79
0000
2000
0000
0000
,  // measure 80
3001
0000
0000
0000
,  // measure 81
0000
0200
0000
0000
,  // measure 82
0310
0000
0000
0000
,  // measure 83
0000
2000
0000
0000
,  // measure 84
3001
0000
0000
0000
,  // measure 85
0000
0020
0000
0000
,  // measure 86
0130
0000
0000
0000
,  // measure 87
0100
0000
0000
0000
,  // measure 88
1000
0000
0000
0000
,  // measure 89
1000
0000
0001
0000
,  // measure 90
1000
0000
0000
0000
,  // measure 91
1000
0000
0000
0000
,  // measure 92
0001
0000
0000
0000
,  // measure 93
0001
0000
0100
0000
,  // measure 94
0001
0000
0000
0000
,  // measure 95
0000
0000
0000
0000
,  // measure 96
0001
0000
0000
0010
0000
0000
0001
0000
,  // measure 97
0000
0000
0000
0000
,  // measure 98
1000
0000
0000
0010
0000
0000
1000
0000
,  // measure 99
0000
0000
0000
0000
,  // measure 100
0001
0000
0000
0100
0000
0000
0001
0000
,  // measure 101
0000
0000
0000
0000
,  // measure 102
1000
0000
1000
0000
,  // measure 103
0001
0000
0001
0000
,  // measure 104
1000
0000
0000
0010
0000
0000
1000
0000
,  // measure 105
0000
0000
0000
0000
,  // measure 106
0001
0000
0000
0010
0000
0000
0001
0000
,  // measure 107
0000
0000
0000
0000
,  // measure 108
1000
0000
0000
0100
0000
0000
1000
0000
,  // measure 109
0000
0000
0000
0000
,  // measure 110
0001
0000
0001
0000
,  // measure 111
1000
0000
1000
0000
,  // measure 112
0010
0000
0000
1000
0000
0000
0100
0000
,  // measure 113
0000
0000
0000
0000
,  // measure 114
0010
0000
0000
0001
0000
0000
0100
0000
,  // measure 115
0000
0000
0000
0000
,  // measure 116
0010
0000
0000
1000
0000
0000
0100
0000
,  // measure 117
0000
0000
0000
0000
,  // measure 118
0010
0001
0010
0001
,  // measure 119
1000
0001
0010
0000
;

//---------------dance-single - ----------------
#NOTES:
     dance-single:
     :
     Beginner:
     1:
     0.109,0.166,0.000,0.007,0.000,108.000,0.000,1.000,0.000,0.000,0.000,0.109,0.166,0.000,0.007,0.000,108.000,0.000,1.000,0.000,0.000,0.000: // measure 1
0000
0000
0000
0000
,  // measure 2
0000
0000
0000
0000
,  // measure 3
0000
0000
0000
0000
,  // measure 4
0000
0000
0000
0000
,  // measure 5
0000
0000
0000
0000
,  // measure 6
0000
0000
0000
0000
,  // measure 7
0000
0000
0000
0000
,  // measure 8
0000
0000
0000
0000
,  // measure 9
0000
0000
0000
0000
,  // measure 10
1000
0000
0000
0000
,  // measure 11
0000
0001
0000
0000
,  // measure 12
0001
0000
0000
0000
,  // measure 13
0000
0100
0000
0000
,  // measure 14
0100
0000
0000
0000
,  // measure 15
0000
0010
0000
0000
,  // measure 16
0010
0000
0000
0000
,  // measure 17
0000
1000
0000
0000
,  // measure 18
1000
0000
0000
0000
,  // measure 19
0000
0001
0000
0000
,  // measure 20
0001
0000
0000
0000
,  // measure 21
0000
0010
0000
0000
,  // measure 22
0010
0000
0000
0000
,  // measure 23
0000
0100
0000
0000
,  // measure 24
0100
0000
0000
0000
,  // measure 25
0000
1000
0000
0000
,  // measure 26
1000
0000
0000
0000
,  // measure 27
0000
0000
0000
0000
,  // measure 28
0001
0000
0000
0000
,  // measure 29
1000
0000
1000
0000
,  // measure 30
1000
0000
0000
0000
,  // measure 31
0000
0000
0000
0000
,  // measure 32
0010
0000
0000
0000
,  // measure 33
0100
0000
0100
0000
,  // measure 34
0100
0000
0000
0100
,  // measure 35
0000
0000
0000
0000
,  // measure 36
0001
0000
0000
0001
,  // measure 37
0000
0000
0000
0000
,  // measure 38
1000
0000
0000
1000
,  // measure 39
0000
0000
0000
0000
,  // measure 40
0010
0000
0010
0000
,  // measure 41
0010
0000
0000
0000
,  // measure 42
1000
0000
0000
1000
,  // measure 43
0000
0000
0000
0000
,  // measure 44
0001
0000
0000
0001
,  // measure 45
0000
0000
0000
0000
,  // measure 46
1000
0000
0000
1000
,  // measure 47
0000
0000
0000
0000
,  // measure 48
0100
0000
0100
0000
,  // measure 49
0100
0000
0000
0000
,  // measure 50
0010
0000
0000
0000
,  // measure 51
0000
0000
0000
0000
,  // measure 52
0010
0000
0000
0000
,  // measure 53
0000
0000
0000
0000
,  // measure 54
0010
0000
0000
0000
,  // measure 55
0000
0000
0000
0000
,  // measure 56
0001
0000
0000
0000
,  // measure 57
0000
0000
0000
0000
,  // measure 58
1000
0000
0000
0000
,  // measure 59
0000
0000
0000
0000
,  // measure 60
0001
0000
0000
0000
,  // measure 61
0000
0000
0000
0000
,  // measure 62
1000
0000
0000
0000
,  // measure 63
1000
0000
0000
0000
,  // measure 64
0001
0000
0000
0000
,  // measure 65
0001
0000
0000
0000
,  // measure 66
0100
0000
0000
0000
,  // measure 67
0100
0000
0000
0000
,  // measure 68
0020
0000
0000
0000
,  // measure 69
0030
0000
0000
0000
,  // measure 70
0010
0000
0000
0000
,  // measure 71
0010
0000
0000
0000
,  // measure 72
1000
0000
0000
0000
,  // measure 73
1000
0000
0000
0000
,  // measure 74
0001
0000
0000
0000
,  // measure 75
0001
0000
0000
0000
,  // measure 76
0010
0000
0000
0000
,  // measure 77
0010
0000
0000
0000
,  // measure 78
0100
0000
0000
0000
,  // measure 79
0000
1000
0000
0000
,  // measure 80
1000
0000
0000
0000
,  // measure 81
0000
0001
0000
0000
,  // measure 82
0001
0000
0000
0000
,  // measure 83
0000
1000
0000
0000
,  // measure 84
1000
0000
0000
0000
,  // measure 85
0000
0001
0000
0000
,  // measure 86
0001
0000
0000
0000
,  // measure 87
0000
0000
0000
0000
,  // measure 88
0010
0000
0000
0000
,  // measure 89
0100
0000
0100
0000
,  // measure 90
0100
0000
0000
0000
,  // measure 91
0000
0000
0000
0000
,  // measure 92
1000
0000
0000
0000
,  // measure 93
0001
0000
0001
0000
,  // measure 94
0000
0000
0000
0000
,  // measure 95
0000
0000
0000
0000
,  // measure 96
1000
0000
0000
0001
,  // measure 97
0000
0000
0000
0000
,  // measure 98
0100
0000
0000
0010
,  // measure 99
0000
0000
0000
0000
,  // measure 100
1000
0000
0000
0001
,  // measure 101
0000
0000
0000
0000
,  // measure 102
0010
0000
0100
0000
,  // measure 103
0010
0000
0000
0000
,  // measure 104
0001
0000
0000
1000
,  // measure 105
0000
0000
0000
0000
,  // measure 106
0010
0000
0000
0100
,  // measure 107
0000
0000
0000
0000
,  // measure 108
1000
0000
0000
0001
,  // measure 109
0000
0000
0000
0000
,  // measure 110
0100
0000
0100
0000
,  // measure 111
0100
0000
0000
0000
,  // measure 112
0001
0000
0000
0100
,  // measure 113
0000
0000
0000
0000
,  // measure 114
0010
0000
0000
1000
,  // measure 115
0000
0000
0000
0000
,  // measure 116
0001
0000
0000
0010
,  // measure 117
0000
0000
0000
0000
,  // measure 118
0100
0000
0100
0000
,  // measure 119
0100
0100
0100
0000
;
