#TITLE:海賊Fの肖像;
#SUBTITLE:(English ver.);
#ARTIST:ひとしずく×やま△ feat. ham;
#TITLETRANSLIT:Portrait of the Pirate F;
#SUBTITLETRANSLIT:;
#ARTISTTRANSLIT:Hitoshizuku x Yama△ feat. ham;
#GENRE:;
#CREDIT:;
#BANNER:;
#BACKGROUND:;
#LYRICSPATH:;
#CDTITLE:cdtitle.png;
#MUSIC:[Girls Week] - Portrait of the Pirate F (English ver.).ogg;
#OFFSET:-0.472463;
#SAMPLESTART:39.323715;
#SAMPLELENGTH:12.972019;
#SELECTABLE:YES;
#BPMS:0.000000=148.005997
;
#STOPS:
;
#BGCHANGES:0.000=[Girls Week] - Portrait of the Pirate F (English ver.).avi=1.000=1=0=1=Centered==CrossFade==,
99999=-nosongbg-=1.000=0=0=0 // don't automatically add -songbackground-
;
#KEYSOUNDS:;
#ATTACKS:;

//---------------dance-single - ----------------
#NOTES:
     dance-single:
     :
     Hard:
     10:
     0.704940,0.825959,0.413438,0.320081,0.453448,740.000000,678.000000,62.000000,48.000000,3.000000,0.000000,0.704940,0.825959,0.413438,0.320081,0.453448,740.000000,678.000000,62.000000,48.000000,3.000000,0.000000:
0000
0000
0000
0000
,
0000
0000
0000
0000
,
0000
0000
0000
0000
,
0000
0000
0000
0000
,
0001
0010
0100
1000
0001
0001
0100
0100
,
0001
0100
0010
1000
0002
0000
1003
0000
,
0001
0000
0010
0001
0000
0000
0010
0000
0001
0000
1000
0010
0000
0000
1000
0000
,
0010
0000
0010
0100
0000
0000
0001
0000
1000
0000
0000
0000
1001
0000
0000
0000
,
0001
0100
1000
0100
,
0001
0010
0100
0010
1000
0010
0100
0000
,
0010
0000
0000
0000
0001
0000
0000
0001
2000
0000
0000
0000
3010
0000
0000
0000
,
1000
0000
0010
0000
0001
0000
0010
0000
0100
0000
0000
0100
0001
0000
0000
0000
,
0102
1003
2100
3001
,
0001
0010
0100
1000
0001
0000
1001
0000
,
1000
0000
0010
0000
0010
0000
0100
0010
0100
0000
0001
0000
0001
0000
1000
0000
,
1100
0110
0011
1001
,
1000
0100
0010
0100
0001
0100
0010
0100
,
1000
0010
0100
0010
0001
0010
0100
0010
,
1000
0000
0010
1000
0000
0001
1000
0000
0001
0000
0010
0001
0000
1000
0001
0000
,
1000
0000
0010
0000
0100
0000
0001
0000
1000
0000
0001
0010
0100
0000
1000
0000
,
1100
0000
1000
0000
0001
0000
0100
0000
0101
0000
0001
0000
0100
0000
0010
0100
,
0010
0010
1000
0010
1010
1000
1001
0001
,
0010
0000
0100
0010
0100
0000
1000
0100
1000
0000
0100
0000
1000
0000
0001
0000
,
0101
0000
0000
0110
0000
0000
1010
0000
0001
0000
0000
0000
1001
0000
0000
0000
,
1000
0000
0001
1000
0000
0010
1000
0000
0100
0000
0010
0000
0010
0000
0010
0000
,
0001
0000
0001
0010
0000
0010
0100
1000
0001
0000
1000
0000
1001
0000
0000
0000
,
1000
0000
0000
1010
0000
0000
1000
0000
0001
0000
0000
0011
0000
0000
0001
0000
,
0010
0000
0000
0110
0000
0100
0010
0100
2000
0000
3200
0000
0320
0000
0032
0000
,
1003
0000
1000
0010
0000
0010
0100
0000
0002
0000
0203
0000
2300
0000
3200
0000
,
0301
0000
0001
0010
0000
0010
0100
1000
0002
0000
1003
0000
1001
0000
0000
0000
,
1000
0000
0000
1100
0000
0000
1000
0000
0001
0000
0000
0101
0000
0000
0001
0000
,
1000
0000
0000
0010
0000
0000
0100
0000
0001
0000
1000
0000
1001
0000
0001
0010
,
0100
0000
1000
0000
0100
0000
0001
0000
0100
0000
1000
0000
0100
0010
0001
1000
,
0010
0000
0001
0000
0010
0000
1000
0000
0010
0000
0001
0000
0010
0100
0001
0000
,
1000
1000
0100
0100
0001
0100
1000
0100
,
0020
0032
2000
3003
,
0001
0100
1000
0100
,
0001
0100
0010
1000
0001
0001
0001
0000
,
0021
0130
0210
1300
,
2100
0000
0000
0000
3002
0000
0000
0000
0103
0000
0000
0100
0010
0000
0000
0000
,
2010
0000
3001
0000
0012
0000
1003
0001
,
1000
0100
0001
0100
2000
0000
3001
0000
,
1001
0000
0001
0010
0001
0000
0010
0000
0100
0000
0100
0000
0010
0000
0100
1000
,
0100
1100
1001
0101
,
1000
0010
0001
0010
0100
0100
0010
0010
,
1000
0000
0010
1000
0001
1000
0100
0010
0001
0000
0001
0000
1000
0000
1000
0000
,
0100
0000
1000
0001
0100
0000
0001
0100
0010
0000
0010
1000
0000
1000
0001
0000
,
0020
0000
0230
0000
2300
3001
1001
1000
,
1010
0000
0010
0000
0100
0000
0001
0000
0101
0000
1000
0000
0100
0000
1000
0100
,
1000
0100
0010
0100
0110
0010
0011
0001
,
0010
0000
0001
0010
0001
0000
1000
0001
1000
0000
0010
0000
0100
0000
0010
0000
,
0110
0000
0000
0101
0000
0000
1001
0000
0100
0000
0000
0000
1001
0000
0000
0000
,
0001
0000
0010
0100
0000
1000
0001
0000
1000
0000
0010
0000
0001
0000
0010
0000
,
1000
0000
0010
1000
0000
0001
1000
0000
0001
0000
1000
0000
1001
0000
0001
0000
,
1000
0000
0100
1000
0000
0001
1000
0000
0001
0000
0100
0001
0000
0100
0010
0000
,
0100
0000
0010
1000
0000
0000
0001
1000
0200
0000
2300
0000
3020
0000
0230
0000
,
0301
0000
0001
0010
0000
0010
0100
0000
2000
0000
3200
0000
0302
0000
0203
0000
,
1300
0000
1000
0010
0000
0000
0100
0010
0200
0000
0310
0000
0110
0000
0000
0000
,
0010
0000
1000
0010
0000
1000
0001
0000
0010
0000
0001
0010
0000
0001
1000
0000
,
0001
0100
0010
1000
0010
0100
0001
0000
0000
1001
0000
0000
,
1000
0000
0000
0000
0100
0000
0000
0000
0001
0000
0000
0000
0100
0000
0000
1000
,
0100
0010
0001
1000
0010
0100
0100
0010
,
1000
0000
0000
0000
0010
0000
0000
0001
0010
0000
1000
0000
0001
0000
1000
0000
,
0100
0100
0010
0010
0002
0000
0203
0000
,
0320
0000
0000
0000
1030
0000
0000
0000
0010
1000
0001
0010
0100
0000
0000
0000
,
0110
0000
0000
0000
1001
0000
0000
0000
1000
0010
0100
0000
0001
0000
0000
0000
,
1000
0000
0000
1000
0010
0000
0000
0000
00M1
0000
0000
0001
0010
0000
0000
0000
,
1000
1100
0M01
0101
1M00
0001
1001
1001
,
1000
0000
0000
0010
0000
0000
0001
0000
0010
0000
0000
0000
0100
0000
0000
0000
,
0001
0000
0000
0010
0000
0000
1000
0000
0010
0000
0010
0000
0100
0000
0000
0000
,
0010
0000
0000
0011
0000
0000
0001
0000
1000
0000
0000
1001
0000
0000
0001
0000
,
0100
0000
0000
0110
0000
0000
0010
0000
1000
0000
1000
0000
0001
0000
0001
0000
,
1000
0000
0000
1000
0100
0000
0010
0000
0001
0000
0001
0000
1000
0000
1000
0000
,
0001
0000
0000
0001
0100
0000
0010
0000
1000
0000
0001
0000
1001
0000
0000
0000
,
1000
0000
0010
1000
0000
0001
0000
0010
0001
0000
0010
0100
0000
1000
0000
0001
,
0100
0000
0010
0000
1000
0010
0100
0000
0001
0000
0000
0000
1001
0000
0000
0000
,
1000
0000
0100
0001
0000
0100
1000
0000
0100
0000
0010
0000
0001
0000
1000
0000
,
0001
0000
0100
1000
0000
0100
0010
0100
0001
0000
1000
0000
1001
0000
0001
0000
,
1000
0000
0010
1000
0000
0001
1000
0000
0001
0000
0010
0001
0000
1000
0001
0000
,
0100
0000
0010
0100
0000
0010
1000
0010
0200
0000
0302
0000
2003
0000
3200
0000
,
0310
0000
0010
0001
0000
0001
1000
0000
0002
0000
0203
0000
0320
0000
0230
0000
,
0301
0000
0001
0010
0000
0010
0100
1000
0002
0000
1003
0000
1001
0000
0001
0000
,
0100
0000
0010
0100
0000
0010
0100
0000
0001
0000
1000
0001
0000
1000
0001
0000
,
0010
0000
0100
0010
0000
0100
0010
0001
0000
0000
0000
1001
0000
0000
0000
0000
,
1000
0010
0100
0001
0100
0010
1000
0001
,
1000
0100
0001
0100
0010
0100
0110
0000
,
0001
0010
0100
1000
0001
0100
0010
1000
,
0001
0001
0100
0100
0020
0000
1030
0000
,
0010
1000
0010
1000
0001
1000
0001
1000
0001
0000
0010
0000
0100
0000
1000
0000
,
0001
0010
0001
0010
0100
0010
0100
0010
0100
0000
1000
0000
1001
0000
0000
0000
,
0001
0100
0001
0100
0010
0100
0010
1000
0010
1000
0010
1000
0000
1000
0001
0000
,
0010
0000
0010
0100
0000
0100
1000
0000
0001
0000
0000
0000
1001
0000
0000
0000
;

//---------------dance-single - ----------------
#NOTES:
     dance-single:
     :
     Medium:
     8:
     0.497269,0.520048,0.220056,0.280071,0.156706,522.000000,489.000000,33.000000,42.000000,0.000000,0.000000,0.497269,0.520048,0.220056,0.280071,0.156706,522.000000,489.000000,33.000000,42.000000,0.000000,0.000000:
0000
0000
0000
0000
,
0000
0000
0000
0000
,
0000
0000
0000
0000
,
0000
0000
0000
0000
,
0001
0000
0010
0100
2000
0000
3010
0010
,
1000
0000
0001
0010
0200
0000
1300
0000
,
0001
0000
0000
0100
0000
0000
0001
0000
0100
0000
0000
0010
0000
0000
0100
0000
,
0010
0000
0000
1000
0000
0000
0100
0000
0010
0000
0000
0000
0110
0000
0000
0000
,
0010
0010
0010
0011
,
0001
0000
0001
0000
0001
0010
0011
0000
,
0001
0000
0000
0000
0100
0000
0000
0100
0020
0000
0000
0000
0030
0000
0000
0000
,
0100
0000
0010
0000
0100
0000
0000
0000
0010
0000
0000
0010
1000
0000
0000
0000
,
2010
0000
3001
0000
1001
0000
0000
0001
,
0010
0010
0100
0100
2000
0000
3001
0000
,
0100
0010
0010
1000
1000
0010
1000
0001
,
0020
0230
1300
1001
,
0001
0010
0001
0010
0100
1000
0100
1000
,
0001
0100
0001
0100
0010
1000
0010
1000
,
0001
0010
0001
0000
1000
0010
1000
0000
,
0110
0000
0101
0000
1001
0000
1000
0010
,
2020
0000
3030
1000
2002
0000
3003
0001
,
0022
0000
0033
0010
0220
0000
0330
0000
,
1000
0100
0010
0001
1000
0010
0001
0010
,
1000
0000
0000
1000
0000
0000
1000
0000
0000
0000
0000
0000
0000
0000
0000
0000
,
0001
0000
0000
0010
0000
0000
0100
0000
0000
0000
1000
0000
1000
0000
1000
0000
,
0001
0000
0000
0100
0000
0000
0010
0000
1000
0000
1000
0000
1000
0000
0000
0000
,
0010
0000
0000
1000
0000
0000
0010
0000
1000
0000
0000
0001
0000
0000
1000
0000
,
0001
0000
0000
0010
0000
0000
0001
0000
0010
0000
0000
0000
0110
0000
0000
0000
,
1000
0000
0000
0100
0000
0000
0010
0000
0001
0000
0001
0000
1000
0000
0001
0000
,
1000
0000
0000
0010
0000
0000
0100
0000
0001
0000
0001
0000
0001
0000
0000
0000
,
1000
0000
0000
0010
0000
0000
1000
0000
0010
0000
0000
0100
0000
0000
0010
0000
,
0100
0000
0000
0001
0000
0000
1000
0000
0001
0000
0000
0000
1001
0000
0000
0000
,
1000
0000
0100
0000
0001
0000
0100
1000
,
0001
0000
0100
0000
1000
0000
0100
0001
,
1000
0000
0010
0000
0001
0000
0010
1000
,
0002
0023
0200
0330
,
0100
0100
0100
0100
,
1000
0100
1000
0100
1000
0001
1000
0000
,
0010
0010
0020
0030
,
0100
0100
0010
0010
,
0100
0001
0202
0303
,
0001
1000
0001
1000
0001
0000
0010
0000
,
0110
0000
0100
1000
0001
0000
0100
0010
,
1000
1010
0001
0011
,
0010
0100
0010
0100
1000
0001
1000
0001
,
1000
0010
0001
0010
1000
1000
1000
0000
,
0001
0100
1000
0100
0001
0010
1000
0010
,
0002
0000
0023
0000
0230
0000
0300
1000
,
2200
0000
3300
0001
0022
0000
0033
1000
,
2020
0000
3030
0001
0101
0000
0202
0000
,
0303
0001
0100
0010
1000
0001
0010
0100
,
1000
0000
0000
0001
0000
0000
1000
0000
1000
0000
0000
0000
1001
0000
0000
0000
,
0001
0000
0000
0001
0000
0000
0001
0000
0010
0000
0100
0000
1000
0000
0001
0000
,
0100
0000
0000
0100
0000
0000
0100
0000
0010
0000
0100
0000
0010
0000
0000
0000
,
1000
0000
0000
0010
0000
0000
1000
0000
0001
0000
0000
1000
0000
0000
0001
0000
,
0010
0000
0000
0001
0000
0000
0010
0000
0100
0000
1000
0000
0001
0000
1000
0000
,
0010
0000
0000
0010
0000
0000
0010
0000
1000
0000
0010
0000
0001
0000
0010
0000
,
1000
0000
0000
1000
0000
0000
1000
0000
0001
0000
1000
0000
0001
0000
0000
0000
,
0010
0000
0000
0010
0000
0000
0010
0000
0100
0000
0000
0100
0000
0000
0100
0000
,
1000
0000
0000
0001
0000
0000
0100
0000
0010
0000
0000
0000
0110
0000
0000
0000
,
1000
1000
0010
0010
,
0001
0010
1000
0001
2000
0000
3000
0000
,
0001
0001
0010
0010
,
1000
0010
0001
1000
0020
0000
0230
0000
,
0302
0000
0010
0000
1000
1000
1003
0000
,
2000
0000
0010
0000
0001
0001
3001
0000
,
0020
0000
0130
1000
0020
0000
0130
0001
,
1000
0100
0010
0001
2000
0000
3000
0000
,
0001
0000
0000
0010
0000
0000
0100
0000
1000
0000
0000
0000
1000
0000
0000
0000
,
0001
0000
0000
0100
0000
0000
0010
0000
1000
0000
0000
0000
1000
0000
0000
0000
,
0001
0000
0000
0001
0000
0000
0000
0000
0100
0000
0000
0100
0000
0000
0000
0000
,
0010
0000
0000
0010
0000
0000
0000
0000
1000
0000
0010
0000
1000
0000
0001
0000
,
1000
0000
0000
1000
0000
0000
1000
0000
0100
0000
0010
0000
0100
0000
0000
0000
,
0010
0000
0000
0010
0000
0000
0010
0000
0001
0000
1000
0000
0001
0000
0000
0000
,
0100
0000
0000
0001
0000
0000
0100
0000
0010
0000
0000
1000
0000
0000
0010
0000
,
1000
0100
0010
0001
2000
0000
3000
0000
,
0001
0000
0000
0100
0000
0000
0010
0000
0000
0000
1000
0000
1000
0000
0010
0000
,
1000
0000
0000
0001
0000
0000
0010
0000
0100
0000
0100
0000
0100
0000
0000
0000
,
0010
0000
0000
0011
0000
0000
0001
0000
1000
0000
0000
1001
0000
0000
0001
0000
,
1000
0000
0000
1010
0000
0000
0010
0000
0100
0000
0100
0000
0010
0000
0010
0000
,
1000
0000
0000
0100
0000
0000
0010
0000
0001
0000
0001
0000
1000
0000
1000
0000
,
0001
0000
0000
0100
0000
0000
0010
0000
1000
0000
1000
0000
1000
0000
0000
0000
,
0100
0000
0000
1100
0000
0000
1000
0000
0001
0000
0000
1001
0000
0000
0001
0000
,
0100
0000
0000
0101
0000
0000
0001
0000
0100
0000
0000
0000
0010
0000
0000
0000
,
1000
0010
0100
0100
,
0001
0010
1000
0010
0001
0001
0001
0000
,
0010
0001
0010
0000
0001
1000
0001
0000
,
1000
1000
0010
0010
0200
0000
0300
0000
,
0001
0010
0100
0010
1000
0010
0001
1000
,
0001
0100
0010
0100
1000
0100
0001
0000
,
1000
0010
1000
0010
1000
0001
1000
0001
,
0010
0000
0000
0100
0000
0000
1000
0000
0001
0000
0000
0000
1001
0000
0000
0000
;

//---------------dance-single - ----------------
#NOTES:
     dance-single:
     :
     Easy:
     5:
     0.324844,0.457616,0.266734,0.200051,0.000000,341.000000,301.000000,40.000000,30.000000,0.000000,0.000000,0.324844,0.457616,0.266734,0.200051,0.000000,341.000000,301.000000,40.000000,30.000000,0.000000,0.000000:
0000
0000
0000
0000
,
0000
0000
0000
0000
,
0000
0000
0000
0000
,
0000
0000
0000
0000
,
1000
0010
0100
0100
,
0001
0010
0100
0100
,
0110
0000
1001
0000
,
0001
0100
0110
0000
,
0010
0010
0010
0010
,
1000
0010
1000
1000
,
0001
0010
0011
0000
,
0001
1000
1010
0000
,
0001
0100
0010
0000
,
1000
0100
0010
0010
,
0001
0010
1000
0010
,
0001
0001
1001
1001
,
1000
0010
0100
0010
,
0001
0010
0100
0010
,
1000
1000
0001
0001
,
1000
0100
0010
0001
,
1000
0000
1001
0000
,
0001
0000
1001
0000
,
1000
0010
0100
0001
,
1000
0000
0000
0000
,
0001
0010
0100
0100
,
1000
0100
0010
0010
,
0011
0000
1001
0000
,
1010
0000
0110
0110
,
0001
0100
0010
0010
,
1000
0010
0100
0100
,
0101
0000
1001
0000
,
1100
0100
0110
0010
,
0011
0001
0010
0001
,
1000
0001
1000
0001
,
1000
0010
1000
0010
,
0200
0320
0230
0300
,
0001
0000
0001
0000
,
0001
0001
0001
0000
,
1000
0000
1000
0000
,
1000
1000
1000
0000
,
0100
0010
0100
0000
,
1000
0001
1000
0000
,
0010
0000
0010
0000
,
0010
0100
0010
0000
,
0100
0100
0001
0001
,
1000
0100
0001
0100
,
1000
0010
0100
0010
,
0001
0010
2000
3000
,
0001
0000
0011
0000
,
1000
0000
1010
0000
,
0010
0010
0100
0100
,
0001
0000
1001
0000
,
1000
0100
0010
0010
,
0001
0100
0010
0010
,
2000
3100
0200
0310
,
0020
0031
0002
1003
,
1000
0010
0100
0100
,
0001
0010
0100
0100
,
2000
3010
0020
0130
,
0200
0302
2003
3000
,
0100
0010
0100
0010
,
0100
0010
0100
0000
,
1000
0001
1000
0001
,
1000
1000
0001
0001
,
1000
0010
0100
0100
,
0001
0010
0100
0100
,
2200
3300
0202
0303
,
1100
0101
2002
3003
,
1000
0000
0010
0000
,
0100
0000
0001
0001
,
1000
0000
0100
0000
,
0010
0000
0001
0001
,
1000
0100
1000
0100
,
1000
0001
1000
0001
,
0100
0100
0010
0010
,
1000
1000
1000
0000
,
0001
0010
0100
0100
,
0010
0001
0100
0100
,
0210
0310
1020
1030
,
2001
3001
0011
0110
,
0100
1000
1100
1001
,
0001
0100
0110
1010
,
2100
3001
0102
1003
,
2010
3001
0021
0230
,
2300
0100
0001
0001
,
0010
0100
0001
3001
,
0002
0010
0100
0010
,
1000
1000
2000
3003
,
1000
0010
0100
0100
,
0010
1000
0100
0100
,
0010
0010
0001
0001
,
1000
0001
1000
0000
;

//---------------dance-single - ----------------
#NOTES:
     dance-single:
     :
     Beginner:
     2:
     0.149562,0.213554,0.006668,0.000000,0.000000,157.000000,156.000000,1.000000,0.000000,0.000000,0.000000,0.149562,0.213554,0.006668,0.000000,0.000000,157.000000,156.000000,1.000000,0.000000,0.000000,0.000000:
0000
0000
0000
0000
,
0000
0000
0000
0000
,
0000
0000
0000
0000
,
0000
0000
0000
0000
,
1000
0000
0000
0000
,
1000
0000
0000
0000
,
0010
0000
0010
0000
,
0010
0010
0010
0000
,
0100
0000
0000
0000
,
0100
0000
0000
0000
,
0001
0000
0001
0000
,
1000
0000
1000
0000
,
0100
0000
0000
0000
,
0100
0000
0000
0000
,
0010
0000
0010
0000
,
0010
0010
0010
0000
,
0001
0000
0001
0000
,
0001
0000
0000
0000
,
1000
0000
1000
0000
,
1000
0000
0000
0000
,
0010
0000
1000
0000
,
0001
0000
0010
0000
,
0100
0000
0100
0000
,
0100
0000
0000
0000
,
1000
0000
0010
0000
,
1000
0000
0001
0000
,
0010
0000
0010
0000
,
0010
0000
0010
0000
,
0100
0000
0010
0010
,
0010
0000
0001
0001
,
0001
0000
1000
0000
,
0010
0000
0100
0000
,
0001
0000
0000
0000
,
0001
0000
0000
0000
,
1000
0000
1000
0000
,
1000
0000
0000
0000
,
0100
0000
0000
0000
,
0100
0000
0100
0000
,
0010
0000
0000
0000
,
0010
0000
0010
0000
,
0001
0000
0000
0000
,
1000
0000
0000
0000
,
0010
0000
0000
0000
,
0100
0000
0100
0000
,
0001
0000
0001
0000
,
1000
0000
0000
0000
,
0100
0000
0100
0000
,
0010
0010
0010
0000
,
0001
0000
0000
0000
,
1000
0000
0000
0000
,
0010
0000
0010
0000
,
0010
0000
0000
0000
,
0100
0000
1000
0000
,
0001
0000
0100
0100
,
0010
0000
0010
0000
,
1000
0000
1000
0000
,
0001
0000
0010
0010
,
0010
0000
0100
0100
,
1000
0000
0001
0000
,
0100
0100
0100
0000
,
0010
0000
0000
0000
,
0000
0000
0000
0000
,
1000
0000
0000
0000
,
0001
0000
0001
0000
,
0001
0000
0010
0000
,
0001
0000
1000
0000
,
0010
0000
0010
0000
,
0100
0100
0100
0000
,
0001
0000
0000
0000
,
1000
0000
0000
0000
,
0100
0000
0100
0000
,
0010
0000
0010
0000
,
0010
0000
0000
0000
,
0001
0000
0000
0000
,
1000
0000
1000
0000
,
1001
0000
0000
0000
,
0001
0000
0100
0000
,
0010
0000
1000
0000
,
0001
0000
0001
0000
,
1000
0000
1000
0000
,
0100
0100
0100
0000
,
0010
0010
0010
0000
,
0001
0000
1000
0000
,
0010
0000
0100
0100
,
0100
0000
0000
0000
,
0001
0000
0000
0000
,
0010
0000
0010
0000
,
0010
0010
0010
0000
,
0100
0000
0000
0000
,
1000
0000
1000
0000
,
1000
0000
0000
0000
,
0001
0000
0001
0000
;
