#TITLE:Pokno2 Girlish;
#SUBTITLE:(feat. Nanahira);
#ARTIST:t+pazolite;
#TITLETRANSLIT:;
#SUBTITLETRANSLIT:;
#ARTISTTRANSLIT:;
#GENRE:;
#CREDIT:;
#BANNER:[Girls Week] - Ponko2 Girlish (feat. Nanahira).png;
#BACKGROUND:[Girls Week] - Ponko2 Girlish (feat. Nanahira)-bg.png;
#LYRICSPATH:;
#CDTITLE:;
#MUSIC:[Girls Week] - Ponko2 Girlish (feat. Nanahira).ogg;
#OFFSET:-0.040000;
#SAMPLESTART:28.840004;
#SAMPLELENGTH:12.000000;
#SELECTABLE:YES;
#BPMS:0.000000=100.000000
,16.000000=200.000000
;
#STOPS:
;
#BGCHANGES:;
#KEYSOUNDS:;
#ATTACKS:;

//---------------dance-single - ----------------
#NOTES:
     dance-single:
     :
     Hard:
     9:
     0.636210,0.699219,0.428218,0.697384,0.103996,364.000000,329.000000,35.000000,57.000000,0.000000,0.000000,0.636210,0.699219,0.428218,0.697384,0.103996,364.000000,329.000000,35.000000,57.000000,0.000000,0.000000:
0000
0000
0000
0000
,
0000
0000
0000
0000
,
0001
0000
0000
0000
1000
0000
0000
0010
0000
0000
0100
0000
0001
0000
0000
0000
,
0010
0000
0000
0000
0010
0000
0000
0100
0000
0000
0010
0000
0001
0000
0000
0000
,
0100
0000
0100
0000
0010
0000
1000
0010
,
0000
1010
0000
0110
0000
0101
0000
0011
,
0000
0000
0010
0001
0000
0000
0010
0000
0100
1000
0000
0100
1000
0000
0010
0000
,
0000
0010
0100
0001
1000
0100
0010
0001
,
1000
0000
0100
0000
1200
0000
1300
0100
,
0000
0110
0000
0011
0000
1010
0000
1001
,
0000
0000
1000
0010
0000
0000
0010
0000
0100
0010
0000
0100
0001
0000
0020
0000
,
0000
0100
0100
0031
,
0011
0000
0001
0000
1000
0020
0000
0130
,
0000
0100
2000
0000
3100
0002
0000
0013
,
0000
0010
0200
0000
0301
0200
0000
0310
,
0000
0110
0000
0011
0000
1010
1000
0000
,
1000
0001
0200
0000
0310
0200
0000
1300
,
0000
0100
0020
0000
0130
0002
0000
1003
,
0100
0010
0100
0010
0001
1000
0010
0100
,
0001
0010
0000
0100
1000
0000
0010
0000
0100
0000
0000
0000
0101
0000
0000
0000
,
1001
0000
1000
0010
0000
0100
0000
0001
,
0000
1000
0100
0010
0002
0000
0013
0000
,
0100
1000
0000
0010
0000
0110
0000
0100
,
0000
0001
0100
0010
0010
1000
0010
0000
,
2000
0000
3010
1000
0001
0000
0100
0000
,
0102
0000
0103
0001
0020
0000
0130
0000
,
2000
3200
0320
0032
,
0103
0000
0001
0100
0010
0001
0010
0000
,
0100
0001
0000
0011
0000
0110
0000
1010
,
0000
1000
0010
0100
0002
0000
0013
0000
,
0100
0010
0000
0001
0000
1001
0000
1010
,
0000
0100
0010
0100
0100
0001
0010
0000
,
0100
0000
0010
0100
2000
0000
3001
0000
,
0200
0000
0310
0100
0000
0100
0000
0001
,
0010
0100
1000
0010
0100
0001
0010
0001
,
0000
0100
0000
0110
0000
1010
0000
0010
,
2000
3020
0230
2300
,
3002
0023
2030
3200
,
0310
0000
0100
0000
1000
0010
0100
0020
,
0000
0000
0100
0130
0010
1000
0100
0010
,
0002
0000
0023
0000
0230
0000
0301
0200
,
0000
1300
0100
0020
0000
0130
0010
0002
,
0000
0103
0001
0200
0000
0310
0100
0001
,
0000
0101
0000
1001
0000
1010
0010
0000
,
2000
3002
0023
2030
,
3002
0203
2300
3002
,
0203
0000
0310
0000
0010
0100
0001
0020
,
0000
0000
0100
0130
0010
0100
0010
0001
,
0200
0000
0320
0000
2030
0000
3001
0020
,
0000
0130
0010
0200
0000
0310
0100
2000
,
0000
3010
1000
0002
0000
1003
0100
0010
,
0000
0000
0010
0000
0100
0010
0100
0000
0010
0000
0000
0000
0110
0000
0000
0000
,
1001
0000
0001
0000
0200
0000
0310
0100
,
0000
0101
0000
0011
0000
1100
1000
0000
,
1000
0000
0010
0100
0000
0000
0100
0000
0010
1000
0000
0001
0010
0000
0100
0000
,
0000
1000
0001
0100
0100
1000
0100
0100
,
0010
0000
1000
0000
0002
0000
0013
0001
,
0000
0110
0000
1001
0000
0011
0010
0000
,
0100
0000
0010
0100
0000
0000
0010
0000
0001
1000
0000
0010
1000
0000
0001
0000
,
0010
0001
0100
0010
1000
0100
0010
0001
,
0010
0000
0000
0000
0001
0000
0000
0100
,
0000
0100
0010
0000
,
1000
0000
0000
0000
0100
0000
0000
1000
,
0000
1000
0100
0000
0001
0000
0000
0000
;

//---------------dance-single - ----------------
#NOTES:
     dance-single:
     :
     Medium:
     7:
     0.520853,0.582683,0.110113,0.110113,0.012235,298.000000,289.000000,9.000000,9.000000,0.000000,0.000000,0.520853,0.582683,0.110113,0.110113,0.012235,298.000000,289.000000,9.000000,9.000000,0.000000,0.000000:
0000
0000
0000
0000
,
0000
0000
0000
0000
,
1000
0000
0000
0000
0100
0000
0000
1000
0000
0000
0000
0000
1010
0000
0000
0000
,
0010
0000
0000
0000
0100
0000
0000
0001
0000
0000
0000
0000
0011
0000
0000
0000
,
0010
0000
0010
0000
0001
0000
0001
1000
,
0000
0010
0000
0100
0000
0001
0000
0001
,
0000
0010
0100
0010
0100
1000
0100
1000
,
0010
0000
0100
0001
0100
0010
0100
1000
,
0100
0100
0010
0100
,
0000
0100
0000
0001
0000
1000
0000
0100
,
0000
0100
0010
0100
1000
0100
1000
0001
,
0000
1000
0010
0100
,
0110
0000
0010
0000
0100
0020
0000
1030
,
0000
0000
2000
0000
0000
3020
0000
0130
,
0000
0000
0200
0000
0300
0002
0000
0013
,
0001
0010
0000
0100
0000
1000
0100
0000
,
1001
0000
0002
0000
0003
0200
0000
0310
,
0000
0000
0020
0000
0000
2030
0000
3100
,
1000
0100
1000
0100
0010
0001
0010
0001
,
0100
0000
0010
0100
,
0010
0100
0001
1000
0000
0001
0000
0010
,
0000
0100
0000
0100
0010
0000
0000
0000
,
0100
1000
0000
0001
0000
1000
0000
0010
,
0000
0100
0000
0100
0010
0000
0000
0000
,
0110
0000
0000
0100
0001
0000
1000
0000
,
1100
0000
0000
1000
0100
0000
0000
0000
,
1010
0010
0110
0100
,
0101
0000
0000
0001
0100
0000
0000
0000
,
0001
0010
0000
0100
0000
1000
0000
1000
,
0000
0100
0000
0100
0010
0000
0000
0000
,
0010
0100
0000
1000
0000
0010
0000
0100
,
0000
1000
0000
0100
0000
0010
0000
0000
,
0100
0000
0000
0100
0001
0000
0001
0000
,
0010
0000
0010
0100
0000
0100
0000
0100
,
0010
0100
0010
0001
1000
0001
1000
0010
,
0100
0010
0000
0010
0000
0100
0000
0001
,
0100
0010
0100
0010
,
1000
0100
0010
0100
,
1000
0000
0001
0000
1000
0100
0001
0100
,
0000
0000
1000
0100
0010
0100
0010
0001
,
0010
0000
0010
0000
0001
0000
1000
0010
,
0000
0100
0010
0100
0000
0010
0100
0001
,
0000
1000
0100
0010
0000
0100
0010
0001
,
0000
0010
0000
0100
0000
1000
0100
0000
,
1000
0001
0100
0010
,
1000
0100
0010
0001
,
1000
0000
0010
0000
0100
0010
0100
0001
,
0000
0000
1000
0010
0100
0001
0010
0100
,
1000
0000
0100
0000
0010
0000
0100
1000
,
0000
1000
0010
0100
0000
0010
0100
0001
,
0000
1000
0010
1000
0000
0001
1000
0010
,
0000
1000
0100
1000
0010
0000
0100
0000
,
0001
0000
0001
0000
0010
0000
0010
0100
,
0000
0010
0000
0001
0000
1000
0000
0001
,
1000
0001
0010
0001
0100
0010
1000
0100
,
0000
0000
0100
1000
0100
0010
0100
0010
,
0001
0000
0001
0000
0010
0000
0010
0100
,
0000
0100
0000
1000
0000
0100
0000
1000
,
0001
0100
0010
0100
0001
1000
0010
1000
,
0100
1000
0010
0001
,
0010
0000
0000
0000
0100
0000
0000
0010
,
0000
0000
1000
0000
,
0100
0000
0000
0000
0010
0000
0000
0001
,
0000
0010
0001
0000
0010
0000
0000
0000
;

//---------------dance-single - ----------------
#NOTES:
     dance-single:
     :
     Easy:
     5:
     0.429966,0.504992,0.110113,0.036704,0.012235,246.000000,237.000000,9.000000,3.000000,0.000000,0.000000,0.429966,0.504992,0.110113,0.036704,0.012235,246.000000,237.000000,9.000000,3.000000,0.000000,0.000000:
// measure 0
0000
0000
0000
0000
,  // measure 1
0000
0000
0000
0000
,  // measure 2
0001
0000
0000
0000
0010
0000
0000
0100
0000
0000
0000
0000
0010
0000
0000
0000
,  // measure 3
0001
0000
0000
0000
1000
0000
0000
0010
0000
0000
0000
0000
0100
0000
0000
0000
,  // measure 4
0110
0000
0110
0000
0010
0000
0000
0100
,  // measure 5
0000
0010
0000
0100
0000
0010
0000
1000
,  // measure 6
0001
0010
0100
1000
,  // measure 7
0010
0000
1000
0000
0100
0010
0001
0010
,  // measure 8
0100
0000
0010
0000
0001
0000
0000
1000
,  // measure 9
0000
0001
0000
1000
0000
0010
0000
0000
,  // measure 10
1000
0010
0100
0001
,  // measure 11
0010
0010
0100
0100
,  // measure 12
1000
0000
0100
0000
0000
0100
0000
1000
,  // measure 13
0000
0000
0010
0000
0000
0010
0000
0100
,  // measure 14
0000
0000
0001
0000
0000
0001
0000
1000
,  // measure 15
0100
0010
0000
0100
0000
0010
0001
0000
,  // measure 16
0000
0000
1000
0000
0000
0010
0000
1000
,  // measure 17
0000
0000
0001
0000
0000
0010
0000
0001
,  // measure 18
0010
0100
0010
0000
0100
0010
0100
0000
,  // measure 19
1001
0000
0000
0001
,  // measure 20
0100
0000
0010
1000
0000
1000
0000
0010
,  // measure 21
0000
0100
0001
0000
,  // measure 22
0010
0000
0100
0010
0000
0100
0000
0010
,  // measure 23
0000
0100
1000
0000
,  // measure 24
1001
0000
0000
0001
0100
0000
0000
0000
,  // measure 25
0110
0000
0000
0100
0001
0000
0000
0000
,  // measure 26
0010
0010
0100
0100
,  // measure 27
1000
0000
0000
0100
1000
0000
0000
0000
,  // measure 28
0010
0100
0000
0001
0000
1000
0000
0001
,  // measure 29
0000
0010
0000
0100
1000
0000
0000
0000
,  // measure 30
1000
0100
0000
1000
0000
0100
0000
0001
,  // measure 31
0000
0100
0000
0010
0000
0100
0000
0000
,  // measure 32
0110
0000
0000
0010
0001
0000
0000
0000
,  // measure 33
1001
0000
0001
1000
0000
0001
0000
0000
,  // measure 34
0010
0100
0010
0000
0001
1000
0001
0000
,  // measure 35
1000
0010
0000
0100
0000
0010
0000
0000
,  // measure 36
0100
0001
0100
0010
,  // measure 37
0100
1000
0100
0010
,  // measure 38
1000
0000
0100
0000
0010
0000
0100
2000
,  // measure 39
0000
0000
3000
0000
,  // measure 40
0001
0000
0010
0000
0100
0000
0010
0001
,  // measure 41
0000
0100
0001
0010
0000
0100
0010
0100
,  // measure 42
0000
0010
0100
1000
0000
1000
0010
0100
,  // measure 43
0000
0010
0000
0100
0000
0001
0010
0000
,  // measure 44
0010
0100
1000
0100
,  // measure 45
0001
0100
0010
0100
,  // measure 46
1000
0000
0001
0000
0100
0000
0010
0200
,  // measure 47
0000
0000
0300
0000
,  // measure 48
0010
0000
1000
0000
0100
0000
1000
0010
,  // measure 49
0000
0100
0010
0100
0000
0001
1000
0100
,  // measure 50
0000
1000
0001
0100
0000
0010
0100
0020
,  // measure 51
0000
0000
0030
0000
,  // measure 52
0110
0000
0110
0000
0100
0000
0000
0010
,  // measure 53
0000
1000
0000
1000
0000
0001
0000
0010
,  // measure 54
0100
0010
0001
1000
,  // measure 55
0010
0000
0010
0000
1000
0010
0100
0010
,  // measure 56
1000
0000
1000
0000
0001
0000
0001
0010
,  // measure 57
0000
0001
0000
1000
0000
0100
0000
0100
,  // measure 58
0010
0100
0010
0100
,  // measure 59
0010
0001
0100
0010
,  // measure 60
1000
0000
0000
0000
0010
0000
0000
0100
,  // measure 61
0000
0000
0001
0000
,  // measure 62
1000
0000
0000
0000
0001
0000
0000
0010
,  // measure 63
0000
0000
0100
0000
;
