#TITLE:Pick Me;
#SUBTITLE:;
#ARTIST:I.O.I;
#TITLETRANSLIT:;
#SUBTITLETRANSLIT:;
#ARTISTTRANSLIT:;
#GENRE:;
#CREDIT:usaminseijin;
#BANNER:[Girls Week] - Pick Me.png;
#BACKGROUND:[Girls Week] - Pick Me-bg.png;
#LYRICSPATH:[Girls Week] - Pick Me.lrc;
#CDTITLE:cdtitle.png;
#MUSIC:[Girls Week] - Pick Me.ogg;
#OFFSET:0.176000;
#SAMPLESTART:18.808001;
#SAMPLELENGTH:15.000000;
#SELECTABLE:YES;
#BPMS:0.000000=128.000000
;
#STOPS:36.500000=0.703000,
131.000000=0.938000,
161.000000=1.406000
;
#BGCHANGES:-0.600=[Girls Week] - Pick Me.avi=1.000=0=0=0=StretchNoLoop====,
99999=-nosongbg-=1.000=0=0=0 // don't automatically add -songbackground-
;
#KEYSOUNDS:;
#ATTACKS:;

//---------------dance-single - ----------------
#NOTES:
     dance-single:
     :
     Hard:
     8:
     0.476298,0.687825,0.542128,0.036142,0.243958,369.000000,309.000000,60.000000,4.000000,0.000000,0.000000,0.476298,0.687825,0.542128,0.036142,0.243958,369.000000,309.000000,60.000000,4.000000,0.000000,0.000000:
0000
0000
0000
0000
,
0000
0000
0000
0000
,
1001
0000
0000
0000
,
0000
0000
0000
0000
0000
0000
0000
1000
,
0001
0000
0000
0000
,
0000
0000
0000
0000
,
0110
0000
0000
0000
,
0000
0000
0000
0000
0000
0000
0000
1000
,
0004
4000
0000
0000
0000
0000
0000
0000
0000
0000
0000
0000
0000
0000
0000
0003
,
3000
0000
0220
0330
0000
0000
0000
0000
1001
0000
0000
0000
1000
0000
0000
0000
,
1000
0000
1000
0000
1000
0010
0100
0000
,
0100
0000
0100
0000
0100
0001
1000
0000
,
1000
0000
1000
0000
1000
0100
0010
0000
,
0010
0000
0010
0000
0010
0001
1000
0000
,
1000
0000
1000
0000
1000
0001
0010
0000
,
0010
0000
0010
0000
0010
0100
1000
0000
,
1000
0000
1000
0000
1000
0010
0100
0000
,
0100
0000
0100
0000
0100
0010
1001
0000
,
1000
0001
0110
0000
0100
0010
1001
0000
,
0001
1000
0110
0000
0010
0100
1100
0000
,
0010
0001
0011
0000
1000
0100
1100
0000
,
0001
0010
0011
0000
0100
1000
1001
0000
,
0100
0010
1001
0000
0010
0100
0110
0000
,
1000
0001
0110
0000
0001
1000
1010
0000
,
1000
0100
1100
0000
0010
0001
0011
0000
,
4000
0004
0000
0000
0000
0000
3000
0003
1000
0000
0000
0000
0110
0000
0000
0000
,
1001
0110
1001
0110
,
1001
0000
0000
0000
0110
0000
0000
0000
1000
0001
1000
0001
1000
0000
0000
0000
,
1001
0101
1001
1010
,
0110
0000
0000
0000
0101
0000
0000
0000
0100
0010
0100
0010
1000
0000
0001
0000
,
0100
0010
0100
0010
1000
0000
0001
0000
0100
0010
0100
0010
1000
0001
1000
0001
,
1000
0001
1000
0001
0100
0010
0100
0010
0100
0000
0000
0000
0001
1000
0001
1000
,
0010
0100
0010
0100
0004
4000
0000
0000
0000
0000
0000
0003
3000
0000
0000
0000
,
1001
0000
0100
0010
0100
0010
1000
0001
,
0110
0000
1000
0001
1000
0001
0100
0010
,
0110
0000
0001
1000
0001
1000
0010
0100
,
0010
0100
0001
0010
0001
0010
0100
1000
,
1001
0000
1000
0010
1000
0010
0100
0001
,
1001
0000
1000
0100
1000
0100
0010
0001
,
0110
0000
1000
0001
0100
0001
1000
0010
,
0100
0000
0010
0000
2002
3003
0000
0000
1001
0000
0000
0000
1001
0000
0000
0000
,
0110
0110
1001
1001
,
0110
0000
0000
0000
0110
0000
1001
0000
0100
0010
0100
0010
0100
0010
0100
0010
,
1000
0001
1000
0001
1000
0001
1000
0001
0100
0000
0000
0000
0001
0000
1000
0001
,
0100
0000
0010
0100
0001
0000
0000
0000
0110
0000
0000
0000
0110
0000
0000
0000
,
1000
0000
0000
0001
0100
0000
0000
0000
0001
0000
1000
0000
1001
0000
1000
0000
,
0101
0000
0000
0100
0001
0000
1000
0000
1010
0000
0000
0000
1010
0000
0000
0000
,
1001
0000
0000
0100
1000
0000
0001
0000
0110
0000
0000
0000
1001
0000
0000
0000
,
0110
0000
0000
0001
1000
0000
0010
0000
1000
0001
1000
0001
1000
0001
1000
0001
,
1000
0001
1000
0001
1000
0000
0000
0000
0010
0100
0010
0100
0010
0100
0010
0100
,
0010
0100
0010
0100
0010
0000
0000
0000
1000
0001
1000
0001
1000
0001
1000
0001
,
4000
0004
0000
0000
0000
0000
3000
0003
1000
0000
0010
0000
0110
0000
0001
1000
,
0001
0000
0100
0010
0100
0000
0000
0000
1001
0000
0000
0000
0000
0000
0000
0000
;

//---------------dance-single - ----------------
#NOTES:
     dance-single:
     :
     Medium:
     7:
     0.374326,0.426926,0.280099,0.108426,0.018071,290.000000,259.000000,31.000000,12.000000,0.000000,0.000000,0.374326,0.426926,0.280099,0.108426,0.018071,290.000000,259.000000,31.000000,12.000000,0.000000,0.000000:
0000
0000
0000
0000
,
0000
0000
0000
0000
,
1001
0000
0000
0000
,
0000
0000
0000
0000
0000
0000
0000
1000
,
0001
0000
0000
0000
,
0000
0000
0000
0000
,
0110
0000
0000
0000
,
0000
0000
0000
0000
0000
0000
0000
1000
,
2002
0000
0000
0000
,
3003
0000
0220
0330
0000
0000
0000
0000
1001
0000
0000
0000
1000
0000
0000
0000
,
1000
0000
1000
0000
1000
0010
0100
0000
,
0100
0000
0100
0000
0100
0001
1000
0000
,
1000
0000
1000
0000
1000
0100
0010
0000
,
0010
0000
0010
0000
0010
0001
1000
0000
,
1000
0000
1000
0000
1000
0001
0010
0000
,
0010
0000
0010
0000
0010
0100
1000
0000
,
1000
0000
1000
0000
1000
0010
0100
0000
,
0100
0000
0100
0000
0100
0010
1000
0000
,
0001
1000
0001
0000
0100
0010
0100
0000
,
0001
1000
0001
0000
0010
0100
1000
0000
,
0001
0010
0100
0000
1000
0100
0010
0000
,
0100
0010
0001
0000
1000
0100
1000
0000
,
0001
0010
0001
0000
0010
0100
0010
0000
,
0100
1000
0100
0000
1000
0001
1000
0000
,
0001
1000
0001
0000
0010
0001
0010
0000
,
2002
3003
1001
0110
,
1000
0110
0001
0110
,
1000
0000
0110
0000
0001
1000
0001
0000
,
1001
0100
1001
0010
,
0110
0000
0100
0000
0100
0010
1000
0001
,
0100
0010
1000
0001
0100
0010
1000
0001
,
1000
0001
0100
0010
0100
0000
0001
1000
,
0010
0100
2002
0000
0000
0000
3003
0000
,
1001
0000
0100
0010
0100
0010
1000
0001
,
0100
0000
0001
1000
0001
1000
0010
0100
,
0001
0000
1000
0001
1000
0001
0100
0010
,
0100
0010
1000
0010
1000
0010
0100
0001
,
1000
0000
0010
1000
0010
1000
0001
0100
,
0001
0000
1000
0100
1000
0100
0010
0001
,
0010
0000
0001
1000
0100
1000
0001
0010
,
0100
0000
0010
0000
2002
3003
0000
0000
1001
0000
0000
0000
1001
0000
0000
0000
,
0110
0110
1001
1001
,
0110
0000
1000
0001
0100
0010
0100
0010
,
1000
0001
1000
0001
0100
0000
0001
1000
,
0010
0100
0001
0000
0110
0000
0110
0000
,
1000
0000
0000
0001
0100
0000
0000
0000
0001
0000
1000
0000
0001
0000
1000
0000
,
0001
0000
0000
0100
0001
0000
1000
0000
0010
0000
0000
0000
1010
0000
0000
0000
,
1000
0000
0000
0100
1000
0000
0001
0000
0100
0000
0000
0000
0001
0000
0000
0000
,
0110
0000
0000
0001
1000
0000
0010
0000
1000
0000
0001
0000
1000
0000
0001
0000
,
1000
0001
1000
0001
0100
0010
0100
0010
,
0100
0010
0100
0010
1000
0001
1000
0001
,
2002
0000
0000
0000
3003
0100
0010
1000
,
0001
0110
1001
0000
;

//---------------dance-single - ----------------
#NOTES:
     dance-single:
     :
     Easy:
     4:
     0.272355,0.332053,0.225887,0.063248,0.000000,211.000000,186.000000,25.000000,7.000000,0.000000,0.000000,0.272355,0.332053,0.225887,0.063248,0.000000,211.000000,186.000000,25.000000,7.000000,0.000000,0.000000:
// measure 0
0000
0000
0000
0000
,  // measure 1
0000
0000
0000
0000
,  // measure 2
1001
0000
0000
0000
,  // measure 3
0000
0000
0000
0000
0000
0000
0000
1000
,  // measure 4
0001
0000
0000
0000
,  // measure 5
0000
0000
0000
0000
,  // measure 6
0110
0000
0000
0000
,  // measure 7
0000
0000
0000
0000
0000
0000
0000
1000
,  // measure 8
0001
0000
0000
0000
,  // measure 9
0000
0110
0000
0000
1001
0000
1000
0000
,  // measure 10
1000
0001
0001
0100
,  // measure 11
0100
0010
0010
0100
,  // measure 12
0100
0001
0001
1000
,  // measure 13
1000
0010
0010
1000
,  // measure 14
1000
0100
0100
0010
,  // measure 15
0010
0001
0001
1000
,  // measure 16
1000
0001
0001
0100
,  // measure 17
0100
0010
0010
1000
,  // measure 18
1001
0100
0110
0010
,  // measure 19
1001
0001
0110
1000
,  // measure 20
0011
0100
1100
0010
,  // measure 21
1010
0100
0101
1000
,  // measure 22
1100
0100
0011
0010
,  // measure 23
0101
0100
1100
1000
,  // measure 24
1001
0100
0110
0001
,  // measure 25
2000
0000
3001
0100
,  // measure 26
1000
0100
0001
0010
,  // measure 27
1000
0100
0001
0010
,  // measure 28
1000
0010
0001
0010
,  // measure 29
1000
0000
0100
0000
0001
0000
1000
0001
,  // measure 30
1000
0000
0010
0100
0010
0000
1000
0001
,  // measure 31
1000
0000
0100
0010
0100
0000
2002
0000
,  // measure 32
0000
0000
0000
3003
,  // measure 33
1001
0000
0100
0000
0010
0000
1000
0001
,  // measure 34
1000
0000
0001
0000
1000
0000
0010
0100
,  // measure 35
0010
1000
0001
0100
,  // measure 36
0010
0000
1000
0000
0010
0000
0100
0001
,  // measure 37
0100
0000
0010
0000
1000
0000
0001
0100
,  // measure 38
0001
0000
1000
0000
0100
0000
0010
0001
,  // measure 39
0010
0001
1000
0001
,  // measure 40
0100
1001
1000
0001
,  // measure 41
0100
0010
1000
0001
,  // measure 42
0100
0001
0220
0000
,  // measure 43
0000
0330
0100
0001
,  // measure 44
1000
0001
0100
0010
,  // measure 45
1000
0000
0001
0000
1000
0001
1000
0000
,  // measure 46
0001
1001
0010
1000
,  // measure 47
0001
1000
0001
0000
0100
0000
0001
0000
,  // measure 48
0100
0000
0001
0000
1000
0001
1000
0000
,  // measure 49
0001
1000
0001
0000
0100
0010
0100
0000
,  // measure 50
0010
0100
0010
0000
1000
0001
1000
0000
,  // measure 51
2002
0000
3003
0010
,  // measure 52
1000
0001
1001
0000
;

//---------------dance-single - ----------------
#NOTES:
     dance-single:
     :
     Beginner:
     2:
     0.141986,0.189745,0.027106,0.018071,0.000000,110.000000,107.000000,3.000000,2.000000,0.000000,0.000000,0.141986,0.189745,0.027106,0.018071,0.000000,110.000000,107.000000,3.000000,2.000000,0.000000,0.000000:
// measure 0
0000
0000
0000
0000
,  // measure 1
0000
0000
0000
0000
,  // measure 2
1000
0000
0000
0000
,  // measure 3
0000
0000
0000
0000
,  // measure 4
0001
0000
0000
0000
,  // measure 5
0000
0000
0000
0000
,  // measure 6
0100
0000
0000
0000
,  // measure 7
0000
0000
0000
0000
,  // measure 8
0010
0000
0000
0000
,  // measure 9
0000
0100
0000
0000
0010
0000
1000
0000
,  // measure 10
0000
1000
0000
0001
,  // measure 11
0000
0001
0000
0100
,  // measure 12
0000
0100
0000
0010
,  // measure 13
0000
0010
0000
1000
,  // measure 14
0000
1000
0000
0100
,  // measure 15
0000
0100
0000
0010
,  // measure 16
0000
0010
0000
0001
,  // measure 17
0000
0001
0000
1000
,  // measure 18
0000
1000
0000
0010
,  // measure 19
0000
0010
0000
0100
,  // measure 20
0000
0100
0000
0001
,  // measure 21
0000
0001
0000
1000
,  // measure 22
0000
1000
0000
0001
,  // measure 23
0000
0001
0000
0100
,  // measure 24
0000
0100
0000
0010
,  // measure 25
0000
0010
0010
1000
,  // measure 26
1000
1000
0000
0001
,  // measure 27
0001
0001
0000
0010
,  // measure 28
0010
0010
0000
0100
,  // measure 29
0100
0100
0000
1000
,  // measure 30
1000
1000
0000
0001
,  // measure 31
0001
0001
0000
0010
,  // measure 32
0010
0010
0000
0000
,  // measure 33
0000
1000
1000
1000
,  // measure 34
0000
0001
0001
0001
,  // measure 35
0000
0100
0100
0100
,  // measure 36
0000
0010
0010
0010
,  // measure 37
0000
1000
1000
1000
,  // measure 38
0000
0010
0010
0010
,  // measure 39
0000
0100
0100
0100
,  // measure 40
0000
1001
1000
0000
,  // measure 41
0100
0000
0010
0000
,  // measure 42
0001
0000
2002
0000
,  // measure 43
0000
3003
0000
0000
,  // measure 44
0000
0000
0100
0000
,  // measure 45
0100
0000
0010
0000
,  // measure 46
0010
0000
1000
0000
,  // measure 47
1000
0000
0001
0000
,  // measure 48
0001
0000
1000
1000
,  // measure 49
1000
0000
0010
0010
,  // measure 50
0010
0000
0001
0001
,  // measure 51
0001
0000
0010
0000
,  // measure 52
0100
0000
1001
0000
;
