#TITLE:Paradisus-Paradoxum;
#SUBTITLE:;
#ARTIST:MYTH & ROID;
#TITLETRANSLIT:;
#SUBTITLETRANSLIT:;
#ARTISTTRANSLIT:;
#GENRE:;
#CREDIT:;
#BANNER:Paradisus-Paradoxum-banner.png;
#BACKGROUND:Paradisus-Paradoxum-bg.png;
#LYRICSPATH:;
#CDTITLE:;
#MUSIC:Paradisus-Paradoxum.ogg;
#OFFSET:-0.319999;
#SAMPLESTART:59.424496;
#SAMPLELENGTH:15.000000;
#SELECTABLE:YES;
#BPMS:0.000000=100.500000
,12.000000=201.000000
,17.500000=402.000000
,18.500000=201.000000
,20.000000=402.000000
,21.000000=201.000000
,82.000000=100.500000
,98.000000=201.000000
,166.500000=402.000000
,167.500000=201.000000
,169.000000=402.000000
,170.000000=201.000000
;
#STOPS:48.500000=0.299000,
49.000000=0.299000,
49.500000=0.299000,
128.000000=0.299000,
229.500000=0.299000,
230.000000=0.299000,
230.500000=0.299000
;
#BGCHANGES:;
#KEYSOUNDS:;
#ATTACKS:;

//---------------dance-single - ----------------
#NOTES:
     dance-single:
     :
     Hard:
     9:
     0.697065,0.925294,0.698649,0.177435,0.049904,440.000000,377.000000,63.000000,16.000000,0.000000,0.000000,0.697065,0.925294,0.698649,0.177435,0.049904,440.000000,377.000000,63.000000,16.000000,0.000000,0.000000:
0000
0000
0000
0000
,
0000
0000
0000
0000
,
0000
0000
0000
0000
,
0101
0101
0000
1001
1100
1100
0000
0110
,
0000
1001
1001
0000
0000
0020
0000
0130
,
0000
0000
1001
0000
0001
0100
0010
1000
,
0100
0010
0001
0000
1010
0000
0100
0000
,
0101
0000
1001
0000
1000
0100
0010
0001
,
0010
0100
1000
0000
0011
0000
1100
0000
,
0001
0000
1000
0100
0001
0000
0101
0000
,
0000
0000
0001
0100
1000
0000
1100
0000
,
1001
0220
0000
0330
,
0000
0011
1100
1001
1000
0000
1000
0000
,
1000
0000
1000
0000
1000
0100
1000
0100
,
0010
0001
0010
0001
0100
0000
0100
0000
,
0100
0000
0100
0000
0010
1000
0010
1000
,
0001
0100
0001
0100
0001
0000
0001
0000
,
0010
0000
0010
0000
0100
1000
0100
1000
,
0001
0100
0001
0100
0010
0000
1000
0000
,
0100
0000
0010
0000
0001
0100
0010
1000
,
0001
0000
0010
0000
0100
0000
1000
0000
1001
0000
1000
0000
0001
0100
0001
0000
,
1000
0000
1000
0100
0000
0100
0010
0000
0002
0000
0100
0000
2003
0000
0010
0000
,
3100
0000
0010
0000
0001
0000
1000
0000
1010
0000
0010
0100
0001
0000
1001
0000
,
0001
0000
1000
0000
0100
0000
0010
0001
1000
0000
0001
0000
1000
0000
0001
0000
,
0100
0010
0100
0010
1000
0001
1000
0001
1000
0000
0000
0000
0110
0000
0000
0000
,
1000
0100
0001
0000
0100
1000
0010
0000
,
0001
0010
1000
0000
0100
0000
0010
0000
,
0001
0000
1000
0010
1000
0000
0001
0010
,
1000
0000
0010
0000
0001
0000
0100
0010
,
0100
0000
0010
0001
0010
1000
0100
0000
,
1000
0001
0100
0000
0001
0000
0010
0000
,
0100
1000
0010
0010
,
0200
0300
0000
0000
1001
0000
0000
0000
1001
0000
0000
0000
1000
0000
0001
0000
,
0010
0000
0110
0000
0110
0000
0100
1000
,
0001
0000
0101
0000
0101
0000
0010
1000
,
0001
1000
0010
0000
0010
0000
1000
0001
,
1000
0001
0011
0000
0011
0000
0010
0100
,
1000
0000
1100
0000
1100
0000
1000
0001
,
1000
0001
0200
0000
1300
0100
0010
0100
,
0001
0100
0010
0100
1000
0100
0010
0100
,
0001
1000
0110
0000
0000
0101
1001
1001
,
0000
1100
0000
0110
0110
0000
0000
0020
,
0000
0130
0000
0000
1001
0000
0001
0100
,
1000
0100
0010
1000
0001
0000
0010
0000
,
1000
0000
0100
0000
1001
0000
1000
0100
,
0010
0001
0100
0010
0002
0000
0013
0000
,
2000
3100
0011
1100
,
0100
1000
0010
0000
1010
0000
0101
0000
,
0100
0001
0010
0000
0100
1000
0100
1000
,
0001
0100
0001
0100
0010
1000
0001
0000
,
1100
0000
0101
0000
1001
0000
0001
0100
,
0010
0001
0010
0100
1000
0000
0100
0000
,
1010
0000
1001
0000
0011
0000
1100
1100
,
0000
0110
0000
0220
0330
0010
0100
0010
,
0001
1000
0010
0100
0001
0000
0010
0100
,
1200
0000
1300
0000
0001
0000
0100
0010
,
1020
0130
0002
0000
,
0000
0003
0000
0101
1010
1100
0100
1000
,
0001
0100
0010
1000
0100
0010
0001
0100
,
0001
0010
1000
0001
0100
1000
0010
0100
,
0010
0001
0010
0100
0001
1000
0001
0010
,
0100
0001
0100
0010
0001
1000
0010
0100
,
0010
0100
0001
0010
0100
1000
0010
0100
,
0010
0100
0001
1000
0001
0010
0100
1000
,
0100
0010
0100
0001
0100
1000
0001
0100
,
0010
0100
1000
0100
0010
1000
0002
0000
,
0000
0000
0000
0003
;

//---------------dance-single - ----------------
#NOTES:
     dance-single:
     :
     Medium:
     6:
     0.440418,0.555177,0.121986,0.055448,0.005545,278.000000,267.000000,11.000000,5.000000,0.000000,0.000000,0.440418,0.555177,0.121986,0.055448,0.005545,278.000000,267.000000,11.000000,5.000000,0.000000,0.000000:
0000
0000
0000
0000
,
0000
0000
0000
0000
,
0000
0000
0000
0000
,
1000
0001
0000
0100
0010
0100
0000
0001
,
0000
0010
0100
0000
0000
0000
0000
0000
,
0000
1001
0000
0000
,
0000
0000
1000
0000
0100
0000
1000
0001
,
1000
0001
0100
0010
,
1000
0000
0100
0000
0010
0000
0001
1000
,
0001
1000
0010
0000
0000
0100
0001
0000
,
0100
0000
0001
0000
0000
1000
0010
0000
,
1000
0000
0200
0000
0000
0000
0000
0300
,
0000
0010
0010
0100
1001
0000
0001
0000
,
1000
0001
0100
0100
,
0010
0010
1000
1000
,
0001
1000
0100
0100
,
0010
0010
0001
0100
,
0010
0010
1000
0010
,
0100
0001
1000
0100
,
0010
0010
0001
1000
,
0001
1000
0020
0030
,
0100
0000
0000
0001
0000
0000
1000
0000
0010
0000
0000
0000
0010
0000
0000
0000
,
0100
0000
0100
0000
0001
0000
0010
0010
,
0000
0100
0000
1000
1000
0000
1000
0000
,
0001
0100
0010
1000
0100
0000
0110
0000
,
0001
1000
0001
0100
,
0010
1000
0001
0001
,
0010
0010
0100
0100
,
1000
0001
1000
0000
0001
0000
0100
0000
,
0010
0001
0010
0100
,
0010
0001
1000
0010
,
0100
0001
1000
1000
,
0000
0000
0001
0000
0001
0000
0100
0010
,
0100
0000
0001
0000
0001
0000
1000
0100
,
1000
0000
0001
0000
0100
0000
0010
1000
,
0010
0100
0100
0001
,
0001
1001
1000
1001
,
0001
0011
0001
1010
,
1000
0000
0020
0000
0000
1030
0001
1000
,
0001
1000
0001
1000
0001
1000
0001
1000
,
0001
1000
0001
0000
0000
0010
0100
0010
,
0000
0001
0000
1000
0001
0000
0000
0000
,
0000
0000
1001
0000
,
0000
0000
1000
0010
,
1000
0001
1000
0000
0001
0000
0010
0000
,
0100
1000
0010
0100
,
0001
1000
0001
0000
0010
0000
0001
0000
,
1000
0100
1000
0000
0010
0000
0100
0000
,
0001
1000
0100
0100
,
0010
0010
0001
0001
,
1000
0001
1001
1000
,
0001
0100
0001
0000
1000
0000
0100
0000
,
0010
0000
0001
0000
1000
0000
0010
0100
,
0000
0001
0000
1001
0000
0000
1000
0000
,
1000
0000
1000
0000
0001
0000
0010
0100
,
1000
0000
0000
0000
1000
0000
0010
0100
,
0001
0000
2000
0000
,
0000
0000
3000
0100
0100
0010
0110
0000
,
0001
1000
1000
0010
,
1000
0001
0001
0010
,
0100
1000
0100
1000
,
0001
0000
0100
0000
0010
0000
1000
0100
,
0010
0000
0001
0000
0010
0000
0001
1000
,
0001
0000
0100
0000
0010
0000
1000
0001
,
1000
0000
0100
0000
0010
0000
0001
1000
,
0001
1000
0001
1000
0001
1000
0002
0000
,
0000
0000
0000
0003
;

//---------------dance-single - ----------------
#NOTES:
     dance-single:
     :
     Easy:
     4:
     0.272489,0.370118,0.044359,0.055448,0.000000,172.000000,168.000000,4.000000,5.000000,0.000000,0.000000,0.272489,0.370118,0.044359,0.055448,0.000000,172.000000,168.000000,4.000000,5.000000,0.000000,0.000000:
// measure 0
0000
0000
0000
0000
,  // measure 1
0000
0000
0000
0000
,  // measure 2
0000
0000
0000
0000
,  // measure 3
0001
0000
0001
0000
,  // measure 4
1000
1000
0000
0000
,  // measure 5
0000
1001
0000
0000
,  // measure 6
0000
0001
0001
0001
,  // measure 7
0000
1000
0100
1000
,  // measure 8
0000
0001
0010
0001
,  // measure 9
0000
1000
0000
0010
,  // measure 10
0000
0001
0000
0010
,  // measure 11
0000
0000
0200
0000
0000
0000
0000
0300
,  // measure 12
0000
0001
0001
0001
0001
0000
0010
0000
,  // measure 13
0001
0000
1000
0010
,  // measure 14
1000
0000
0001
0100
,  // measure 15
0001
0000
1000
0100
,  // measure 16
1000
0000
0001
0000
,  // measure 17
0100
0000
0010
1000
,  // measure 18
0010
0000
0100
0000
,  // measure 19
0001
0000
1000
0001
,  // measure 20
1000
0001
0002
0003
,  // measure 21
0001
0000
1000
0000
,  // measure 22
1000
0000
0010
0000
,  // measure 23
0100
0000
0001
0000
,  // measure 24
1000
0000
0000
0000
,  // measure 25
0000
0000
0001
0001
,  // measure 26
0001
0000
1000
0100
,  // measure 27
0010
0000
0100
1000
,  // measure 28
0001
0000
0001
0100
,  // measure 29
0010
0000
1000
0010
,  // measure 30
0100
0000
0001
1000
,  // measure 31
0001
1000
0001
0000
,  // measure 32
0000
0000
1000
0000
,  // measure 33
1000
0000
0001
0000
,  // measure 34
0001
0000
0100
0000
,  // measure 35
0100
0000
0010
0000
,  // measure 36
0010
0000
1000
0000
,  // measure 37
0001
0000
1000
0000
,  // measure 38
0001
0002
0000
1003
,  // measure 39
0001
1000
0001
1000
,  // measure 40
0001
1000
0000
1001
,  // measure 41
0000
0001
0001
0000
,  // measure 42
0000
0000
1001
0000
,  // measure 43
0000
0000
0001
0010
,  // measure 44
0001
0000
1000
0100
,  // measure 45
0010
0100
1000
0000
,  // measure 46
0001
0001
0100
0000
,  // measure 47
0010
0010
1000
0000
,  // measure 48
0001
0010
0001
0000
,  // measure 49
0001
0000
1000
0000
,  // measure 50
1000
0000
1001
0000
,  // measure 51
0001
0001
0010
0000
,  // measure 52
0001
1000
0001
0000
,  // measure 53
1000
0010
1000
0000
,  // measure 54
0001
1000
0010
0100
,  // measure 55
0001
0000
0010
0100
,  // measure 56
1000
0000
0020
0000
,  // measure 57
0000
0000
0000
1030
1000
1000
1000
0000
,  // measure 58
1000
0001
0001
1000
,  // measure 59
0010
1000
0000
0001
,  // measure 60
0000
0100
0000
0010
,  // measure 61
1000
0010
0000
1000
,  // measure 62
1000
0100
0100
0010
,  // measure 63
0010
0001
0001
1000
,  // measure 64
0010
0100
0100
0001
,  // measure 65
1000
0001
1000
0002
,  // measure 66
0000
0000
0000
0003
;

//---------------dance-single - ----------------
#NOTES:
     dance-single:
     :
     Beginner:
     1:
     0.106144,0.296094,0.011090,0.033269,0.000000,67.000000,66.000000,1.000000,3.000000,0.000000,0.000000,0.106144,0.296094,0.011090,0.033269,0.000000,67.000000,66.000000,1.000000,3.000000,0.000000,0.000000:
0000
0000
0000
0000
,
0000
0000
0000
0000
,
0000
0000
0000
0000
,
1000
0000
0000
0000
,
1000
0000
0000
0000
,
0000
0000
0000
0000
,
0000
0001
0000
0001
,
0000
1000
0000
0000
,
0000
0001
0000
0001
,
0000
0001
0000
0000
,
0000
1000
0000
0000
,
0000
0001
0000
0000
,
0000
2000
0000
3000
0000
0000
0000
0000
,
0001
0000
0000
0000
,
0000
0000
0000
0000
,
1000
0000
0000
0000
,
0000
0000
0000
0000
,
0010
0000
0000
0000
,
0000
0000
0000
0000
,
0100
0000
0000
0000
,
0000
0000
1000
0000
,
0000
0000
1000
0000
,
0000
0000
0001
0000
,
0000
0000
0001
0000
,
0000
0000
0000
0000
,
0000
0000
1000
0000
,
0000
0000
0000
0000
,
0000
0000
0001
0000
,
0000
0000
0000
0000
,
0000
0000
0010
0000
,
0000
0000
0001
0000
,
0001
0000
0001
0000
,
0000
0000
0000
0000
,
0000
1000
0000
0000
,
0000
0000
0000
0000
,
0000
0001
0000
0000
,
0000
0010
0000
0000
,
0000
0010
0000
0000
,
0000
0100
0000
1000
,
1000
1000
1000
1000
,
1000
1000
0000
0000
,
0000
0000
0000
0000
,
0000
0000
0000
0000
,
0000
0000
0001
0001
,
0001
0000
1000
0000
,
0000
0000
0010
0000
,
0000
0000
0100
0000
,
0000
0000
0001
0000
,
0000
0000
1000
0000
,
0000
0000
1001
0000
,
0000
0000
1000
0000
,
0000
0000
0100
0000
,
0000
0000
0010
0000
,
0000
0000
0001
0000
,
0000
0000
1000
0000
,
0000
0000
1000
0000
,
0000
0000
0001
0000
,
0000
0000
0000
0002
0000
0003
0000
0000
,
0000
0000
0000
1000
,
0000
0000
0000
0001
,
0000
0000
0000
0001
,
0000
0000
0000
1000
,
1000
1000
0000
0001
,
0000
0000
0000
1000
,
1000
1000
0000
0001
,
0000
0000
0000
0002
,
0000
0000
0000
0003
;
