#TITLE:No light No light;
#SUBTITLE:;
#ARTIST:Florence and The Machine;
#TITLETRANSLIT:;
#SUBTITLETRANSLIT:;
#ARTISTTRANSLIT:;
#GENRE:;
#CREDIT:;
#BANNER:;
#BACKGROUND:;
#LYRICSPATH:;
#CDTITLE:;
#MUSIC:No Light No Light.ogg;
#OFFSET:0.220000;
#SAMPLESTART:98.000000;
#SAMPLELENGTH:12.000000;
#SELECTABLE:YES;
#BPMS:0.000000=65.995003
,2.000000=32.990002
,10.000000=66.004997
,42.000000=131.990005
;
#STOPS:
;
#BGCHANGES:;
#KEYSOUNDS:;
#ATTACKS:;

//---------------dance-single - ----------------
#NOTES:
     dance-single:
     :
     Hard:
     8:
     0.374348,0.404976,0.231604,0.152197,0.049629,396.000000,361.000000,35.000000,23.000000,0.000000,0.000000,0.374348,0.404976,0.231604,0.152197,0.049629,396.000000,361.000000,35.000000,23.000000,0.000000,0.000000:
// measure 0
0000
0000
2002
0003
,  // measure 1
0020
0030
0002
3000
,  // measure 2
0020
0000
0000
0000
0033
0000
0000
0000
1000
0000
0000
0000
0010
0100
0000
0000
,  // measure 3
0100
0000
0000
0000
0000
0000
0000
0000
0000
0000
0000
0000
0001
0000
0000
0000
0010
0000
0000
0000
0100
0000
0000
0000
1000
0000
0000
0000
0000
0000
0000
0000
0000
0000
0000
0000
0100
0000
0000
1000
0000
0000
0000
0000
0000
0000
0000
0000
,  // measure 4
0010
0000
0000
0000
0200
0000
0000
0000
0301
0000
0010
0000
0100
0000
1000
0010
,  // measure 5
0000
0000
0000
0000
1000
0001
0000
0000
0100
0000
0000
0000
0010
1000
0000
0000
,  // measure 6
0010
0000
0000
0100
0001
0100
0002
0000
0000
0023
0000
0000
,  // measure 7
0130
0000
0000
0000
0002
0000
0000
0000
0003
0000
0000
0000
1000
0100
0000
0000
,  // measure 8
0010
0000
0000
0000
0001
0100
0000
0010
0000
0000
1000
0000
0010
0000
0000
0100
,  // measure 9
0000
0000
0000
0000
0001
0000
1000
0000
0100
0000
0000
0010
0000
0001
0000
0000
,  // measure 10
0200
0300
2002
0000
,  // measure 11
0000
0000
0000
0000
,  // measure 12
0000
0000
3003
0000
1010
0000
0000
1010
,  // measure 13
0000
0010
0100
0010
0110
0000
0000
0011
,  // measure 14
0000
0001
0100
0010
1000
0010
0000
1010
,  // measure 15
0000
0010
0100
0010
1000
0100
0010
0001
,  // measure 16
0000
0000
0011
0000
0011
0001
0100
0010
,  // measure 17
1000
0010
0100
0100
0001
0001
0010
0000
,  // measure 18
0000
0000
0011
0000
0001
0200
0000
0320
,  // measure 19
0000
2030
0000
3200
0000
0310
0001
0010
,  // measure 20
0000
0001
0010
0000
0011
0001
0100
0010
,  // measure 21
1000
0010
0100
0000
0011
0000
0001
0100
,  // measure 22
0010
1000
0000
0002
0000
0000
0013
0100
,  // measure 23
1000
0000
0110
0000
0011
0000
0001
0100
,  // measure 24
0010
1000
0000
1000
0000
0010
0000
0020
,  // measure 25
0000
0000
0000
0000
0130
0001
0000
0002
,  // measure 26
0000
0000
0000
0000
0013
0100
0000
1000
,  // measure 27
0000
0100
0000
0010
0000
0001
0100
0000
,  // measure 28
0010
0000
1000
0000
1010
0000
1000
0001
,  // measure 29
0100
0010
1000
0010
0100
0000
0001
0010
,  // measure 30
0001
1000
0001
0100
0010
0000
1000
0100
,  // measure 31
0010
0100
1000
0100
0010
0000
0001
0010
,  // measure 32
0001
0000
1000
0001
1001
0000
0010
0100
,  // measure 33
0010
0200
0000
0000
0301
0000
0010
0100
,  // measure 34
1000
0000
0100
0020
0000
0000
0031
0000
,  // measure 35
0100
0000
0010
0000
1000
1000
0010
0000
,  // measure 36
0100
0001
0010
0001
0101
0000
0010
1000
,  // measure 37
0010
0200
0000
0000
0301
0000
0010
0001
,  // measure 38
1000
0001
0010
0100
1000
0000
0001
0100
,  // measure 39
0010
0000
1010
0000
1001
0000
0001
0100
,  // measure 40
0010
0000
1100
0000
1001
0000
0001
0100
,  // measure 41
0010
2000
0000
0000
3001
0000
1000
0001
,  // measure 42
0100
0010
1000
0100
0010
0000
1000
0001
,  // measure 43
0100
0000
0010
1000
0001
0000
0100
0010
,  // measure 44
1000
0100
1000
0001
0101
0100
0010
1000
,  // measure 45
0100
0010
0001
0000
1001
0001
0100
0010
,  // measure 46
1000
0000
0100
0000
0110
0010
0001
0100
,  // measure 47
0010
1000
0100
0001
0100
1000
0001
0100
,  // measure 48
0010
1000
0100
0000
0011
0001
0100
0010
,  // measure 49
1000
0100
0010
0001
0000
0100
0010
1000
,  // measure 50
0100
0010
0001
0100
0000
0010
1000
0100
,  // measure 51
0010
0001
0100
0010
1000
0000
0010
0100
,  // measure 52
0000
0000
0100
0001
0101
0000
0010
1010
,  // measure 53
0000
1000
0100
0010
0001
0000
1000
0110
,  // measure 54
0000
0001
0100
0010
1000
0000
0001
0110
,  // measure 55
0000
1000
0001
0100
0100
0010
1000
1001
,  // measure 56
0000
0001
0100
0000
0101
0001
0100
0010
,  // measure 57
1000
0100
0010
0001
0100
0100
0100
0010
,  // measure 58
1000
0000
0001
0000
1000
0100
0000
0010
,  // measure 59
0000
0100
0000
1000
0000
0001
0100
1000
,  // measure 60
0000
0100
0001
0000
0101
0001
0100
0010
,  // measure 61
1000
0010
1000
0000
1001
0000
0000
0001
,  // measure 62
0100
0001
0000
0000
0011
0000
0000
0001
,  // measure 63
0000
0000
1000
0000
0110
0000
0000
0001
,  // measure 64
0000
0100
0000
0100
0000
0010
0000
0010
,  // measure 65
0000
0000
1000
0000
0001
0100
0000
0100
,  // measure 66
0000
0000
0010
0000
1000
0100
0000
0001
,  // measure 67
0000
0100
0000
1000
0000
0010
0100
0000
,  // measure 68
0001
0000
0000
0000
;

//---------------dance-single - ----------------
#NOTES:
     dance-single:
     :
     Medium:
     7:
     0.282651,0.674960,0.046321,0.132345,0.046321,299.000000,292.000000,7.000000,20.000000,0.000000,0.000000,0.282651,0.674960,0.046321,0.132345,0.046321,299.000000,292.000000,7.000000,20.000000,0.000000,0.000000:
0000
0000
2000
0000
,
3020
0000
0230
0000
,
0302
0000
1003
0010
,
0100
0001
0010
0100
,
1000
0000
0010
0000
0100
0001
0100
0000
,
0010
1000
0001
0100
,
0010
1000
0100
0100
,
0100
0010
0001
0100
,
0010
1000
0010
0100
,
0000
0000
0010
0010
0010
0000
0000
0000
,
1000
0000
0000
0000
0000
0000
0000
0000
1000
0001
1000
0001
1000
0001
1000
0001
,
1000
0001
1000
0001
1000
0001
1000
0001
1000
0001
1000
0001
1000
0001
1000
0001
,
1000
0001
1000
0001
1000
0000
0000
0000
1000
0000
0000
0000
0000
0000
0010
0000
,
0000
0000
0100
0000
0001
0000
0000
0010
,
0000
0000
0100
0000
1000
0000
0000
0010
,
0000
0000
0100
0010
0100
0010
0100
0000
,
0000
0000
0001
0000
0010
0000
0001
1000
,
0001
1000
0001
0100
0001
0100
0001
0000
,
0000
0000
0010
0000
0100
0000
0000
1000
,
0000
0000
0010
0000
0100
0000
0000
0001
,
0000
0010
1001
0010
,
1000
0010
1000
0000
0001
0000
0000
0100
,
0000
0000
0010
0000
1000
0000
0000
0010
,
0000
0000
0100
0000
0001
0000
0000
0010
,
0000
0100
0000
0100
0000
1000
0000
1000
,
0000
0000
0001
0000
0100
0010
0000
0010
,
0000
0000
1000
0000
0001
0100
0000
0010
,
0000
1000
0000
0010
0000
0100
0001
0000
,
0010
0100
2000
0000
,
3010
0100
0002
0000
,
0013
0100
2000
0000
,
0010
0100
0001
0000
,
3020
0230
0302
0000
,
0010
0100
1000
0000
,
0010
0000
0203
0320
,
2030
3200
0320
0032
,
0000
0000
1003
0001
1000
0000
0000
0000
,
0010
0100
0000
0000
0001
0000
0000
0000
,
0000
0010
0000
0000
0020
0000
0000
0000
,
0130
0000
1000
0000
0001
0000
0000
0100
,
0000
0010
1000
0000
,
0010
1000
0000
0000
0010
0000
0010
0000
,
0000
0100
0000
0001
0000
0000
0010
0000
,
0100
0000
1000
0000
0100
0000
0000
0010
,
0000
0000
0100
0000
1001
0000
0001
1000
,
0001
1000
0001
1000
0000
0010
0100
0010
,
0100
0000
0001
0000
0010
0000
0100
1000
,
0100
0010
0001
0010
0000
0000
0100
1000
,
0001
0100
0010
0000
1000
0000
0001
0100
,
0010
1000
0001
0000
0010
0000
0100
0000
,
1000
0001
0100
0010
1000
0001
0100
0010
,
1000
0001
0100
0010
0000
0000
0000
0000
,
1000
0000
0000
0000
0002
0000
0000
0013
,
0000
0000
0100
0000
2000
0000
0000
3001
,
0000
0000
0100
0000
0020
0000
0000
1030
,
0000
0000
0010
0100
0010
1000
0010
0000
,
0000
0100
0101
0001
,
0010
0001
0010
0001
1000
0001
0100
0010
,
0000
0000
1010
0000
0001
0100
0000
0010
,
0000
0000
1000
0000
0001
0000
0000
0100
,
0000
0000
0010
0000
1100
0000
1000
0001
,
1000
0001
1000
0001
1000
0000
0010
0100
,
0010
0100
0010
0100
0010
0000
1000
0001
,
1000
0001
1000
0001
1000
0000
0010
0100
,
0010
0100
0010
0000
1000
0000
0000
0011
,
0000
0000
0100
0000
0100
0000
0000
1001
,
0000
0000
0010
0000
0010
0000
0000
0100
,
0000
0010
0000
1000
0000
0001
0001
0000
,
1000
0000
0000
0000
;

//---------------dance-single - ----------------
#NOTES:
     dance-single:
     :
     Easy:
     5:
     0.206080,0.224160,0.039704,0.145580,0.000000,218.000000,212.000000,6.000000,22.000000,0.000000,0.000000,0.206080,0.224160,0.039704,0.145580,0.000000,218.000000,212.000000,6.000000,22.000000,0.000000,0.000000:
0000
0000
2000
0000
,
3020
0000
0230
0000
,
0302
0000
1003
0010
,
0100
0001
0010
0100
,
1000
0000
0010
0000
0100
0001
0100
0000
,
0010
1000
0001
0100
,
0010
1000
0100
0100
,
0100
0010
0001
0100
,
0010
1000
0010
0100
,
0000
0000
0010
0010
0010
0000
0000
0000
,
1000
0000
2002
0000
,
0000
0000
0000
0000
,
3003
0000
0000
0000
1000
0000
0000
0010
,
0000
0000
0100
0000
0001
0000
0000
0010
,
0000
0000
0100
0000
1000
0000
0000
0010
,
0000
0100
0010
0100
,
0000
0001
0010
0001
,
0010
0100
1000
0010
,
0000
0000
0010
0000
0100
0000
0000
1000
,
0000
0000
0010
0000
0100
0000
0000
0001
,
0000
0010
1001
0010
,
1000
0000
1000
0000
0001
0000
0000
0100
,
0000
0000
0010
0000
1000
0000
0000
0010
,
0000
0000
0100
0000
0001
0000
0000
0010
,
0000
0100
0000
0100
0000
1000
0000
1000
,
0000
0000
0001
0000
0100
0010
0000
0010
,
0000
0000
1000
0000
0001
0100
0000
0010
,
0000
1000
0000
0010
0000
0100
0001
0000
,
0010
0100
2000
0000
,
3010
0100
0002
0000
,
0013
0100
2000
0000
,
3010
0100
0001
0000
,
0020
0230
0302
0000
,
0013
0100
1000
0000
,
0010
0000
0200
0320
,
2030
3200
0320
0032
,
0000
0000
1003
0001
1000
0000
0000
0000
,
0010
0100
0000
0000
0001
0000
0000
0000
,
0000
0010
0000
0000
0020
0000
0000
0000
,
0130
0000
1000
0000
0001
0000
0000
0100
,
0000
0010
1000
0000
,
0010
1000
0000
0000
0010
0000
0010
0000
,
0000
0100
0000
0001
0000
0000
0010
0000
,
0100
0000
1000
0000
0100
0000
0000
0010
,
0000
0100
1001
0001
,
0010
0100
0000
1000
,
0100
0001
0010
0100
,
1000
0100
0000
0100
,
0010
0001
1000
0001
,
0010
0001
0010
0100
,
1000
0100
1000
0100
,
1000
0100
0000
0000
,
1000
0000
0000
0000
0002
0000
0000
0013
,
0000
0000
0100
0000
2000
0000
0000
3001
,
0000
0000
0100
0000
0020
0000
0000
1030
,
0000
0010
0010
0010
,
0000
0100
0101
0001
,
1000
0010
1000
0100
,
0000
1010
0001
0000
,
0000
1000
0001
0000
,
0000
0010
1100
1000
,
0001
1000
0010
0100
,
0010
0100
0010
1000
,
0001
1000
0001
0010
,
0100
1000
0001
0000
,
0000
0100
0100
0000
,
0000
0010
0010
0000
,
0000
0000
0000
0001
;

//---------------dance-single - ----------------
#NOTES:
     dance-single:
     :
     Beginner:
     3:
     0.140853,0.179328,0.039704,0.059555,0.000000,149.000000,143.000000,6.000000,9.000000,0.000000,0.000000,0.140853,0.179328,0.039704,0.059555,0.000000,149.000000,143.000000,6.000000,9.000000,0.000000,0.000000:
0000
0000
2000
0000
,
3020
0000
0230
0000
,
0302
0000
1003
0000
,
1000
0000
0100
0000
,
0010
0000
0100
0000
,
0001
0000
1000
0000
,
0001
0000
0100
0000
,
0010
0000
1000
0000
,
0100
0000
0010
0000
,
0000
0010
0010
0000
,
1000
0000
2002
0000
,
0000
0000
0000
0000
,
3003
0000
1000
0000
,
0000
0100
0100
0000
,
0000
0001
0001
0000
,
0000
1000
0000
1000
,
0000
0001
0000
0001
,
0000
0010
0000
0010
,
0000
0010
0010
0000
,
0000
0100
0100
0000
,
0000
0000
1001
0000
,
1000
0000
0001
0000
,
0000
1000
1000
0000
,
0000
0001
0001
0000
,
0000
0000
0000
0000
,
0000
0001
0001
0000
,
0000
1000
1000
0000
,
0000
0000
0000
0001
,
0001
0001
0001
0000
,
0100
0100
0100
0000
,
0010
0010
0010
0000
,
0100
0100
0100
0000
,
0001
0001
0001
0000
,
0010
0010
0010
0000
,
0010
0000
1000
1000
,
1000
0001
0001
0001
,
0000
1000
1000
0000
,
0010
0000
0001
0000
,
0000
0000
0010
0000
,
0100
0100
0100
0000
,
0000
0010
0010
0000
,
0010
0000
0010
0010
,
0000
0000
0000
0010
,
0010
0010
0000
0000
,
0000
0000
1001
0000
,
0100
0100
0000
1000
,
1000
1000
0000
0100
,
0100
0100
0000
0010
,
0010
0010
0000
0001
,
0001
0000
0100
0100
,
0100
0000
1000
1000
,
1000
1000
0000
0000
,
1000
0000
0000
0000
0002
0000
0000
0003
,
0000
0000
1000
0000
2000
0000
0000
3000
,
0000
0000
0000
0000
0020
0000
0000
0030
,
0000
0010
0010
0010
,
0000
0000
1001
0000
,
1000
0000
1000
0000
,
0000
1001
0000
0000
,
0000
1000
1000
0000
,
0000
0000
1001
0000
,
1000
1000
1000
0000
,
0010
0010
0000
1000
,
1000
1000
0001
0001
,
0001
0001
0001
0000
,
0000
0100
0100
0000
,
0000
0010
0010
0000
,
0000
0000
0000
0001
;
