#TITLE:Neon Twilight;
#SUBTITLE:;
#ARTIST:FAR EAST MENTION MANNEQUINS;
#TITLETRANSLIT:;
#SUBTITLETRANSLIT:;
#ARTISTTRANSLIT:;
#GENRE:;
#CREDIT:Lisek;
#BANNER:[Girls Week] - Neon Twilight.png;
#BACKGROUND:[Girls Week] - Neon Twilight-bg.png;
#LYRICSPATH:;
#CDTITLE:;
#MUSIC:[Girls Week] - Neon Twilight.ogg;
#OFFSET:-0.344354;
#SAMPLESTART:50.3;
#SAMPLELENGTH:15.6;
#SELECTABLE:YES;
#BPMS:0.000000=125
,152.000000=62.5
,160.000000=125
;
#STOPS:
;
#BGCHANGES:0.000=[Girls Week] - Neon Twilight.avi=1.000=1=0=1===CrossFade==,
228.000=[Girls Week] - Neon Twilight-bg.png=1.000=1=0=1===CrossFade==,
99999=-nosongbg-=1.000=0=0=0 // don't automatically add -songbackground-
;
#KEYSOUNDS:;
#ATTACKS:;

//---------------dance-single - ----------------
#NOTES:
     dance-single:
     Lisek:
     Hard:
     8:
     0.508621,0.614224,0.112069,0.250000,0.344828,413.000000,400.000000,13.000000,29.000000,0.000000,0.000000,0.508621,0.614224,0.112069,0.250000,0.344828,413.000000,400.000000,13.000000,29.000000,0.000000,0.000000:
// measure 0
0000
0000
0000
0000
,  // measure 1
0000
0000
0000
0000
,  // measure 2
0001
0100
0001
0100
0001
0100
0001
0000
,  // measure 3
1000
0100
1000
0100
1000
0100
1000
0000
,  // measure 4
0001
0100
0001
0000
0100
0000
0010
0000
1000
0000
0100
0010
0000
0000
0001
0000
,  // measure 5
1000
0010
1000
0000
0010
0000
0100
0000
0001
0000
0010
0100
0000
0000
1000
0000
,  // measure 6
0001
0010
0001
0100
0000
0000
0010
0000
1000
0100
1000
0010
0000
0000
0100
0000
,  // measure 7
0001
0100
1000
0100
0101
0000
1010
0010
,  // measure 8
1000
0100
1000
0010
0000
0000
0100
0000
0001
0010
0001
0100
0000
0000
0001
0000
,  // measure 9
1000
0100
0001
0100
1100
0000
0011
0000
,  // measure 10
0001
0100
1000
0100
0010
1000
0100
0010
,  // measure 11
0001
0010
1000
0010
0100
1000
0001
0000
,  // measure 12
1000
0001
1000
0001
0100
0000
0000
0000
0100
0010
0100
0010
1000
0000
0000
0000
,  // measure 13
1000
0001
1000
0001
0010
0000
0000
0000
0010
0100
0010
0100
1000
0000
0000
0000
,  // measure 14
1000
0001
1000
0010
0000
0000
0100
0000
0001
0000
0100
0010
0000
0000
0010
0000
,  // measure 15
1000
0100
0001
0100
1100
0000
0011
0000
,  // measure 16
0010
0001
0000
0100
0000
0000
0010
0000
1000
0010
1000
0001
0000
0000
1000
0000
,  // measure 17
0001
0100
1000
0100
0101
0000
1010
0000
,  // measure 18
1000
0100
0001
0100
0010
0001
0010
0100
,  // measure 19
1000
0010
0001
0010
0100
0001
1000
0000
,  // measure 20
1010
0101
0011
1100
,  // measure 21
0100
0000
0010
0100
0010
0000
0100
0000
1000
0000
0001
0000
0100
0000
0010
0000
,  // measure 22
0100
0010
0100
0010
,  // measure 23
1000
0001
0100
0010
1000
0100
0010
0001
,  // measure 24
2002
0000
0000
0000
,  // measure 25
0000
0000
0000
3003
,  // measure 26
0001
0000
0010
0001
0010
0000
0100
0000
0010
0000
0001
0100
0010
0000
0000
0000
,  // measure 27
1000
0000
0100
1000
0100
0000
1000
0000
0010
0000
0100
0010
1000
0000
0000
0000
,  // measure 28
0001
0000
0000
0100
0000
0000
1000
0000
0100
0000
0000
0000
0001
0000
1000
0000
,  // measure 29
0002
0203
2300
3020
,  // measure 30
0031
0000
0010
0001
0010
0000
0100
0000
0010
0000
0001
0100
0010
0000
0000
0000
,  // measure 31
1000
0000
0010
1000
0010
0000
0100
0000
0001
0000
0100
0010
1000
0000
0000
0000
,  // measure 32
1000
0000
0000
0100
0000
0000
0001
0000
0100
0000
0000
0000
1000
0000
0001
0000
,  // measure 33
2000
3020
0032
0203
,  // measure 34
1300
0000
0000
0100
0001
0000
0100
0000
1000
0000
0000
0100
0001
0000
0100
0000
,  // measure 35
1000
0000
0000
0100
0001
0000
0100
0000
1000
0000
0000
0100
0001
0000
0100
0000
,  // measure 36
0020
0000
0000
0000
0031
0000
0100
0000
0001
0000
0000
0100
1000
0000
0100
0000
,  // measure 37
0001
0000
0000
0100
1000
0000
0100
0000
0001
0000
0000
0100
1000
0000
0100
0000
,  // measure 38
0001
0010
0100
1000
0010
0100
0010
2000
0000
3001
0100
0010
1000
0100
0000
1000
,  // measure 39
0100
0010
0001
1000
0020
0000
0130
0010
0000
0000
0010
0000
0010
0000
0010
0000
,  // measure 40
0010
0000
0000
0000
,  // measure 41
1000
0000
0010
1000
0100
0000
0010
0000
0100
0000
1000
0010
0100
0000
0000
0000
,  // measure 42
0001
0000
0010
0001
0100
0000
0001
0000
0100
0000
0010
0100
0001
0000
0000
0000
,  // measure 43
1000
0000
0000
0100
0000
0000
0001
0000
0100
0000
0000
0000
1000
0000
0001
0000
,  // measure 44
2000
3020
0032
0203
,  // measure 45
1300
0000
0100
1000
0100
0000
0010
0000
0100
0000
1000
0010
0100
0000
0000
0000
,  // measure 46
0001
0000
0100
0001
0010
0000
0100
0000
0010
0000
0001
0100
0001
0000
0000
0000
,  // measure 47
0001
0000
0000
0010
0000
0000
1000
0000
0010
0000
0000
0000
0001
0000
1000
0000
,  // measure 48
0002
0203
2300
3020
,  // measure 49
0031
0010
0000
0001
0010
0000
0100
0000
1000
0000
0010
0000
0100
0000
0010
0000
,  // measure 50
1000
0100
0000
1000
0100
0000
0010
0000
0001
0100
0001
0010
0001
0000
1000
0000
,  // measure 51
0001
0000
0000
0100
0000
0000
1000
0000
0100
0000
0000
0000
0001
0000
1000
0000
,  // measure 52
0002
0203
2300
3020
,  // measure 53
0031
0010
0000
0001
0010
0000
0100
0000
1000
0000
0001
0000
0100
0000
0010
0000
,  // measure 54
1000
0010
0000
1000
0010
0000
0100
0000
0001
1000
0010
1000
0100
0000
1000
0000
,  // measure 55
0001
0000
0000
0010
0000
0000
1000
0000
0010
0000
0000
0000
0001
0000
1000
0000
,  // measure 56
0002
0203
2300
3020
,  // measure 57
0031
0000
0000
0000
;

//---------------dance-single - ----------------
#NOTES:
     dance-single:
     Lisek:
     Medium:
     6:
     0.360837,0.417672,0.120690,0.336207,0.038793,293.000000,279.000000,14.000000,39.000000,0.000000,0.000000,0.360837,0.417672,0.120690,0.336207,0.038793,293.000000,279.000000,14.000000,39.000000,0.000000,0.000000:
0000
0000
0000
0000
,
0000
0000
0000
0000
,
2000
0010
0100
3001
,
0002
0100
0010
1003
,
0001
0000
1000
0000
0010
0000
0100
0000
0010
0000
0000
0010
0000
0000
0000
0000
,
0100
0000
0010
0000
1000
0000
0001
0000
1000
0000
0000
1000
0000
0000
0000
0000
,
0001
0100
0001
0000
1000
0010
1000
0000
,
0100
0010
0001
0100
0101
0000
1010
0000
,
1000
0100
1000
0000
0001
0010
0001
0000
,
0100
0010
1000
0100
1100
0000
0011
0000
,
0001
0100
0001
0100
0010
1000
0001
0100
,
0010
1000
0010
1000
0001
0100
0010
0000
,
2020
3030
0220
0330
,
0202
0303
2002
3003
,
0001
0010
0001
0000
1000
0010
1000
0000
,
0001
0100
0010
1000
1010
0000
0110
0000
,
0100
0000
0001
0000
1000
0010
0100
0000
,
0010
1000
0001
0100
0101
0000
0110
0000
,
0010
0100
0010
0100
0001
1000
0100
0010
,
0001
1000
0001
1000
0010
0100
0001
0000
,
1000
0010
0100
0001
,
1000
0000
0100
0000
1000
0001
1000
0000
,
0002
0010
0100
1003
,
2000
0100
0010
3001
,
2002
0000
0000
0000
,
0000
0000
0000
3003
,
0001
0000
0100
0000
0010
0100
0001
0000
,
1000
0000
0010
0000
0100
0010
1000
0000
,
0100
0000
0000
0100
0000
0000
0010
0000
0001
0000
0000
0000
1000
0000
0001
0000
,
0200
0320
2030
3002
,
1003
0000
0100
0000
1000
0010
0100
0000
,
0001
0000
0100
0000
0010
1000
0001
0000
,
0100
0000
0000
0100
0000
0000
0010
0000
1000
0000
0000
0000
0001
0000
0100
0000
,
0002
0023
0230
2300
,
3001
0000
0100
0100
0010
0000
0100
0100
,
0010
0000
0100
0100
0010
0000
0100
0100
,
0020
0000
1030
1000
0001
0000
1000
1000
,
0001
0000
1000
1000
0001
0000
1000
0001
,
1000
0010
0100
0000
0001
0100
0010
0000
,
1000
0000
0100
0000
0010
0000
0001
1000
0000
0000
0001
0000
1000
0000
0001
0000
,
1001
0000
0000
0000
,
1000
0000
0010
0000
1000
0100
0010
0000
,
0001
0000
0100
0000
0001
0010
0100
0000
,
0010
0000
0000
0010
0000
0000
0100
0000
1000
0000
0000
0000
0001
0000
1000
0000
,
0020
0230
0302
2003
,
3001
0000
0010
0000
0001
0010
0100
0000
,
1000
0000
0010
0000
1000
0100
0010
0000
,
0001
0000
0000
0001
0000
0000
0100
0000
0001
0000
0000
0000
1000
0000
0010
0000
,
2000
3200
0320
0032
,
1003
0000
0100
0000
1000
0010
0100
0000
,
0001
0000
0100
0000
0001
1000
0010
0000
,
1000
0000
0000
1000
0000
0000
0001
0000
0100
0000
0000
0000
0010
0000
0100
0000
,
0002
0023
0230
2300
,
3001
0000
0010
0000
0001
1000
0010
0000
,
1000
0000
0100
0000
1000
0010
0100
0000
,
0001
0000
0000
0001
0000
0000
1000
0000
0010
0000
0000
0000
0100
0000
0010
0000
,
2000
3020
0230
0302
,
1003
0000
0000
0000
;

//---------------dance-single - ----------------
#NOTES:
     dance-single:
     Lisek:
     Easy:
     4:
     0.284483,0.294828,0.120690,0.241379,0.012931,231.000000,217.000000,14.000000,28.000000,0.000000,0.000000,0.284483,0.294828,0.120690,0.241379,0.012931,231.000000,217.000000,14.000000,28.000000,0.000000,0.000000:
0000
0000
0000
0000
,
0000
0000
0000
0000
,
2000
0000
0001
3001
,
0002
0000
1000
1003
,
0001
0000
0000
0000
0100
0000
0000
0000
0001
0000
0000
1000
0000
0000
0000
0000
,
1000
0000
0000
0000
0010
0000
0000
0000
1000
0000
0000
0001
0000
0000
0000
0000
,
1000
0010
0100
0010
,
1000
0001
1001
1001
,
0001
0100
0010
0100
,
0001
1000
1001
1001
,
1000
0010
0100
0001
,
0010
0100
1000
0010
,
0110
0000
1001
0000
,
0110
0000
1001
0000
,
0001
1000
0100
1000
,
0001
1000
1001
1001
,
1000
0001
0100
0001
,
1000
0001
1001
1001
,
0001
0010
0100
1000
,
0010
0100
0001
0100
,
0110
0100
0010
0100
,
0001
0000
1000
0000
,
0001
0010
0100
1000
,
0001
0010
0100
1000
,
2002
0000
0000
0000
,
0000
0000
0000
3003
,
1000
0000
0001
0000
1000
0001
1000
0000
,
0010
0000
0100
0000
0010
0100
0010
0000
,
1000
0100
0010
0001
,
2000
3002
2003
3002
,
1003
0000
0100
0000
1000
0100
1000
0000
,
0001
0000
0100
0000
0001
0100
0001
0000
,
1000
0010
0100
0001
,
2000
3002
2003
3002
,
1003
1000
0100
0100
,
0010
0010
0001
0001
,
0100
0100
0010
0010
,
1000
1000
0001
0001
,
1000
0100
0010
0001
,
0100
0000
0000
0000
0010
0000
0000
1000
0000
0000
0001
0000
1000
0000
0001
0000
,
1000
0000
0000
0000
,
0001
0000
0100
0000
0001
0100
0001
0000
,
1000
0000
0010
0000
1000
0010
1000
0000
,
0010
0100
0001
1000
,
0020
0230
0320
0230
,
0301
0000
0010
0000
0001
0010
0001
0000
,
1000
0000
0100
0000
1000
0100
1000
0000
,
0010
0100
0001
1000
,
0020
0230
0320
0230
,
0310
0000
1000
0000
0001
0100
0001
0000
,
1000
0000
0100
0000
0010
0001
0010
0000
,
0001
0010
0100
1000
,
0002
2003
3002
2003
,
3001
0000
0100
0000
0010
1000
0010
0000
,
1000
0000
0100
0000
1000
0010
1000
0000
,
0001
0100
0010
1000
,
0002
2003
3002
2003
,
3001
0000
0000
0000
;

//---------------dance-single - ----------------
#NOTES:
     dance-single:
     Lisek:
     Beginner:
     1:
     0.071429,0.122845,0.008621,0.068966,0.000000,58.000000,57.000000,1.000000,8.000000,0.000000,0.000000,0.071429,0.122845,0.008621,0.068966,0.000000,58.000000,57.000000,1.000000,8.000000,0.000000,0.000000:
0000
0000
0000
0000
,
0000
0000
0000
0000
,
2000
0000
0000
3000
,
0002
0000
0000
0003
,
1000
0000
0000
0000
,
0001
0000
0000
0000
,
1000
0000
0000
0000
,
0100
0000
0000
0000
,
0010
0000
0000
0000
,
0001
0000
0000
0000
,
1000
0000
0000
0000
,
0001
0000
0000
0000
,
0100
0000
0100
0000
,
0100
0000
0100
0000
,
0001
0000
0000
0000
,
1000
0000
0000
0000
,
0010
0000
0000
0000
,
0100
0000
0000
0000
,
0001
0000
0000
0000
,
1000
0000
0000
0000
,
0010
0000
0010
0000
,
0010
0000
0000
0000
,
2000
0000
0000
3000
,
0002
0000
0000
0003
,
2002
0000
0000
0000
,
0000
0000
0000
3003
,
1000
0000
0000
0000
,
0001
0000
0000
0000
,
1000
0000
0000
0000
,
0001
0000
0000
0000
,
0100
0000
0000
0000
,
0010
0000
0000
0000
,
0100
0000
0000
0000
,
0010
0000
0000
0000
,
1000
0000
0000
0000
,
0100
0000
0000
0000
,
0010
0000
0000
0000
,
0001
0000
0000
0000
,
2000
0000
0000
0000
0000
0000
0000
0000
0000
0000
0000
0000
0000
3000
0000
0000
,
0002
0000
0000
0000
0000
0000
0000
0003
0000
0000
0000
0000
0000
0000
0000
0000
,
0000
0000
0000
0000
,
1000
0000
0000
0000
,
0001
0000
0000
0000
,
1000
0000
0000
0000
,
0001
0000
0000
0000
,
0100
0000
0000
0000
,
0010
0000
0000
0000
,
0100
0000
0000
0000
,
0010
0000
0000
0000
,
1000
0000
0000
0000
,
0100
0000
0000
0000
,
1000
0000
0000
0000
,
0100
0000
0000
0000
,
0010
0000
0000
0000
,
0001
0000
0000
0000
,
0010
0000
0000
0000
,
0001
0000
0000
0000
,
0100
0000
0000
0000
;
