#TITLE:Look Alike;
#SUBTITLE:;
#ARTIST:Riu Konaka;
#TITLETRANSLIT:;
#SUBTITLETRANSLIT:;
#ARTISTTRANSLIT:;
#CREDIT:;
#BANNER:;
#BACKGROUND:;
#LYRICSPATH:;
#CDTITLE:;
#MUSIC:Look Alike.ogg;
#OFFSET:0.000;
#SAMPLESTART:100.000;
#SAMPLELENGTH:12.000;
#SELECTABLE:YES;
#BPMS:0.000=129.800;
#STOPS:;
#BGCHANGES:;

//---------------dance-single - ----------------
#NOTES:
     dance-single:
     :
     Hard:
     7:
     0.506,0.530,0.143,0.125,0.183:
0000
0000
0000
0000
,
0000
0000
0000
0000
,
0000
0000
0000
0000
,
0000
0000
0000
0000
,
1000
0000
0100
0000
0000
0010
0000
0000
0001
0000
0000
0010
0000
0000
0100
0000
,
1000
0000
0010
0000
0000
0100
0000
0000
0001
0000
0000
0010
0000
0000
0100
0000
,
1000
0000
0010
0000
0000
0100
0000
0000
0001
0000
0000
0010
0000
0000
0100
0000
,
1000
0100
1000
0100
0010
0001
0010
0001
2000
0000
0000
0000
0000
0000
0000
0000
,
3001
0000
0100
0010
1000
0100
0000
0010
,
0001
0010
0100
0010
0000
0001
0100
1000
,
0100
0001
0010
1000
0010
0001
0000
1001
,
0000
0100
0001
0100
1000
0010
0001
1000
,
0001
0000
0100
0010
1000
0100
0000
0010
,
0000
0001
0010
0100
1000
0100
0010
0001
,
0100
1000
0100
0001
0010
0100
0000
0100
,
1000
0010
1000
0100
0010
0001
0100
0001
,
0010
0000
0100
0000
0000
1000
0000
0000
0010
0000
0000
0100
0000
0000
0001
0000
,
0010
0000
0100
0000
0000
1000
0000
0000
0010
0000
0000
0001
0000
0000
0010
0000
,
1000
0000
0100
0000
0000
0010
0000
0000
0001
0000
0000
0100
0000
0000
0010
0000
,
1000
0000
0001
0000
0000
0100
0000
0000
0010
0000
0000
1000
0000
0000
0100
0000
,
0001
0100
1000
0100
0010
0010
0010
0000
,
0001
0100
0001
0100
0010
0010
0010
0000
,
1100
1000
0100
0000
0101
0001
0100
0000
,
0110
1001
0110
1001
,
1000
1000
0001
0001
0100
0010
1000
0001
,
0100
0100
0010
1000
0000
1001
1001
0000
,
1000
0001
0000
0100
0000
0000
0100
0000
0001
1000
0000
0100
0000
0000
0000
0000
,
1000
0010
0100
0001
1000
0010
0100
0001
,
1000
0100
0010
0001
0100
0000
0010
1000
,
0000
0000
1000
0100
0010
0000
0001
0100
,
0000
0010
1000
0100
1000
0001
0010
0001
,
1000
0100
1000
0001
0100
0001
1000
0100
,
1000
0001
0010
0001
0100
0000
0100
0010
,
0000
0000
0010
1000
0100
0000
0100
0010
,
0000
0010
0001
1000
0010
1000
0100
0001
,
0100
0000
1000
0000
0010
0000
0001
0000
0010
1000
0010
1000
0020
0000
0000
1030
,
0000
0000
0000
0000
1100
0000
1000
0001
,
0100
0001
0000
0010
0100
1000
0010
0100
,
0001
0010
0100
2000
0000
3001
0100
0020
,
0000
1030
0000
0100
0001
0100
1000
0010
,
0001
0100
1000
0001
1000
0000
0001
0100
,
0010
0100
0000
0001
0010
0100
1000
0010
,
0100
0010
1000
0200
0000
0310
0001
0200
,
0000
0310
0000
0010
1000
0010
0100
0010
,
0001
0010
0100
0010
1000
0000
0100
0010
,
0001
0100
0000
0010
1000
0010
0001
0010
,
1000
0100
0010
0002
0000
1003
0100
0020
,
0000
0031
0000
0010
0001
0010
1000
0010
,
0001
0010
1000
0100
0001
0000
0001
0010
,
0100
1000
0000
1000
0010
0001
0010
1000
,
0100
0010
0001
0200
0000
0310
1000
0200
,
0000
0310
0000
0001
0010
0001
0100
1000
,
0100
0000
0001
0000
0010
0000
0100
0000
1000
0000
0000
0010
0000
0000
0100
0000
,
0000
0001
0000
0000
0010
0000
0100
0000
1000
0000
0000
0010
0000
0000
0100
0000
,
0000
0010
0000
0000
1000
0000
0100
0000
0010
0000
0000
0001
0000
0000
0100
0000
,
0000
0010
0000
0000
1000
0000
0001
0000
0010
0000
0000
0001
0000
0000
1000
0000
,
0000
0001
0000
0000
0100
0000
0001
0000
1000
0000
2010
0000
0000
3001
0000
0000
,
0012
0000
0000
1003
0000
0000
1001
0000
0000
0000
2100
0000
0000
3001
0000
0000
,
0102
0000
0000
1003
0000
0000
1001
0000
0000
0000
1000
0000
0010
1000
0000
1000
,
0001
0000
0001
0100
0000
0100
0001
0000
0000
0000
0000
0000
0000
0000
0000
0000
;

//---------------dance-double - ----------------
#NOTES:
     dance-double:
     :
     Hard:
     8:
     0.557,0.609,0.143,0.018,0.241:
00000000
00000000
00000000
00000000
,
00000000
00000000
00000000
00000000
,
00000000
00000000
00000000
00000000
,
00000000
00000000
00000000
00000000
,
10000000
00000000
01000000
00000000
00000000
00010000
00000000
00000000
00001000
00000000
00000000
00000100
00000000
00000000
00000001
00000000
,
00000010
00000000
00000100
00000000
00000000
00010000
00000000
00000000
00001000
00000000
00000000
00100000
00000000
00000000
00010000
00000000
,
10000000
00000000
00100000
00000000
00000000
00010000
00000000
00000000
00001000
00000000
00000000
00000010
00000000
00000000
00001000
00000000
,
00010000
00001000
00010000
00001000
00100000
00000100
00100000
00000100
00010000
00001000
00010000
00001000
00100000
00000100
00100000
00000100
,
00010000
00001000
00010000
00001000
00010000
00001000
00010000
01000000
,
10000000
00100000
10000000
00010000
10000000
00100000
10000000
01000000
,
00010000
00001000
00000001
00000100
00001000
00010000
00000000
10000000
,
10000000
00100000
01000000
00001000
00010000
00010000
00010000
00000000
,
00000100
00001000
00000010
00001000
00000100
00001000
00000010
00000100
,
00000001
00000010
00000100
00001000
00000100
00000010
00000001
00000100
,
00001000
00010000
10000000
01000000
00010000
00001000
00000000
00011000
,
00000000
00010000
00000100
00001000
01000000
00001000
00000100
00010000
,
00010000
00000000
00001000
00000000
00000000
00100000
00000000
00000000
00010000
00000000
00000000
10000000
00000000
00100000
10000000
00000000
,
01000000
00000000
00010000
00000000
00000000
00000100
00000000
00000000
00001000
00000000
00000000
00000010
00000000
00000100
00000001
00000000
,
00000010
00000000
00000100
00000000
00000000
00010000
00000000
00000000
00001000
00000000
00100000
00010000
00000000
10000000
00100000
00000000
,
01000000
00000000
00001000
00000000
00000000
00010000
00000000
00000000
00000010
00000000
00001000
00000010
00000000
00000001
00000010
00000000
,
00010000
00001000
00010000
00000100
00010000
00010000
00010000
00000000
,
01000000
01000000
00100000
00100000
00010000
00001000
00000010
00000000
,
00000001
00000010
00001000
00000000
00010000
00100000
10000000
00000000
,
11000000
01010000
00011000
00001100
,
00000101
00000001
00000100
00000100
00001000
00001000
00010000
00010000
,
01000000
01000000
10000000
10000000
00000000
10010000
10010000
00000000
,
10000000
00100000
00000000
01000000
00000000
00000000
00001000
00000000
00010000
00000100
00000000
00001000
00000000
00000000
00000000
00000000
,
00000010
00000000
00000000
00000010
00000000
00000000
00000100
00000000
00000000
00000100
00000000
00000000
00000001
00000000
00000000
00000001
00000000
00000000
00001000
00000000
00000000
00001000
00000000
00000100
,
00000010
00000010
00000010
00000001
00000010
00001000
00010000
00100000
,
10000000
01000000
00100000
00010000
10000000
01000000
00010000
00001000
,
00000100
00000001
00000010
00000100
00001000
00000100
00010000
00001000
,
00100000
00010000
10000000
00100000
01000000
00010000
00100000
00001000
,
00010000
00000100
00001000
00000010
00000100
00000001
00000010
00001000
,
00010000
00100000
10000000
00010000
10000000
00100000
00010000
00001000
,
00000100
00000001
00000010
00000100
00010000
00001000
00100000
00010000
,
10000000
00000000
00100000
00000000
01000000
00000000
00010000
00000000
00100000
00001000
00010000
00001000
00010000
00000000
00000000
00022000
,
00000000
00033000
00000000
00000000
00010000
00000100
00000010
00000100
,
00010000
00000100
00000010
00000001
00000100
00001000
00010000
01000000
,
10000000
00100000
10000000
01000000
00100000
00010000
01000000
00100000
,
00010000
00001000
00000000
00001100
00000000
00000100
00000001
00000010
,
00000100
00000100
00000100
00000000
00010000
00001000
00100000
00010000
,
10000000
00010000
10000000
01000000
00010000
00001000
00000100
00000001
,
00001000
00000001
00000010
00000100
00001000
00000100
00010000
00100000
,
10000000
00010000
00000000
10010000
00000000
10000000
00010000
00010000
,
00100000
00100000
00001000
00001000
00000010
00000001
00000100
00000010
,
00001000
00000100
00010000
00001000
00010000
01000000
10000000
00100000
,
01000000
00100000
10000000
01000000
00010000
01000000
10000000
01000000
,
00010000
00001000
00000000
00011000
00000000
00001000
00000100
00000001
,
00000100
00001000
00000100
00000001
00000010
00001000
00000010
00000001
,
00000010
00001000
00010000
00100000
10000000
00100000
00010000
00100000
,
10000000
00100000
01000000
00100000
10000000
01000000
00100000
00001000
,
00010000
00001000
00000100
00000001
00000100
00001000
00010000
00001000
,
00100000
00000000
00100000
00000000
00010000
00000000
00010000
00000000
10000000
00000000
00000000
01000000
00000000
00000000
00100000
00000000
,
00000000
01100000
00000000
00000000
00100000
00000000
00001000
00000000
00010000
00000000
00000000
00000100
00000000
00000000
00001000
00000000
,
00000000
00001010
00000000
00000000
00000010
00000000
00000100
00000000
00000001
00000000
00000000
00000010
00000000
00000000
00000100
00000000
,
00000000
00001100
00000000
00000000
00000100
00000000
00010000
00000000
00001000
00000000
00000000
00100000
00000000
00000000
00010000
00000000
,
00000000
10010000
00000000
00000000
10000000
00000000
00100000
00000000
01000000
00000000
00010000
00000000
00100000
00001000
00000000
00001000
,
00000100
00000000
00000100
00000001
00000000
00000001
00000010
00000000
00000100
00000000
00001000
00000000
00000100
00010000
00000000
00010000
,
00100000
00000000
00100000
10000000
00000000
10000000
01000000
00000000
00010000
00000000
00001000
00000000
00100000
00001000
00000000
00001000
,
00010000
00000000
00010000
00000100
00000000
00000100
00010000
00000000
00000000
00000000
00000000
00000000
00000000
00000000
00000000
00000000
;

//---------------dance-single - ----------------
#NOTES:
     dance-single:
     :
     Medium:
     6:
     0.356,0.397,0.036,0.098,0.076:
0000
0000
0000
0000
,
0000
0000
0000
0000
,
0000
0000
0000
0000
,
0000
0000
0000
0000
,
1000
0000
0000
2000
0000
0000
0000
0000
0000
0000
0000
0000
0000
0000
0000
0000
,
3200
0000
0010
0001
,
2300
0000
0000
0000
,
3001
0100
0010
1000
0001
0000
0000
0000
,
0001
0001
1000
1000
,
0100
0000
0100
0000
0010
0001
0100
1000
,
0100
0100
0001
0001
,
0010
0000
0010
0000
0100
1000
0010
0001
,
0010
0010
0100
0100
,
0010
0000
0010
0000
1000
0100
1000
0010
,
0001
0001
0010
0010
,
1000
0100
0001
0100
1000
0100
0001
0100
,
1000
0000
1000
0000
0000
0100
0000
0000
0010
0000
0000
0100
0000
0000
1000
0000
,
0000
0000
0001
0000
0000
0100
0000
0000
0010
0000
0000
0100
0000
0000
0001
0000
,
0000
0000
1000
0000
0000
0100
0000
0000
0001
0000
0000
0100
0000
0000
1000
0000
,
0000
0000
0001
0000
0000
0100
0000
0000
1000
0000
0000
0100
0000
0000
0001
0000
,
1000
0100
1000
0000
0100
0001
0100
0000
,
0001
0010
0001
0000
0010
1000
0010
0000
,
1000
1000
1000
0000
0001
0001
0001
0000
,
0011
1010
1100
0101
,
0001
0100
1000
0000
1000
0100
0001
0000
,
0001
0010
1000
0010
0000
0001
0001
0000
,
0001
0000
0000
0001
0000
0000
0100
0000
1000
0000
0000
1000
0000
0000
0100
0000
,
0001
0001
0010
0010
1000
1000
0100
0100
,
0001
0000
0001
0100
0010
0000
0010
0100
,
0000
0000
0100
0001
0010
0000
0010
0100
,
0000
0100
1000
0002
0000
0000
0100
0000
,
1000
0010
1000
0100
,
0010
0000
1003
0100
0010
0000
0010
0100
,
0000
0000
0100
1000
0010
0000
0010
0100
,
0000
0100
0001
2000
0000
0001
0000
0000
,
0100
0000
0000
0000
0001
0000
0000
0000
3020
0000
0000
0000
0200
0000
0000
0330
,
0000
0000
0100
0100
,
0001
0001
1000
1000
,
0100
1000
0010
0001
1000
0000
1000
0000
,
0001
0000
0001
0000
0010
0000
0010
1000
,
0100
0001
0100
1000
0010
0000
0010
0000
,
0100
0100
0001
0001
,
1000
0100
0001
0100
1000
0000
1000
0000
,
0100
0000
0100
0000
0010
0000
0010
0001
,
0100
1000
0100
0001
0010
0000
0010
0000
,
0100
0100
1000
1000
,
0010
0001
0010
1000
0100
0000
0100
0000
,
0010
0000
0010
0000
0001
0100
1000
0100
,
0001
0010
0100
0000
1000
0000
1000
0000
,
0001
0001
0100
0100
,
0010
1000
0100
0010
0001
0000
0001
0000
,
1000
0000
1000
0000
0100
1000
0010
1000
,
0100
0010
0001
1000
0002
0000
0000
0000
,
0000
0000
0203
0000
,
0000
0000
0320
0000
,
0000
0000
2030
0000
,
0000
0000
0000
0000
0000
0000
0000
0000
3000
0000
0001
0000
0000
0001
0000
0000
,
1000
0000
0000
1000
0000
0000
0010
0000
0000
0000
1000
0000
0000
1000
0000
0000
,
0001
0000
0000
0001
0000
0000
0010
0000
0000
0000
0001
0000
0000
0100
0000
0000
,
1000
0000
0000
0100
0000
0000
0010
0000
0000
0000
0000
0000
0000
0000
0000
0000
;

//---------------dance-single - ----------------
#NOTES:
     dance-single:
     :
     Easy:
     4:
     0.254,0.344,0.036,0.062,0.009:
0000
0000
0000
0000
,
0000
0000
0000
0000
,
0000
0000
0000
0000
,
0000
0000
0000
0000
,
1000
0100
1000
0100
,
0010
0001
0010
0001
,
0100
0010
0100
0010
,
1000
0001
1001
0000
,
1000
0001
1000
0001
,
1000
0100
1000
0100
,
1000
0010
1000
0001
,
1000
0010
0100
0001
,
0010
0001
0010
0001
,
1000
0001
1000
0001
,
0100
0100
0001
0001
,
0010
0001
1000
0100
,
1000
0000
1000
0000
,
0100
0000
0100
0000
,
0010
0000
0010
0000
,
0001
0000
0001
0000
,
1000
1000
0100
0100
,
0010
0010
0001
0001
,
0100
0100
0010
0010
,
1000
0100
0010
0001
,
1000
0100
1000
0010
,
0100
0000
0001
0000
0000
1000
0001
0000
,
0102
1003
2100
3001
,
0001
0010
0100
1000
,
0001
0000
1000
0100
,
1000
0000
0001
0100
,
0001
0000
1000
0010
,
1000
0000
0001
0010
,
0001
0000
1000
0100
,
0001
0000
0001
0100
,
1000
0000
1000
0010
,
0001
0000
0000
0000
0000
0000
0000
0000
0001
0000
0000
0000
0020
0000
0000
0030
,
0000
0000
1000
0100
,
0010
0100
1000
0010
,
0100
0001
0010
0010
,
0001
0001
0100
0010
,
1000
1001
1000
0100
,
0001
0100
1000
0010
,
0001
0010
1000
1000
,
0001
0001
0010
0001
,
0010
0100
0010
0001
,
0100
0001
0010
0100
,
1000
0001
1000
0010
,
1000
0100
1000
0010
,
0100
0001
1000
0100
,
0010
0001
0100
0010
,
1000
0001
0010
0010
,
0100
0100
1000
1000
,
1000
0100
0020
0000
,
0000
0000
0230
0000
,
0000
0000
2300
0000
,
0000
0000
3002
0000
,
0000
0000
1003
0000
,
1000
0000
0100
0000
,
0100
0000
0000
0000
0000
0000
0000
0000
0000
0000
1000
0000
0000
0100
0000
0000
,
1000
0000
0000
0001
0000
0000
0010
0000
0000
0000
0000
0000
0000
0000
0000
0000
;

//---------------dance-single - ----------------
#NOTES:
     dance-single:
     :
     Beginner:
     2:
     0.143,0.182,0.009,0.000,0.000:
0000
0000
0000
0000
,
0000
0000
0000
0000
,
0000
0000
0000
0000
,
0000
0000
0000
0000
,
1000
0000
0000
0000
,
0100
0000
0000
0000
,
1000
0000
0000
0000
,
0001
0000
0000
0000
,
1000
0000
1000
0000
,
0001
0000
0001
0000
,
0010
0000
0010
0000
,
0100
0000
0100
0000
,
1000
0000
1000
0000
,
0001
0000
0001
0000
,
0010
0000
0010
0000
,
0100
0000
0100
0000
,
1000
0000
0000
0000
,
0001
0000
0000
0000
,
0010
0000
0000
0000
,
0100
0000
0000
0000
,
1000
0000
0100
0000
,
0010
0000
0001
0000
,
0100
0000
0010
0000
,
1000
1000
1000
1000
,
1000
0000
0010
0000
,
0100
0000
0000
1001
,
0001
0000
0100
0000
,
0001
0001
0001
0001
,
0001
0000
0001
0001
,
0001
0000
0100
0100
,
0100
0000
1000
0000
,
1000
0000
0100
0000
,
0100
0000
0001
0001
,
0001
0000
0010
0010
,
0010
0000
1000
1000
,
1000
0000
0010
0010
,
0000
0000
0001
0000
,
0001
0000
0001
0000
,
0010
0000
0001
0000
,
0001
0000
0100
0000
,
0010
0010
0010
0000
,
1000
0000
1000
0000
,
0010
0000
1000
0000
,
1000
0000
0100
0100
,
0100
0000
0010
0000
,
0010
0000
0001
0000
,
1000
0000
0001
0000
,
0100
0000
0010
0000
,
1000
1000
1000
0000
,
0001
0000
0100
0000
,
0001
0000
0010
0000
,
0001
0000
0100
0000
,
0001
0001
0001
0000
,
0000
0000
1000
0000
,
0000
0000
0001
0000
,
0000
0000
0010
0000
,
0000
0000
0100
0000
,
1000
0000
0001
0000
,
0010
0010
0000
0000
;

//---------------dance-double - ----------------
#NOTES:
     dance-double:
     :
     Medium:
     6:
     0.391,0.397,0.071,0.107,0.058:
00000000
00000000
00000000
00000000
,
00000000
00000000
00000000
00000000
,
00000000
00000000
00000000
00000000
,
00000000
00000000
00000000
00000000
,
00010000
00000000
00000000
00020000
00000000
00000000
00000000
00000000
01000000
00000000
00000000
00000000
00001000
00000000
00000000
00000000
,
00032000
00000000
00010000
00000100
,
00003200
00000000
00000010
00000001
,
00000301
00000100
00001000
00010000
00001000
00000000
00000000
00000000
,
00010000
00001000
00100000
00010000
,
10000000
00000000
00100000
00000000
10000000
01000000
00010000
00001000
,
00000100
00000001
00000010
00000100
,
00010000
00001000
00100000
00010000
10000000
00100000
01000000
00010000
,
10000000
01000000
00010000
00001000
,
00000100
00000000
00000001
00000000
00000010
00001000
00010000
00100000
,
10000000
01000000
00010000
01000000
,
10000000
00100000
01000000
00001000
00010000
00000100
00000010
00000001
,
00001000
00000000
00000001
00000000
00000000
00000100
00000000
00000000
00001000
00000000
00000000
01000000
00000000
00000000
00010000
00000000
,
00000000
00000000
10000000
00000000
00000000
01000000
00000000
00000000
00010000
00000000
00000000
00000100
00000000
00000000
00001000
00000000
,
00000000
00000000
00000010
00000000
00000000
00000001
00000000
00000000
00000100
00000000
00000000
00001000
00000000
00000000
00010000
00000000
,
00000000
00000000
00100000
00000000
00000000
10000000
00000000
00000000
01000000
00000000
00000000
00010000
00000000
00000000
00001000
00000000
,
00010000
00000000
00010000
00000000
00001000
00000100
00000001
00000000
,
00001000
00000000
00001000
00000000
00000001
00000010
00001000
00000000
,
00010000
00000000
00010000
00000000
00010000
01000000
10000000
00000000
,
10100000
00110000
00001010
00000011
,
00000001
00000010
00001000
00000000
00010000
01000000
10000000
00000000
,
10000000
00100000
00010000
00000000
00000000
00011000
00011000
00000000
,
00010000
00000000
00000000
00000100
00000000
00000000
00000010
00000000
00001000
00000000
00000000
01000000
00000000
00000000
00100000
00000000
,
10000000
10000000
01000000
01000000
00010000
00010000
00001000
00001000
,
00000100
00000000
00000100
00001000
00010000
00000000
00010000
00001000
,
00000000
00000000
01000000
00010000
00001000
00000000
00001000
00010000
,
00000000
01000000
00010000
20000000
00000000
00020000
00000000
00000000
,
00030000
31000000
10000000
00020000
00000000
20000000
00000000
00000000
,
00000000
30030000
00010000
00100000
00001000
00000000
00001000
00020000
,
00000000
00000000
00031000
00000010
00010000
00000000
00010000
00001000
,
00000000
00001000
00000010
00000200
00000000
00000002
00000000
00000000
,
00000000
00000000
00000000
00000000
00000003
00000000
00000000
00000000
00002300
00000000
00000000
00000000
00020000
00000000
00000000
00033000
,
00000000
00000000
00000000
00000000
00001000
00000000
00100000
00010000
,
00100000
01000000
00000000
10000000
00000000
00100000
01000000
00001000
,
00010000
00000100
00000010
00000001
00000000
00000001
00000100
00001000
,
00000000
00001000
00000000
00011000
00000000
00001000
00010000
00001000
,
01000000
01000000
01000000
00000000
01000000
00000000
00010000
10000000
,
01000000
10000000
00000000
10000000
00000000
00100000
01000000
00001000
,
00010000
00000100
00000010
00000001
00000000
00000100
00001000
00010000
,
00000000
01000000
00000000
10000000
00000000
01000000
10000000
00010000
,
01000000
01000000
01000000
00000000
01010000
00000000
01000000
00001000
,
00010000
00000100
00000000
00001000
00000000
00000100
00001000
00000010
,
00000100
00000001
00000010
00001000
00010000
00000000
01000000
10000000
,
00100000
01000000
00010000
00000000
00100000
00000000
00001000
00010000
,
00000100
00001000
00000010
00000100
00000001
00000000
00000010
00000001
,
00000100
00001000
00000000
00010000
00000000
01000000
10000000
00100000
,
10000000
01000000
00100000
00001000
00000000
00010000
00000100
00001000
,
00000010
00000100
00000000
00000001
00000000
00000100
00000001
00000100
,
00001000
00010000
00001000
01000000
00010000
00000000
00000000
00010000
,
00000000
00000000
00100000
00000000
10000000
00000000
00000000
10000000
,
00000000
00000000
00100000
00000000
00001000
00000000
00000000
00001000
,
00000000
00000000
00000010
00000000
00000001
00000000
00000000
00000001
,
00000000
00000000
00000010
00000000
00001000
00010000
00010000
00000000
,
01000000
10000000
01000000
00010000
,
00001000
00000000
00000100
00000000
00000100
00000000
00000000
00000000
00001000
00000000
00010000
00000000
00000000
00001000
00000000
00000000
,
00100000
00000000
00000000
00010000
00000000
00000000
00100000
00000000
00000000
00000000
00000000
00000000
00000000
00000000
00000000
00000000
;

//---------------dance-double - ----------------
#NOTES:
     dance-double:
     :
     Easy:
     4:
     0.282,0.397,0.089,0.080,0.009: // measure 1
00000000
00000000
00000000
00000000
,  // measure 2
00000000
00000000
00000000
00000000
,  // measure 3
00000000
00000000
00000000
00000000
,  // measure 4
00000000
00000000
00000000
00000000
,  // measure 5
00020000
00000000
00000000
00000000
,  // measure 6
02030000
00000000
00000000
00000000
,  // measure 7
03020000
00000000
00000000
00000000
,  // measure 8
00032000
00000000
00003000
00000000
,  // measure 9
00010000
00001000
00010000
00001000
,  // measure 10
01000000
00010000
01000000
00010000
,  // measure 11
10000000
01000000
10000000
01000000
,  // measure 12
10000000
01000000
00100000
00001000
,  // measure 13
00010000
00001000
00010000
00001000
,  // measure 14
00000100
00001000
00000100
00001000
,  // measure 15
00000100
00000001
00000100
00000001
,  // measure 16
00000010
00000100
00001000
00000010
,  // measure 17
00001010
00001000
00000001
00000010
,  // measure 18
00000011
00000001
00000100
00001000
,  // measure 19
00011000
00001000
00100000
00010000
,  // measure 20
10010000
10000000
00100000
01000000
,  // measure 21
00010000
00010000
10000000
10000000
,  // measure 22
01000000
00010000
00001000
00001000
,  // measure 23
00000100
00000100
00000001
00000001
,  // measure 24
00001000
00000001
00000100
00000100
,  // measure 25
00001000
00001000
00010000
00010000
,  // measure 26
01000000
00000000
01000000
00000000
00000000
10000000
10000000
00000000
,  // measure 27
11000000
00010000
00110000
00001000
,  // measure 28
00011000
00001100
00000101
00001001
,  // measure 29
00000001
00000100
00001000
00000100
,  // measure 30
00000001
00000100
00001000
00010000
,  // measure 31
00001000
00000100
00001000
00010000
,  // measure 32
01000000
10000000
00010000
10000000
,  // measure 33
01000000
00010000
01000000
10000000
,  // measure 34
01000000
00010000
00001000
00010000
,  // measure 35
01000000
00010000
00001000
00000100
,  // measure 36
00001000
00000000
00000000
00000000
00010000
00000000
00000000
00000000
00001000
00000000
00000000
00000000
00020000
00000000
00000000
00030000
,  // measure 37
00000000
00000000
00001000
00010000
,  // measure 38
00000100
00001000
00000100
00000001
,  // measure 39
00000100
00001000
00000010
00000010
,  // measure 40
00000100
00000100
00000001
00000010
,  // measure 41
00001000
00010000
01000000
10000000
,  // measure 42
00100000
10000000
01000000
00010000
,  // measure 43
01000000
10000000
00100000
00100000
,  // measure 44
01000000
01000000
00001000
00010000
,  // measure 45
00000100
00000010
00000001
00000100
,  // measure 46
00000010
00000100
00000001
00000010
,  // measure 47
00001000
00010000
01000000
01000000
,  // measure 48
10000000
10000000
00100000
10000000
,  // measure 49
01000000
00100000
00001000
00010000
,  // measure 50
00000100
00001000
00000100
00000010
,  // measure 51
00000100
00001000
00000010
00000010
,  // measure 52
00000100
00000100
00000001
00000010
,  // measure 53
00001000
00010000
02000000
00000000
,  // measure 54
00000000
13000000
00200000
00000000
,  // measure 55
00000000
00310000
00002000
00000000
,  // measure 56
00000000
00003100
00000002
00000000
,  // measure 57
00000000
00000013
00001000
00010000
,  // measure 58
00001000
00010000
01000000
00010000
,  // measure 59
01000000
00000000
00000000
00000000
00010000
00000000
00000000
00000000
00001000
00000000
00010000
00000000
00000000
00001000
00000000
00000000
,  // measure 60
00100000
00000000
00000000
00010000
00000000
00000000
10000000
00000000
00000000
00000000
00000000
00000000
00000000
00000000
00000000
00000000
;
