#TITLE:Longin 4 U;
#SUBTITLE:;
#ARTIST:Jun Kuroda;
#TITLETRANSLIT:;
#SUBTITLETRANSLIT:;
#ARTISTTRANSLIT:;
#GENRE:EDM;
#CREDIT:;
#BANNER:Serene_Riverside.png;
#BACKGROUND:Infinite_Sky.png;
#LYRICSPATH:;
#CDTITLE:;
#MUSIC:Longin_4_U.ogg;
#OFFSET:-0.115000;
#SAMPLESTART:87.925064;
#SAMPLELENGTH:12.000000;
#SELECTABLE:YES;
#DISPLAYBPM:87.000000:174.000000;
#BPMS:0.000000=174.000000
,128.000000=87.000000
,129.500000=174.000000
,130.000000=87.000000
,131.500000=174.000000
,132.000000=261.000000
,133.000000=174.000000
,136.500000=87.000000
,137.500000=174.000000
,138.000000=87.000000
,138.250000=261.000000
,139.000000=174.000000
,140.000000=87.000000
,141.500000=174.000000
,142.000000=87.000000
,143.500000=174.000000
,144.500000=261.000000
,145.000000=87.000000
,146.000000=261.000000
,146.750000=87.000000
,147.000000=174.000000
,147.500000=87.000000
,148.500000=174.000000
,149.000000=87.000000
,149.250000=261.000000
,150.000000=174.000000
,151.000000=87.000000
,152.500000=174.000000
,153.000000=87.000000
,154.500000=174.000000
,156.000000=87.000000
,157.000000=261.000000
,157.750000=87.000000
,158.000000=174.000000
,158.500000=87.000000
,159.500000=174.000000
,160.000000=87.000000
,160.250000=261.000000
,161.000000=174.000000
,162.000000=87.000000
,163.500000=174.000000
,164.000000=87.000000
,165.500000=174.000000
,167.000000=261.000000
,168.250000=174.000000
,223.000000=87.000000
,224.500000=174.000000
,225.000000=87.000000
,225.500000=261.000000
,227.000000=174.000000
,349.000000=261.000000
,353.000000=174.000000
;
#STOPS:132.000000=0.029000,
132.250000=0.029000,
132.500000=0.029000,
132.750000=0.029000,
144.500000=0.029000,
167.000000=0.029000,
167.250000=0.029000,
167.500000=0.029000,
167.750000=0.029000,
168.000000=0.029000,
230.500000=0.230000,
349.000000=0.058000,
349.500000=0.058000,
350.000000=0.058000,
350.500000=0.057000,
351.000000=0.058000,
351.500000=0.058000,
352.000000=0.058000,
352.500000=0.057000
;
#BGCHANGES:;
#KEYSOUNDS:;
#ATTACKS:;

//---------------dance-single - Give Me The Benpai----------------
#NOTES:
     dance-single:
     Give Me The Benpai:
     Easy:
     5:
     0.380518,0.510199,0.093334,0.452313,0.028718,371.000000,358.000000,13.000000,63.000000,40.000000,0.000000,0.380518,0.510199,0.093334,0.452313,0.028718,371.000000,358.000000,13.000000,63.000000,40.000000,0.000000:
0000
0000
0000
0000
,
0000
0000
0000
0000
,
0000
0000
0000
0000
,
0000
M000
0000
00M0
0000
0M00
0000
000M
,
0000
0000
0000
0000
,
0000
0000
0000
0000
,
0000
0000
0000
0000
,
0000
0000
0000
0001
,
0010
0000
0001
0000
0000
1000
0010
0000
,
0100
0000
0001
0000
0010
0100
1000
0000
,
0001
0000
1001
0000
1000
0000
0000
0020
,
0000
0030
1000
0000
0100
0000
0010
0000
,
0001
0000
0011
0000
1000
0010
0100
0000
,
0001
0000
0100
0000
0010
1000
0001
0000
,
0011
0000
0001
0000
1000
0010
0000
1000
,
0000
0000
0000
0000
0000
0000
0002
0000
0000
0003
0100
0000
0001
0000
0000
0000
,
2000
3000
0100
0000
2000
3000
0000
0010
,
0000
0100
0000
0001
0000
0200
0000
0000
,
0300
0000
0001
0000
1000
0000
0010
0100
,
0000
1000
0000
0100
0010
2000
0000
3000
,
0001
0000
0010
0000
0001
0000
0010
0100
,
0000
0100
0000
0010
0000
0001
0000
0020
,
0000
0030
0100
0000
1000
0000
0001
1000
,
0000
0010
0000
0100
0000
0010
0200
0000
,
0301
0000
0001
0100
0002
0000
0003
1000
,
0000
0010
0000
0100
0000
0010
0000
1000
,
0010
0000
0010
1000
0100
0000
0100
0010
,
0000
0010
0000
0001
0010
0001
0000
1000
,
0020
0030
0100
0001
0010
0000
0100
1000
,
0000
0010
0000
0100
0000
0010
1000
0001
,
0000
0001
0010
0001
0100
0000
0010
0100
,
0000
0001
0000
0010
0100
1000
0001
0000
,
0002
0000
0000
0000
0M00
0000
1003
0000
0020
000M
0000
0000
0030
0200
0300
0000
,
0001
0100
0002
0000
0000
0000
1003
0000
,
0100
0000
2000
0000
0000
0000
3000
0000
M002
0M00
00M0
0000
1003
0000
0010
0000
,
0200
0000
0000
0000
M000
0000
0301
0000
2000
0000
0000
0000
3000
0200
0300
0000
,
0000
MM1M
0002
M000
0203
M000
0310
2000
,
000M
3000
2000
0M00
3010
1000
0200
0000
,
M000
0000
0310
0000
0002
0000
0000
0000
M003
0010
0000
0000
0010
0000
0001
0000
,
2000
0M00
3020
M000
0130
0020
0000
003M
,
2000
000M
3100
1000
0002
0000
0000
00M3
,
2000
0000
0000
0000
3000
M200
0300
0000
0020
0000
003M
0000
0001
0000
0010
0000
,
0002
0000
0000
0000
0013
0200
0000
0000
,
0300
0000
0100
0000
0010
0000
0001
1000
,
0001
0002
0003
0010
,
0010
0000
0100
0000
1000
0001
0020
0000
,
0032
0103
0001
0010
,
0000
0100
0000
0000
1000
0000
0001
0000
,
0010
0100
0000
0100
0010
0001
0000
0000
,
0100
1000
0100
0010
,
0000
0000
0100
0010
1000
0200
0000
0000
,
0000
0000
0000
0000
0000
0300
1000
0000
,
0010
0100
0000
0001
0000
2000
0000
0000
,
0000
0000
3000
0001
0010
0001
0100
0000
,
0001
0010
0000
0001
0000
0100
0000
0000
,
0000
1000
0100
0000
0010
1000
M200
0000
,
0000
031M
0002
0000
0000
0000
M003
0100
,
0000
0020
0000
0M30
0000
2M00
0000
0000
,
3100
0020
0000
0000
0000
0000
0030
0100
,
0010
0001
1000
0000
0010
0000
0100
0000
,
0010
1000
0100
0010
,
0001
0010
0001
0000
0100
0010
0000
0010
,
0000
2000
0000
0000
3000
0001
0010
0100
,
0010
0001
0100
0000
0010
0010
0000
1000
,
0000
0010
0000
0000
1000
0000
0001
0000
,
1000
0000
0200
0300
0010
0001
0000
0010
,
0000
0110
0000
0000
1000
0000
0001
0000
,
0010
0100
2000
3000
0010
0100
0000
0010
,
0000
0020
0000
0030
0000
1000
0100
0000
,
0010
0000
0100
0000
0010
0001
0000
1001
,
0000
2001
0000
3000
0001
0000
0010
0000
,
0100
0000
1000
0000
0100
0010
0000
0100
,
0000
1000
0000
0000
0010
0000
0100
0010
,
1000
0000
1001
0000
0110
0000
0001
0010
,
0100
0010
0000
0200
0320
0032
0000
2003
,
0000
3010
0110
0000
0001
0100
0000
0100
,
0001
0010
0000
0010
0000
0000
0010
0001
,
0100
0000
0010
0000
1000
0000
0100
1000
,
0100
2000
0000
0000
0000
3000
0020
0000
,
0000
0030
0200
0000
0000
0000
0300
0000
,
0001
1000
0001
0010
,
0100
0000
1000
0000
1000
0010
0000
1000
,
0000
1001
0000
0000
0001
0000
0010
0000
,
0100
1000
0001
0000
0100
0010
0000
0010
,
0100
0010
0000
1000
0000
0000
0002
0000
,
0013
0000
0001
0000
0100
0001
1000
0010
,
0000
1020
0000
0030
0000
2000
3000
0200
,
0300
0010
0001
0M00
0010
M000
0010
0M00
,
0001
00M0
0100
M000
0001
0010
0001
0100
,
0010
0000
1001
0000
0110
0000
1000
0010
,
0100
0002
0000
0003
0000
0010
0000
0001
,
0000
0010
0200
0000
0000
0000
0000
0000
,
0000
0000
0000
0000
,
0300
0000
0000
0000
,
0000
0000
0000
0000
0000
0000
0000
0000
0000
0000
0000
0000
0000
0000
0000
M000
0M00
00M0
000M
0000
0000
0000
0000
0000
;

//---------------dance-single - Give Me The Benpai----------------
#NOTES:
     dance-single:
     Give Me The Benpai:
     Medium:
     9:
     0.582571,0.782304,0.193849,0.358979,0.218977,568.000000,541.000000,27.000000,50.000000,53.000000,0.000000,0.582571,0.782304,0.193849,0.358979,0.218977,568.000000,541.000000,27.000000,50.000000,53.000000,0.000000:
0000
0000
0000
0000
,
0000
0000
0000
0000
,
0000
0000
0000
0000
,
0000
M000
000M
00M0
0M00
00M0
000M
M000
,
00M0
0000
0000
0000
,
0000
0000
0000
0000
,
0000
0000
0000
0000
,
0000
0000
0000
0000
0000
0000
0001
1000
0001
0000
1000
0000
0100
0000
0010
0000
,
0001
0000
0101
0000
0000
1000
1010
0010
,
0100
0000
0001
0010
0001
0000
1000
0000
0010
0000
0100
0000
1000
0000
0100
0000
,
0001
0000
0000
0000
1001
0000
1000
0100
0010
0000
0001
0000
0000
0000
0001
0000
,
0000
0000
0010
0100
1000
0100
0010
0000
,
0001
0000
0000
0000
0011
0000
1000
0100
1000
0000
0010
0000
0100
0000
0001
0000
,
0001
0000
0010
0000
0100
0000
0100
0000
0010
0001
0010
0000
0001
0000
0000
0000
,
1010
0000
0001
0100
0001
0000
1000
0100
1000
0000
0001
0000
0100
0000
0001
0000
,
0000
0000
0000
0000
0000
0000
0002
0000
0000
0013
0100
1000
0100
0010
0001
0100
,
0002
0003
0100
0100
0002
0003
0000
1000
,
0000
0000
0100
0000
0000
0000
0001
0000
0000
0000
0100
0000
0000
0000
0010
0001
,
0020
0030
0001
0000
1000
0000
0010
0100
,
0000
1000
0000
0100
0010
1000
0000
0010
,
1000
0000
0001
1000
0001
0000
0010
0100
,
0000
0100
0000
0010
0000
0001
1000
0020
,
0000
0030
0100
0010
0100
0000
0001
0001
,
0000
0010
0000
0001
0000
1000
0200
0000
,
1300
1000
0001
0100
0100
0010
1000
1000
,
0100
0000
0010
0000
0010
0000
0001
0000
0100
0000
0100
0000
0010
0000
1000
0100
,
1000
0100
0010
0010
0001
0100
0100
0001
,
0010
0010
0100
0010
0010
0001
1000
0001
,
1000
0100
0100
1000
0010
0010
0100
0001
,
0001
0010
0100
0100
0001
0100
0100
0010
,
0001
0001
0010
0001
0100
0010
1000
0100
,
0010
0000
0001
0000
1000
0000
0010
0000
0100
0000
0001
0000
1000
0000
0100
0010
,
0002
0000
0000
0000
0M00
0000
1003
0000
1020
000M
0000
0000
0030
0200
0300
0000
,
0001
0100
0002
0000
0000
0000
1003
0000
,
0010
0000
2010
0000
0000
0000
3000
0000
M002
0M00
00M0
0000
1003
0000
0100
0010
,
0200
0000
0000
0000
M000
0000
1300
0000
2001
0000
0000
0000
3000
0200
0300
0000
,
0000
MM1M
0002
M000
0203
M000
0310
2010
,
000M
0000
3000
0000
4000
0000
0M00
0000
3010
0000
0100
0001
0200
0000
0000
0000
,
M000
0000
0310
0000
2010
0000
0000
0000
300M
0010
0000
0000
0010
0000
1000
0000
,
0002
0M00
0023
M000
0031
0200
0000
030M
,
1040
0000
000M
0000
0130
0000
0001
1000
0002
0000
0000
0000
0000
0000
00M3
0000
,
2000
0000
0000
0000
3000
M200
0300
0000
0020
0000
003M
0000
0001
0000
0010
0100
,
2000
0000
0000
0000
0000
0000
0000
0000
3010
0000
0100
0000
0010
0000
1000
0010
,
0100
0000
0001
0010
0100
0000
1000
0000
0010
0100
0010
0000
0100
0000
0001
0000
,
1000
0000
0002
0000
0003
0000
0010
1000
,
0010
0000
0000
0000
0100
0000
0000
0000
1000
0000
0001
0010
0002
0000
0000
0000
,
2003
3010
0001
0010
,
0000
0100
0000
0000
0001
0000
0010
0000
,
1000
0010
0000
0100
0010
0001
0000
0000
,
0100
1000
0100
0010
,
0000
0000
0100
0010
1000
0200
0000
0000
,
0000
0000
0300
0010
0001
1000
1000
0010
,
1000
0000
0100
0010
0100
0000
1000
0000
0001
0000
0100
0000
0001
0000
0010
0000
,
0001
0000
1000
0010
0100
0000
0001
0000
0010
0000
0001
0000
0100
0000
0010
0000
,
0100
1000
0100
0001
1000
0100
0001
0100
,
0010
0000
0001
1000
0010
0000
1000
0000
1000
0100
0010
0001
M200
0000
0000
0000
,
0000
031M
2000
0000
0000
0000
300M
0100
,
0000
2000
0000
3M00
0000
MM21
0000
0000
,
0130
2100
0000
0000
0000
3000
0000
1000
,
0010
0100
0010
0100
0110
0000
0000
0001
,
0101
0000
0000
0000
1000
0000
0100
0000
0010
0000
0100
0000
1000
0010
0100
0000
,
0001
0001
0010
0001
0010
0100
0000
0010
,
0000
0000
0001
0000
1000
0000
0010
0000
0100
0000
0010
0100
0001
0000
0010
0100
,
1000
0001
0100
0000
0010
0010
0000
1000
,
0000
0010
0000
0000
1000
0100
0001
0100
,
1000
0000
0010
0000
0200
0000
0300
0000
0010
0000
1000
0001
0010
0000
0011
0000
,
0000
0110
0000
0100
1000
0010
1000
0100
,
0010
0001
0100
0000
0002
0000
0003
0000
0010
0000
0010
0000
0000
0000
0100
0000
,
0000
0200
0000
0300
0000
1000
0010
1000
,
0100
0000
0010
0000
0001
0000
0100
0000
0010
1000
0010
0000
1000
0000
1001
0000
,
0000
0021
0000
0130
1000
0000
0010
0000
,
0100
0010
1000
0000
0100
0001
0000
0100
,
0000
0010
0000
0010
0001
0000
0100
0010
,
1000
0000
0000
0000
1001
0000
1000
0100
1000
0000
0001
0100
0001
0000
0100
0010
,
0100
0110
0000
0200
0320
2030
0000
3002
,
0000
0013
0011
0000
1000
0100
0000
0100
,
1000
0000
0010
0000
0000
0000
1000
0100
0010
0000
0000
0000
0010
0001
0010
0000
,
0100
0010
0001
1000
0001
0100
0010
1000
,
0100
0000
2000
0000
3000
0000
0001
0010
0001
0000
1000
0000
0010
0000
1000
0100
,
0010
0000
0100
0000
0010
0000
0001
0100
0010
0000
1000
0000
0010
0000
0100
0000
,
1000
0100
0001
0010
0001
0100
0010
1000
,
1000
0010
1000
0100
1000
0010
0010
1010
,
0000
0000
1001
0000
0000
0000
0001
0100
0000
0001
0100
0000
0010
0000
1000
0000
,
0100
0010
0001
0000
1000
0000
0000
0000
0100
0000
0010
0000
0000
0000
0010
0000
,
0100
0000
0100
0000
0000
0000
0100
1000
0010
0000
1000
0000
0002
0000
0000
0000
,
0013
0000
0000
0000
0001
0000
0000
0000
0100
0010
0100
0000
0001
0000
0101
0000
,
0000
0021
0000
0030
0000
1000
0000
0100
,
0000
0010
0001
0100
0010
1000
0010
0100
,
0001
0000
0010
0000
0100
0000
1000
0001
1000
0000
0010
0100
0001
0000
0100
0010
,
1000
0000
0001
0000
1001
0000
0001
0100
0001
0000
0010
0100
0010
0000
0001
0000
,
1000
0200
0000
0300
0000
0010
0000
0001
,
0000
0010
0200
0000
0000
0000
0000
0000
,
0000
0000
0000
0000
,
0300
0000
0000
0000
M00M
0000
00M0
0M00
0MM0
0000
000M
M000
M00M
0000
0M00
0000
,
00M0
0000
0000
0M00
0000
0000
0000
0000
0000
0000
0000
0000
0000
0000
0000
M000
0M00
00M0
000M
0000
0000
0000
0000
0000
;

//---------------dance-single - Give Me The Benpai----------------
#NOTES:
     dance-single:
     Give Me The Benpai:
     Hard:
     12:
     0.801036,1.156450,0.258465,0.308722,0.782574,781.000000,745.000000,36.000000,43.000000,59.000000,0.000000,0.801036,1.156450,0.258465,0.308722,0.782574,781.000000,745.000000,36.000000,43.000000,59.000000,0.000000:
// measure 0
0000
0000
0000
0000
,  // measure 1
0000
0000
0000
0000
,  // measure 2
0000
0000
0000
0000
,  // measure 3
0000
M000
000M
00M0
0M00
00M0
000M
M000
,  // measure 4
00M0
0000
0000
0000
,  // measure 5
0000
0000
0000
0000
,  // measure 6
0000
0000
0000
0000
,  // measure 7
0000
0000
0000
0000
0000
0000
1000
0001
1000
0000
0001
1000
0100
0010
0001
1000
,  // measure 8
0001
0000
0000
0000
0101
0000
0100
0000
0000
0000
0010
0000
1010
0000
1000
0010
,  // measure 9
0100
0001
0010
0100
0010
0001
1000
0001
0100
0001
0010
0100
1000
000M
00M0
0M00
,  // measure 10
0001
0000
0000
0000
1010
0000
1000
0100
0110
0000
0110
0000
0000
0000
1000
0000
,  // measure 11
0001
0100
0010
0100
1000
0100
0010
0000
,  // measure 12
1000
0000
0000
0000
1100
0000
0100
1000
0010
0100
0001
0000
0101
0000
0001
0010
,  // measure 13
0001
1000
0010
1000
0100
0010
0100
1000
0010
0100
0001
0010
M001
0M00
00M0
0000
,  // measure 14
1010
0000
0010
0100
0010
0000
1000
0100
1000
0000
0001
0000
0100
0000
0001
0000
,  // measure 15
0000
0000
0000
0000
0000
0000
2000
0000
0000
3100
0010
0001
0010
0100
1000
0010
,  // measure 16
2000
3000
0100
0100
0010
0100
1000
0010
,  // measure 17
0010
0000
0100
0000
0001
0000
0001
0000
0010
0000
0001
0000
0100
0000
0010
1000
,  // measure 18
0010
1000
0001
0001
1000
0100
0100
0010
,  // measure 19
0001
1000
1000
0010
1000
0010
0010
0100
,  // measure 20
0001
0010
0001
1000
0010
0010
1000
0100
,  // measure 21
0100
0010
0100
1000
1000
0001
1000
0100
,  // measure 22
0010
0001
0010
0010
0100
0100
0010
0001
,  // measure 23
0100
0000
0001
0000
0001
0000
1000
0000
1000
0000
0010
0100
0010
1000
0100
0010
,  // measure 24
0001
0001
0001
0100
0010
0010
0100
0001
,  // measure 25
0010
0000
0100
0000
0100
0000
1000
0000
0010
0000
0010
0000
1000
0000
0001
1000
,  // measure 26
0001
0100
0100
0010
1000
1000
0100
0010
,  // measure 27
0010
0001
0100
0001
0010
0010
0001
0100
,  // measure 28
0010
1000
1000
0100
0010
0010
0100
1000
,  // measure 29
1000
0001
0100
0100
0001
0010
0010
0100
,  // measure 30
1000
1000
0010
1000
0001
0100
0001
0010
,  // measure 31
0100
0000
0010
0000
0001
0000
1000
0000
0001
0000
0100
0000
0001
1000
0100
0010
,  // measure 32
0002
0000
0000
0000
0M00
0000
1003
0000
1020
000M
0000
0000
0030
0200
0300
0000
,  // measure 33
0001
0010
0100
0010
0002
0000
0000
0000
0000
0000
0000
0000
1003
0000
0000
0000
,  // measure 34
0010
0000
2010
0000
0000
0000
3000
0000
M002
0M00
00M0
0000
1003
0100
1000
0010
,  // measure 35
0200
0000
0000
0000
M000
0000
0301
0000
2001
0000
0000
0000
3000
0200
0300
0000
,  // measure 36
0000
MM1M
0002
M000
0203
M000
0310
2010
,  // measure 37
000M
0000
3000
0000
4000
0000
0M00
0000
3010
1000
0001
0010
0002
0000
0000
0000
,  // measure 38
M000
0000
1003
0000
2010
0000
0000
0000
300M
0010
1000
0100
0010
0001
1000
0000
,  // measure 39
0002
0M00
0023
M000
0031
0200
0000
030M
,  // measure 40
1040
0000
000M
0000
0130
0010
1000
0100
2000
0000
0000
0000
0000
0000
00M0
0000
,  // measure 41
3002
0000
0000
0000
0003
M200
0300
0000
0020
0000
003M
0000
1000
0100
0010
0100
,  // measure 42
2000
0000
0000
0000
0000
0000
0000
0000
3010
0000
0100
0000
0010
1000
0000
0010
,  // measure 43
0100
0000
0000
0000
0000
0000
0001
0000
0000
0010
0000
0000
0100
0000
0000
1000
0000
0000
0001
0000
0000
0000
0000
0000
0010
0000
0001
0000
0010
0000
0100
0000
1000
0000
0010
0000
0100
0000
0000
0000
0000
0000
0001
0000
0000
0000
0000
0000
,  // measure 44
1000
0000
0002
0000
0003
0000
0010
1000
,  // measure 45
0010
0000
0000
0000
0100
0000
0000
0000
1000
0000
0001
0010
0002
0000
0000
0000
,  // measure 46
2003
3010
0001
0010
,  // measure 47
0000
0100
0000
0000
0001
0000
0010
0000
,  // measure 48
1000
0010
0000
0100
0010
0001
0000
0000
,  // measure 49
0100
1000
0100
0010
,  // measure 50
0000
0000
0100
0010
1000
0200
0000
0000
,  // measure 51
0000
0000
0300
0010
0001
1000
1000
0010
,  // measure 52
1000
0000
0100
0010
0100
0000
1100
0000
1000
0000
0010
0100
0001
0000
0010
0000
,  // measure 53
0011
0000
1000
0010
0100
0000
1010
0000
1000
0100
0010
0000
0100
0000
0010
0000
,  // measure 54
0100
0000
1000
0000
0001
0000
1000
0000
0001
1000
0100
0010
0001
0000
0100
0000
,  // measure 55
0010
0000
0010
0100
0001
1000
0000
0000
1000
0100
0010
0001
M200
0000
0000
0000
,  // measure 56
0000
031M
2000
0000
0000
0000
300M
0100
,  // measure 57
0000
2000
0000
3M00
0000
MM21
0000
0000
,  // measure 58
0130
2100
0000
0000
0000
3000
0000
1000
,  // measure 59
0010
0000
0100
0000
0010
1000
0100
0010
0001
0010
0001
0100
0010
0100
0001
1000
,  // measure 60
0100
0010
0001
0100
0010
1000
0100
0010
0100
1000
0001
0100
0001
0010
0100
0010
,  // measure 61
0001
1000
0001
1000
0010
0100
0010
1000
0100
0010
0100
1000
0001
0100
0001
0010
,  // measure 62
0100
1000
0100
1000
0010
0100
0001
0100
0001
0010
0100
0010
0001
1000
0100
1000
,  // measure 63
0001
0010
0001
0010
0100
0010
0001
1000
0010
0100
0010
1000
0100
0010
0100
1000
,  // measure 64
0001
1000
0010
0100
0001
0010
0001
0100
0001
0010
0100
0010
0001
1000
0010
1000
,  // measure 65
0100
0000
0100
0000
1000
0010
0100
0001
0010
0001
1000
0000
0010
0000
1010
0000
,  // measure 66
0000
0000
0110
0000
0000
0000
0100
0000
0001
0000
0010
0001
0100
0001
0010
0100
,  // measure 67
1000
0010
0100
0001
1000
0001
0100
0001
0010
0100
0010
0100
1000
0010
1000
0100
,  // measure 68
0010
0001
0010
0100
1000
0001
0010
0001
1000
0010
1000
0100
0010
0100
1000
0001
,  // measure 69
1000
0100
0010
0001
1000
0010
0100
0001
0010
0100
0010
0001
1000
0000
1001
0000
,  // measure 70
0000
0041
0000
0130
0100
1000
0010
1000
,  // measure 71
0001
0000
0010
0000
0001
0010
0001
0010
0100
1000
0100
1000
0010
0100
0001
1000
,  // measure 72
0010
0100
0001
0010
0001
1000
0010
1000
0001
0100
0001
1000
0100
1000
0010
0100
,  // measure 73
0001
0000
0000
0000
1001
0000
1000
0100
1100
0000
0001
0100
0101
0000
0001
0010
,  // measure 74
0100
2100
3000
0200
0320
0032
0000
2003
,  // measure 75
0000
3010
1010
0000
1000
0100
0000
0100
,  // measure 76
1000
0000
0000
0000
0000
0000
0010
0000
0000
0000
0000
0000
0000
0000
0000
0000
0000
0000
0010
0000
0100
0000
0001
0000
0010
0000
0000
0000
0000
0000
0000
0000
0000
0000
0000
0000
0010
0000
0000
0001
0000
0000
0010
0000
0000
0000
0000
0000
,  // measure 77
0100
0010
0001
1000
0101
0100
0010
1000
,  // measure 78
0100
0000
0000
0000
0000
0000
2000
0000
0000
0000
0000
0000
3000
0000
0000
0000
0000
0000
0001
0000
0010
0000
0100
0000
1000
0000
0000
0010
0000
0000
0100
0000
0000
0001
0000
0000
0010
0000
0000
0001
0000
0000
1000
0000
0000
0100
0000
0000
,  // measure 79
0010
0100
1000
0001
0100
0010
1000
0100
0010
0001
1000
0100
0010
0001
0100
0001
,  // measure 80
1000
0001
0100
0010
0100
0001
0010
0100
0010
0001
0010
0100
0010
0001
1000
0010
,  // measure 81
1000
0100
0010
0100
1000
0010
0100
0010
1000
0100
0010
0100
0010
0001
0011
0000
,  // measure 82
0000
0000
1001
0000
1000
0000
0001
0100
0000
0001
0100
0000
0010
0100
0010
1000
,  // measure 83
0100
0010
0001
1000
0001
0000
0000
0000
0100
0000
0010
0000
0000
0000
0010
0000
,  // measure 84
1000
0000
0100
0000
0000
0000
0100
1000
0010
0000
1000
0000
0002
0000
0000
0000
,  // measure 85
0013
0000
0000
0000
0001
0000
0000
0000
0100
0010
0100
0000
0001
0000
0101
0000
,  // measure 86
0000
0021
0000
0030
0000
1000
0000
0100
,  // measure 87
0000
0010
0001
0100
0010
1000
0010
0100
,  // measure 88
0001
0000
0010
0000
0100
0010
0001
1000
0001
0100
0010
0100
0001
1000
0100
0010
,  // measure 89
0001
1000
0001
0000
1001
0000
0001
0100
0101
0000
0010
0100
0110
0000
0010
0000
,  // measure 90
1000
0200
0000
0300
0000
0010
0000
0001
,  // measure 91
0000
0010
0200
0000
0000
0000
0000
0000
,  // measure 92
0000
0000
0000
0000
,  // measure 93
0300
0000
0000
0000
M00M
0000
00M0
0M00
0MM0
0000
000M
M000
M00M
0000
0M00
0000
,  // measure 94
00M0
0000
0000
0M00
0000
0000
0000
0000
0000
0000
0000
0000
0000
0000
0000
M000
0M00
00M0
000M
0000
0000
0000
0000
0000
;
