#TITLE:Llanfairpwllgwyngyllgogerychwyrndrobwllllantysiliogogogoch;
#SUBTITLE:;
#ARTIST:Lorraine King;
#TITLETRANSLIT:;
#SUBTITLETRANSLIT:;
#ARTISTTRANSLIT:;
#GENRE:;
#CREDIT:;
#BANNER:;
#BACKGROUND:Llanfairpwllgwyngyllgogerychwyrndrobwllllantysiliogogogoch background.png;
#LYRICSPATH:;
#CDTITLE:;
#MUSIC:Llanfairpwllgwyngyll.ogg;
#OFFSET:-0.385000;
#SAMPLESTART:52.081001;
#SAMPLELENGTH:16.000000;
#SELECTABLE:YES;
#BPMS:0.000000=100.000000
;
#STOPS:
;
#BGCHANGES:;
#KEYSOUNDS:;
#ATTACKS:;

//---------------dance-single - 7+(Braeden)----------------
#NOTES:
     dance-single:
     :
     Challenge:
     7:
     0.296142,0.438609,0.032391,0.181387,0.116606,320.000000,315.000000,5.000000,28.000000,42.000000,0.000000,0.296142,0.438609,0.032391,0.181387,0.116606,320.000000,315.000000,5.000000,28.000000,42.000000,0.000000:
0000
0000
0000
0000
,
0001
0000
0010
0000
0001
0000
0010
0001
0000
0000
0001
0000
1000
0000
0001
0000
,
0100
0010
1000
0010
0101
0000
0000
0001
,
0010
0000
0001
0000
0010
0000
0001
0000
1000
0001
1000
0001
1000
0000
0010
0100
,
0010
1000
0001
0010
0011
0000
0000
1000
,
0100
0000
0000
0010
0001
0000
0000
0000
0001
0000
0100
0000
0010
0000
1000
0010
,
0100
0000
0001
0000
0010
0001
0100
0000
0020
0000
0000
0000
0030
0000
1000
0001
,
0010
0000
0010
0100
1000
0000
0001
0000
0100
0000
0010
1000
0000
0000
0010
0000
,
0100
0001
0010
0001
0010
0000
0001
1000
,
0004
0003
0M00
M000
000M
0000
1000
0010
,
4000
3000
00M0
00M0
M000
0000
1000
0001
,
0200
0320
2030
3002
,
0043
0000
0130
1000
0100
0000
0010
0001
,
0020
0000
0000
0000
0030
0000
0000
0000
0000
0000
0100
0010
0000
0000
0001
0000
,
0100
0000
0010
1000
0010
0100
0001
0010
,
0001
0001
0000
0000
000M
000M
0000
1000
,
0100
1000
0000
M000
0M00
M000
0000
0001
,
0010
0040
0030
M000
0M00
M000
0000
0001
,
0400
0000
0310
0000
0000
0000
000M
0000
M000
0000
00M0
0000
0000
0000
0100
0001
,
0100
0000
0010
0000
0000
0000
M000
000M
M000
0000
00M0
0000
0100
0000
0100
0000
,
0002
1000
1000
1000
0203
0000
0320
0000
,
0000
0000
1030
0001
0020
0000
0230
0000
,
0000
0300
0000
0000
0000
0000
0000
0000
0000
0000
0000
0000
0000
0000
0000
0000
0000
0000
0000
0000
0000
0000
0000
0000
0000
0000
0000
0000
0000
0000
0000
0000
0000
0000
0000
0000
0000
0000
0000
0000
0000
0000
0000
0000
0000
0000
0000
0000
0000
0000
0000
0000
0000
0000
0000
0000
0000
0000
0000
0000
1000
0000
0000
0000
0000
0000
0000
0000
0000
0000
0000
0000
0000
0000
0000
0000
0000
0000
0000
0000
0000
0000
0000
0000
1000
0000
0000
0000
0000
0000
0000
0000
0000
0000
0000
0000
0001
0000
0000
0000
0000
0000
0000
0000
0000
0000
0000
0000
0000
0000
0000
0000
0000
0000
0000
0000
0000
0000
0000
0000
0100
0000
0000
0000
0000
0000
0000
0000
0000
0000
0000
0000
0000
0000
0000
0000
0000
0000
0000
0000
0000
0000
0000
0000
0010
0000
0000
0000
0000
0000
0000
0000
0000
0000
0000
0000
0000
0000
0000
0000
0000
0000
0000
0000
0000
0000
0000
0000
1000
0000
0000
0000
0000
0000
0000
0000
0000
0000
0000
0000
0000
0000
0000
0000
0000
0000
0000
0000
0000
0000
0000
0000
,
0001
0000
0000
0010
0000
0000
0100
0000
1000
0000
0010
0000
0100
0000
0001
0100
,
0010
1000
0001
0010
0200
0000
2300
0000
,
3001
0100
0010
1000
0002
0000
0023
0000
,
0130
0000
1000
0000
0001
0000
0010
0000
0100
0000
1000
0200
0000
0000
0000
0000
,
0310
0000
0000
0010
0000
0100
0000
1000
0001
0000
0000
0000
0001
0010
0001
0010
,
0001
0000
0010
0000
0100
0000
1000
0001
0100
0010
0100
0000
0001
0000
1000
0100
,
0010
0000
0001
0000
0010
0000
0100
1000
0100
0000
0010
0000
0001
0000
0010
0000
,
0011
0000
0000
0000
0000
0000
0001
0100
0001
0000
0100
0000
0010
0000
0001
0000
,
0010
0000
0100
0000
0001
0000
0000
0100
0010
0000
1000
0000
0004
0000
0003
1000
,
0010
0000
0100
0001
0010
0010
0001
0100
,
0010
0000
1000
0000
0001
0000
0000
1000
0100
0000
0010
0000
0001
0000
0100
0000
,
0101
0000
0000
0000
0000
0000
0010
0000
1000
0000
0001
0000
0100
0000
0010
1000
,
0010
0100
0001
0010
0001
0100
0010
1000
,
0001
0000
1000
0100
4000
3000
000M
00M0
,
000M
0000
1000
0100
4000
3000
000M
00M0
,
000M
0000
1000
0010
0200
0000
0302
0000
,
2003
3020
0430
0300
,
0000
0000
1000
0001
1000
0000
0000
0000
,
0000
0010
0100
0001
1000
0000
0001
0100
,
0001
0000
0000
0000
1000
1000
0000
0000
,
M000
M000
0000
0001
0100
0001
0000
M000
,
000M
0M00
0000
0010
1000
0010
0000
M000
,
00M0
M000
0000
0001
0040
0031
0000
000M
,
M000
0000
000M
0000
0000
0000
1000
0100
1000
0000
0100
0000
0000
0000
M000
000M
,
0M00
0M00
0001
0001
0004
0003
1000
0010
,
4000
3000
0010
0010
0040
0030
0100
0001
,
0400
0300
1000
0001
0200
0000
0320
0000
,
2030
3200
0304
0003
,
0000
0001
1000
0010
0200
0000
0000
0000
,
0000
0301
0010
0100
2000
0000
0000
0000
,
3001
0000
0010
0000
0100
0100
0000
1000
,
1000
0010
0010
0100
0100
0002
0003
0010
,
0010
0000
0200
0000
0300
0000
1000
0001
0100
0000
0010
0000
1000
0000
0001
0000
,
0040
0000
0000
0000
,
0030
0000
0100
0000
1001
0000
0000
0000
0000
0000
0040
0400
0000
0000
0000
0000
,
0000
0000
0000
0000
0000
0000
0000
0330
;

//---------------dance-single - 8(Braeden)----------------
#NOTES:
     dance-single:
     :
     Hard:
     8:
     0.359998,0.439540,0.032391,0.136040,0.119845,389.000000,384.000000,5.000000,21.000000,0.000000,0.000000,0.359998,0.439540,0.032391,0.136040,0.119845,389.000000,384.000000,5.000000,21.000000,0.000000,0.000000:
0000
0000
0000
0000
,
0001
0000
0010
0000
0001
0000
0010
0001
0010
0000
0100
0000
1000
0000
0100
0000
,
0010
0001
0010
0100
0110
0000
0000
0001
,
0010
0000
0001
0000
0010
0000
0001
0000
1000
0001
1000
0001
1000
0000
0010
0100
,
0010
0000
1000
0000
0001
0000
0010
0000
0001
0100
0010
1000
0001
0000
1000
0000
,
0100
0000
0010
0001
0010
0000
0000
0000
0001
0000
0100
0000
0010
0000
1000
0010
,
0100
0000
0001
0000
0010
0001
0100
0000
0010
0000
0010
0000
0010
0000
1000
0001
,
0010
0000
0010
0100
1000
0000
0001
0000
0100
0000
0010
1000
0000
0000
0010
0000
,
0100
0001
0010
0001
0010
0000
0001
1000
,
0004
0003
0100
1000
0001
0000
1000
0010
,
4000
3000
0010
0010
1000
0000
1000
0001
,
0200
0320
2030
3002
,
0043
0000
0130
1000
0100
0000
0010
0001
,
0020
0000
0000
0000
0030
0000
0000
0000
0000
0000
0100
0010
0000
0000
0001
0000
,
0100
0000
0010
1000
0010
0100
0001
0010
,
0001
0001
0000
0000
0001
0001
0000
1000
,
0100
1000
0000
0100
1000
0100
0000
0001
,
0010
0040
0030
0100
1000
0400
0300
0010
,
0004
0000
0013
0000
0000
0000
0001
0000
0400
0000
0310
0000
0000
0000
0100
0001
,
0100
0000
0010
0000
0000
0000
1000
0001
1000
0000
0100
0000
0010
0000
0010
0000
,
0002
1000
1000
1000
0103
0010
0100
1000
,
0001
1000
0001
0010
0400
1000
0000
0010
,
0300
0000
1000
0000
0001
1000
0000
1000
0001
0000
0100
0000
0010
0000
1000
0000
,
0001
0000
0000
0010
0000
0000
0100
0000
1000
0000
0010
0000
0100
0000
0001
0100
,
0010
1000
0001
0010
0400
0000
0000
0000
,
0301
0100
0010
1000
0004
0000
0043
0000
,
0130
0000
1000
0000
0001
0000
0010
0000
0100
0000
1000
0200
0000
0000
0000
0000
,
0310
0000
0000
0010
0000
0100
0000
1000
0001
0000
0000
0000
0001
0010
0001
0010
,
0001
0000
0010
0000
0100
0000
1000
0001
0100
0010
0100
0000
0001
0000
1000
0100
,
0010
0000
0001
0000
0010
0000
0100
1000
0100
0000
0010
0000
0001
0000
0010
0000
,
0011
0000
0001
0000
0100
0000
1000
0100
0010
0000
0001
0000
0010
0000
0100
0000
,
0010
0000
0100
0000
1000
0000
0010
0100
0010
0000
1000
0000
0004
0000
0003
1000
,
0010
0010
0100
0001
0010
0010
0001
0100
,
0010
0000
1000
0000
0001
0000
1000
0100
1000
0000
0010
0000
0010
0000
0100
0000
,
0101
0000
0001
0000
1000
0000
0010
0000
1000
0000
0001
0000
0100
0000
0010
1000
,
0010
0100
0001
0010
0001
0100
0010
1000
,
0001
0000
1000
0100
4000
3000
0001
0010
,
0004
0003
1000
0100
4000
3000
0001
0010
,
0004
0003
1000
0010
0200
0000
0302
0000
,
2003
3020
0430
0300
,
1000
0001
1000
0001
1000
0001
0100
0010
,
1000
0010
0100
0001
1000
0001
0100
0001
,
0100
0000
0000
0000
0010
0010
0000
0000
,
1000
1000
0000
0001
0100
0001
0000
1000
,
0001
0100
0000
0010
1000
0010
0000
1000
,
0010
1000
0000
0001
0040
0031
0000
0001
,
4000
0000
3001
0000
0000
0000
1000
0100
1000
0000
0100
0000
0000
0000
1000
0001
,
0100
0100
0001
0001
0004
0003
1000
0010
,
4000
3000
0010
0010
0040
0030
0100
0001
,
0400
0300
1000
0001
0200
0000
0320
0000
,
2030
3200
0304
0003
,
0000
0001
1000
0010
0200
0000
0000
0000
,
0000
0301
0010
0100
2000
0000
0000
0000
,
3001
0000
0010
0000
0100
0100
0000
1000
,
1000
0010
0010
0100
0100
0002
0003
0010
,
0010
0000
0200
0000
0300
0000
1000
0001
0100
0000
0010
0000
1000
0000
0001
0000
,
0040
0000
0000
0000
,
0030
0100
1001
0000
0000
0220
0000
0000
,
0000
0000
0000
0000
,
0330
0000
0000
0000
;

//---------------dance-single - 8(Braeden)----------------
#NOTES:
     dance-single:
     :
     Medium:
     6:
     0.285037,0.323501,0.032391,0.012956,0.000000,308.000000,303.000000,5.000000,2.000000,0.000000,0.000000,0.285037,0.323501,0.032391,0.012956,0.000000,308.000000,303.000000,5.000000,2.000000,0.000000,0.000000:
0000
0000
0000
0000
,
0000
0000
1000
0010
,
0100
0000
0001
0100
0001
0000
1000
0000
,
0010
0000
0100
0000
0001
0010
0001
0000
,
0100
0010
1000
0010
0100
0000
0001
0000
,
0010
0001
0010
0000
0001
0000
1000
0000
,
0010
0100
0001
0010
0001
0000
0000
0000
,
0100
0000
0010
0000
1000
0001
0100
0000
,
0010
1000
0001
0100
0010
0000
1000
1000
,
1000
0000
0001
0001
0001
0000
0100
0100
,
0100
0000
0010
0010
0010
0000
1000
0001
,
0100
0010
1000
0001
,
0010
0000
0100
0000
1000
0000
0001
0100
,
0001
0010
0100
1000
,
0001
0100
0010
1000
,
0001
0001
0000
0100
0100
0100
0000
0010
,
0010
1000
0000
0010
0010
1000
0000
0001
,
0001
0100
0000
0010
0010
1000
0000
0001
,
0010
0001
0000
1000
0100
1000
0000
0001
,
1000
0001
0000
1000
0001
1000
0010
0010
,
0010
0000
0100
0001
,
0010
0000
0100
1000
0100
0000
0010
0000
,
0001
0000
0100
0000
0010
1000
0010
0100
,
0001
0000
0000
0000
0010
0100
1000
0100
,
0010
0000
0001
1000
,
0010
0000
0100
0001
0100
0000
0010
0000
,
1000
0001
0100
0001
,
0010
0001
0100
0001
,
0010
0000
0001
0000
1000
0100
1000
0100
,
0010
0000
0001
0000
0100
0010
1000
0001
,
0100
0000
0001
0000
0010
0100
0010
0100
,
1000
0001
0100
0000
0000
0000
0010
0000
,
1000
0000
0001
0000
0100
0010
1000
0000
,
0001
0010
0001
0000
1000
0010
0100
0001
,
0010
0000
0001
0000
1000
0001
0100
0000
,
0010
1000
0001
0000
0010
0010
0001
0001
,
1000
0000
0100
0100
0010
0000
0001
0001
,
0100
0000
0010
0010
1000
0000
0001
0001
,
0100
0000
0010
1000
0001
0000
0100
0000
,
0010
1000
1100
0100
,
0010
0000
0001
0100
0001
0000
1000
0000
,
0010
0000
0100
0001
0010
0000
0001
0000
,
0100
0000
0010
0000
1000
1000
0000
0000
,
0100
0100
0000
0001
0100
1000
0000
1000
,
0010
0001
0000
0001
0010
1000
0000
1000
,
0100
0001
0000
0001
0100
1000
0000
1000
,
0010
0100
0000
0001
0100
0001
0000
1000
,
0010
0100
0001
0001
0010
0000
0100
0100
,
1000
0000
0001
0001
0100
0000
0010
0010
,
1000
0000
0001
0010
0001
0000
1000
0000
,
0110
0000
1001
0000
0110
0000
0001
0010
,
0001
0000
1000
0100
0010
0000
0001
0000
,
1000
0000
0100
0010
0100
0000
0010
0000
,
0001
0000
1000
0000
0001
0100
0001
0100
,
0001
1000
0001
1000
0001
0010
0001
0010
,
0001
1000
0001
1000
0001
0100
0001
0010
,
0001
1000
0001
0100
,
0001
0010
0010
0000
0220
0000
0000
0000
,
0000
0000
0000
0330
;

//---------------dance-single - ----------------
#NOTES:
     dance-single:
     :
     Easy:
     3:
     0.167505,0.247909,0.006478,0.006478,0.000000,181.000000,180.000000,1.000000,1.000000,0.000000,0.000000,0.167505,0.247909,0.006478,0.006478,0.000000,181.000000,180.000000,1.000000,1.000000,0.000000,0.000000:
0000
0000
0000
0000
,
1000
0001
0100
0010
,
1000
0001
0010
0000
,
0100
1000
0001
0100
,
0010
1000
0001
0000
,
0010
0010
0100
0100
,
1000
0001
0100
0000
,
0010
1000
0001
0010
,
0100
0000
1000
0000
0001
0000
0100
0100
,
0100
0000
0010
0010
0010
0000
1000
1000
,
1000
0000
0001
0001
0001
0000
0100
0000
,
0010
1000
0001
0100
,
0010
0000
0000
1000
,
0001
0000
0000
0100
,
0010
0000
0000
0000
,
1000
0000
0001
0000
,
0100
0000
0010
0000
,
1000
0000
0010
0000
,
0100
0000
0001
0000
,
0010
0000
0100
0000
,
1000
0000
1000
1000
,
0000
0010
0100
0010
,
0100
0000
0001
0001
,
1000
0000
0010
0100
,
0001
0000
0010
0010
,
0000
0000
1000
0001
,
0100
0000
0010
0000
,
1000
0000
0010
0000
,
0100
0000
0001
1000
,
0010
0100
0001
0010
,
0011
0000
0001
0100
,
0010
1000
0010
0000
,
0010
0000
1000
0001
,
0100
1000
0100
0001
,
0010
0000
0100
1000
,
0001
1000
0010
0010
,
0010
0000
1000
1000
1000
0000
0001
0001
,
0001
0000
0100
0010
0100
0000
0001
1000
,
0001
0100
0100
0010
,
1000
0100
0001
0000
,
0100
0000
0010
0000
,
1000
0000
0010
0000
,
0100
0000
0000
0000
0010
0010
0000
0000
,
0100
0100
0000
0000
0001
0000
0000
0000
,
1000
0000
0000
0000
0001
0001
0000
0000
,
1000
1000
0000
0000
0010
0010
0000
0000
,
0100
0100
0000
0000
0001
0000
0000
0000
,
1000
0000
0001
1000
,
0001
1000
0010
1000
,
0010
0100
0001
0010
,
0010
0010
0010
0000
,
0100
1000
0100
0000
,
0000
0010
0001
0000
,
0000
0000
1000
0000
,
0010
0010
0000
0000
0100
0100
0000
0000
,
0001
0001
0000
0000
0010
0000
0000
0000
,
0100
0000
0000
0000
0000
1000
1000
0000
,
0000
1000
1000
0000
0000
0020
0000
0000
,
0000
0000
0000
0000
0000
0000
0000
0030
;

//---------------dance-single - ----------------
#NOTES:
     dance-single:
     :
     Beginner:
     1:
     0.073110,0.114420,0.000000,0.006478,0.000000,79.000000,79.000000,0.000000,1.000000,0.000000,0.000000,0.073110,0.114420,0.000000,0.006478,0.000000,79.000000,79.000000,0.000000,1.000000,0.000000,0.000000:
// measure 0
0000
0000
0000
0000
,  // measure 1
1000
0000
0001
0000
,  // measure 2
0100
0000
0000
0000
,  // measure 3
0010
0000
1000
0000
,  // measure 4
0001
0000
0000
0000
,  // measure 5
0100
0000
0010
0000
,  // measure 6
1000
0000
0000
0000
,  // measure 7
0001
0000
1000
0000
,  // measure 8
0010
0000
0000
0100
,  // measure 9
0100
0000
0000
0001
,  // measure 10
0001
0000
0000
1000
,  // measure 11
1000
0000
0010
0010
,  // measure 12
0010
0000
0000
0000
,  // measure 13
0100
0000
0000
0000
,  // measure 14
0001
0000
0000
0000
,  // measure 15
0010
0000
0100
0000
,  // measure 16
1000
0000
0100
0000
,  // measure 17
0001
0000
0010
0000
,  // measure 18
0100
0000
1000
0000
,  // measure 19
0010
0000
0001
0000
,  // measure 20
0010
0000
0100
0100
,  // measure 21
0000
0000
1000
1000
,  // measure 22
0000
0000
0010
0010
,  // measure 23
0010
0000
0100
0000
,  // measure 24
0000
0000
0001
0000
,  // measure 25
0000
0000
1000
0000
,  // measure 26
0000
0000
0010
0000
,  // measure 27
0000
0000
0100
0000
,  // measure 28
0000
0000
0001
0000
,  // measure 29
0000
0000
1000
0000
,  // measure 30
0000
0000
0010
0000
,  // measure 31
0000
0000
0100
0000
,  // measure 32
0000
0000
0010
0000
,  // measure 33
0000
0000
0100
0000
,  // measure 34
0000
0000
0010
0000
,  // measure 35
0000
0000
1000
0000
,  // measure 36
0000
0001
0000
1000
,  // measure 37
0000
0001
0000
0100
,  // measure 38
0000
0010
0010
0000
,  // measure 39
1000
0000
0000
0000
,  // measure 40
0000
1000
0000
0000
,  // measure 41
0000
0001
0000
0000
,  // measure 42
0000
0000
1000
0000
,  // measure 43
0000
0000
0001
0000
,  // measure 44
0000
0000
1000
0000
,  // measure 45
0000
0000
0001
0000
,  // measure 46
0000
0000
1000
0000
,  // measure 47
0000
0000
1000
0000
,  // measure 48
0000
0000
0001
0000
,  // measure 49
0000
0000
0001
0000
,  // measure 50
0000
0000
1000
0000
,  // measure 51
0000
0000
0001
0000
,  // measure 52
0000
0000
1000
0000
,  // measure 53
0000
0000
0001
0000
,  // measure 54
0000
0000
0100
0000
,  // measure 55
0000
0000
0010
0000
,  // measure 56
0000
0000
0000
0000
,  // measure 57
0000
0000
1000
0000
0000
0020
0000
0000
,  // measure 58
0000
0000
0000
0000
0000
0000
0000
0030
;
