#TITLE:[Girls Week] - I Want You To Know;
#SUBTITLE:;
#ARTIST:Zedd feat. Selena Gomez;
#TITLETRANSLIT:;
#SUBTITLETRANSLIT:;
#ARTISTTRANSLIT:;
#GENRE:;
#CREDIT:;
#BANNER:I Want You To Know-banner.png;
#BACKGROUND:I Want You To Know-bg.jpg;
#LYRICSPATH:;
#CDTITLE:;
#MUSIC:I Want You To Know.mp3;
#OFFSET:-0.076000;
#SAMPLESTART:53.615002;
#SAMPLELENGTH:11.959999;
#SELECTABLE:YES;
#BPMS:0.000000=130.000000
;
#STOPS:112.000000=0.923000,
174.000000=0.923000
;
#BGCHANGES:0.000=I Want You To Know.avi=1.000=1=1=1=StretchRewind==CrossFade==,
99999=-nosongbg-=1.000=0=0=0 // don't automatically add -songbackground-
;
#KEYSOUNDS:;
#ATTACKS:;

//---------------dance-single - ----------------
#NOTES:
     dance-single:
     :
     Hard:
     7:
     0.398946,0.658798,0.046935,0.015645,0.066491,357.000000,351.000000,6.000000,2.000000,0.000000,0.000000,0.398946,0.658798,0.046935,0.015645,0.066491,357.000000,351.000000,6.000000,2.000000,0.000000,0.000000:
// measure 0
0000
0000
0000
0000
,  // measure 1
0000
0000
0000
0000
,  // measure 2
0000
0000
0000
0000
,  // measure 3
0000
0000
0000
0000
,  // measure 4
1001
0000
0000
1000
0100
0010
0001
1000
,  // measure 5
1000
0000
0000
0001
0010
0000
0001
0000
,  // measure 6
1000
0000
0000
0001
0000
0010
0100
0001
,  // measure 7
0000
0001
0100
1000
0000
0010
0000
0000
,  // measure 8
0010
0000
0000
0100
0001
0100
0001
0010
,  // measure 9
0010
0000
0000
0001
0010
0000
0010
0000
,  // measure 10
0100
1000
0000
0001
0000
0010
0100
0001
,  // measure 11
0000
0001
1000
0001
0000
0100
0000
0000
,  // measure 12
0100
0000
0000
1000
0100
0010
0001
0001
,  // measure 13
0010
0000
0100
0000
1000
0010
1000
0000
,  // measure 14
0001
0010
0000
0001
0010
0001
0010
0000
,  // measure 15
0001
0100
0001
0000
1000
0001
0010
0000
,  // measure 16
0001
0000
0001
0000
1000
0010
0010
0100
,  // measure 17
0001
0000
1000
0000
0001
0010
0001
0000
,  // measure 18
0100
0000
0100
0100
0001
1000
0100
0000
,  // measure 19
0010
0100
0010
0000
0001
0010
0001
0000
,  // measure 20
0100
0000
0010
0000
0100
0010
1000
0000
,  // measure 21
0001
0010
0001
0000
0200
0000
0000
0000
,  // measure 22
0300
0000
0100
0000
0001
0000
0010
0001
,  // measure 23
0010
0100
1000
0000
0001
0010
0001
0000
,  // measure 24
0100
0000
0100
0000
0001
0010
0001
0000
,  // measure 25
0100
0001
1000
0000
0010
0000
0010
0000
,  // measure 26
1000
0001
1000
0000
0001
1000
0001
0000
,  // measure 27
0010
0100
1000
0000
0010
0001
0010
0000
,  // measure 28
2000
0000
3001
0000
0001
1000
0000
0001
,  // measure 29
0000
0010
0000
0010
0100
0000
0000
0100
,  // measure 30
0010
0000
0001
0000
0001
1000
0000
0001
,  // measure 31
0000
0010
0001
0010
0000
0001
0100
0001
,  // measure 32
0000
0010
0000
0000
0010
0100
0000
1000
,  // measure 33
0000
0001
0000
0001
1000
0000
0000
0010
,  // measure 34
0100
0000
0100
0000
0001
0100
0000
0001
,  // measure 35
0000
1000
0001
0010
0001
0000
0100
0001
,  // measure 36
0000
0010
0000
0000
0001
0100
0000
0010
,  // measure 37
0000
1000
0000
1000
0010
0010
0100
0001
,  // measure 38
0000
0000
0000
0000
1000
0001
0000
1000
,  // measure 39
0000
0001
0000
0000
1000
1000
1000
0001
,  // measure 40
0000
0000
0000
0000
1000
0100
1000
0010
,  // measure 41
0100
0001
0010
0100
1000
0100
0001
0010
,  // measure 42
0001
0000
0100
0000
1000
0000
0010
0000
0100
0001
0100
0001
0100
0001
0100
0001
,  // measure 43
1000
0010
1000
0010
1000
0010
1000
0010
0100
0000
0001
0000
0001
0000
0000
0000
,  // measure 44
0001
0010
0000
0001
0000
0100
0000
0100
,  // measure 45
0010
0010
0010
1000
0000
0000
1000
0000
,  // measure 46
1000
0100
0000
0100
0000
0010
0000
0000
,  // measure 47
0100
0000
0100
0000
0100
0000
1000
0000
0000
0000
0001
0010
0001
0000
0100
0000
,  // measure 48
0001
1000
0000
0010
0000
0010
0000
0000
,  // measure 49
1000
0000
1000
0000
1000
0000
0010
0000
0000
0000
0100
0001
0100
0000
0010
0000
,  // measure 50
1000
0001
0000
0001
0000
0100
0000
0000
,  // measure 51
1001
0000
0000
0000
1001
0000
0000
0000
0001
0100
0001
0100
0010
1000
0010
1000
,  // measure 52
0100
0010
0000
0001
0000
1000
0000
1000
,  // measure 53
0001
0000
0001
0000
0001
0000
0100
0000
0000
0000
0001
0010
0001
0000
0100
0000
,  // measure 54
0001
0010
0000
0001
0000
0100
0000
0100
,  // measure 55
0010
0000
0000
0000
0010
0000
1000
0000
0000
0000
0010
1000
0010
0000
0100
0000
,  // measure 56
0001
0100
0000
0001
0000
1000
0000
1000
,  // measure 57
0010
0000
0010
0000
0010
0000
0100
0000
0000
0000
0001
0010
0001
0000
0100
0000
,  // measure 58
0001
1000
0000
0010
0000
1000
0000
0010
,  // measure 59
0100
0000
0100
0001
0000
0000
1100
0000
,  // measure 60
0001
0010
0000
0001
0000
0010
0000
0010
,  // measure 61
0100
0100
1000
0001
0000
0000
0001
0000
,  // measure 62
0001
1000
0000
0010
0000
0100
0000
0100
,  // measure 63
0001
0001
1000
0010
1000
0010
1000
0000
,  // measure 64
0001
0100
0000
0010
0000
0100
0000
0100
,  // measure 65
0010
0000
0010
1000
0000
0001
0010
0000
,  // measure 66
0001
0100
0000
0010
0000
1000
0000
0000
,  // measure 67
1010
0000
0000
0101
0000
0000
0000
0000
;

//---------------dance-single - ----------------
#NOTES:
     dance-single:
     :
     Medium:
     5:
     0.312898,0.449645,0.039112,0.015645,0.003911,280.000000,275.000000,5.000000,2.000000,0.000000,0.000000,0.312898,0.449645,0.039112,0.015645,0.003911,280.000000,275.000000,5.000000,2.000000,0.000000,0.000000:
0000
0000
0000
0000
,
0000
0000
0000
0000
,
0000
0000
0000
0000
,
0000
0000
0000
0000
,
1001
0000
0000
1000
0100
1000
0001
0001
,
0001
0000
0000
0001
0100
0000
0100
0000
,
0100
0000
0000
0000
0000
1000
0100
1000
,
0000
0001
0100
0001
0000
0100
0000
0000
,
0100
0000
0000
0001
0010
0001
0100
0100
,
0100
0000
0000
0010
1000
0000
1000
0000
,
1000
0000
0000
0000
0000
0001
0100
0001
,
0000
1000
0100
1000
0000
0010
0000
0000
,
0010
0000
0000
1000
0010
1000
0100
0100
,
0010
0001
0001
0001
,
0000
0000
0000
1000
0001
0010
0001
0000
,
0010
0001
0010
0000
0001
0100
0001
0000
,
1000
0000
0000
0010
0100
0010
0010
1000
,
0100
1000
0010
0010
,
0000
0000
0000
0100
0001
0010
0001
0000
,
0001
0100
0001
0000
1000
0100
1000
0000
,
0010
0000
1000
1000
,
0010
0010
0200
0000
,
0300
0000
0000
0000
0100
0000
0010
1000
,
0010
1000
0010
0000
0100
0001
0100
0000
,
0000
0000
0000
0000
0010
0100
0010
0000
,
1000
0100
1000
0000
0001
0000
0000
0000
,
0000
0000
0000
0000
0001
0100
0001
0000
,
1000
0100
1000
0000
0001
0010
0001
0000
,
0002
0000
1003
0000
0000
0000
0000
0001
,
1000
0001
0010
0010
0010
0000
0000
0001
,
1000
0010
0100
0000
,
0000
0001
0010
0001
0000
0100
0010
0100
,
0000
0010
0000
0000
0000
0000
0000
0100
,
0010
1000
1000
1000
1000
0000
0000
0010
,
1000
0010
0010
0000
,
0000
0100
0001
0100
0000
0010
1000
0010
,
0000
0100
0000
0000
1000
0000
1000
0000
,
0010
0000
0010
0000
0100
0010
0100
0001
,
0000
0000
0010
0010
,
0100
0000
0100
0000
0010
1000
0100
1000
,
0000
0000
0000
0000
0100
1000
0100
1000
,
0010
0100
0010
0100
0001
0010
0001
0010
,
0100
0000
1000
0000
0100
0000
1000
0000
0400
4000
0000
0000
0000
0000
0000
0000
,
0000
0000
3300
0000
1100
0100
1100
0000
,
0100
1000
0000
0001
0000
0001
0000
0000
,
0010
0010
0010
0010
0000
0000
0000
0000
,
0001
0100
0000
0010
0000
0010
0000
0000
,
1000
1000
1000
1000
0000
0000
0000
0000
,
0010
0100
0000
0010
0000
0010
0000
0000
,
0100
0000
0100
0001
0000
0000
0000
0000
,
1000
0100
0000
1000
0000
1000
0000
0000
,
1001
0000
1001
0000
0010
0001
0100
0010
,
1000
0010
0000
0010
0000
0100
0000
0000
,
0001
0000
0001
1000
0000
0000
0000
0000
,
0010
0100
0000
0010
0000
1000
0000
0000
,
1000
0000
1000
0100
0000
0000
0000
0000
,
0100
0010
0000
0001
0000
0001
0000
0000
,
0010
0000
0010
0100
0000
0000
0000
0000
,
1000
0100
0000
1000
0000
0010
0000
0000
,
0010
0000
0010
0100
0000
0000
0000
0000
,
0000
0000
0000
0001
1000
0001
0001
0001
,
0010
0000
0000
0010
0100
0000
1000
0000
,
0001
0000
0000
0000
0000
0100
0010
0100
,
0000
0001
0010
0001
0000
1000
0000
0000
,
0000
0000
0000
0001
1000
0010
0010
0010
,
0100
0000
0000
0010
1000
0000
0001
0000
,
0100
0000
0000
0000
0000
0010
1000
0010
,
0000
0100
0001
0100
0000
0010
0000
0000
;

//---------------dance-single - ----------------
#NOTES:
     dance-single:
     :
     Easy:
     3:
     0.160919,0.237167,0.054757,0.023467,0.000000,144.000000,137.000000,7.000000,3.000000,0.000000,0.000000,0.160919,0.237167,0.054757,0.023467,0.000000,144.000000,137.000000,7.000000,3.000000,0.000000,0.000000:
0000
0000
0000
0000
,
0000
0000
0000
0000
,
0000
0000
0000
0000
,
0000
0000
0000
0000
,
1001
0000
0001
0001
,
0001
0000
0100
0100
,
0100
0000
0000
0000
,
0010
0000
0000
0010
0000
0000
0000
0000
,
0000
0000
1000
1000
,
1000
0000
0010
0010
,
0010
0000
0000
0000
,
1000
0000
0000
1000
0000
0000
0000
0000
,
0000
0000
0010
0010
,
0010
1000
1000
1000
,
0000
0000
0001
0000
,
0100
0000
0010
0000
,
1000
0000
0100
0100
,
0100
0010
0010
0010
,
0000
0000
1000
0000
,
1000
0000
1000
0000
,
0010
0000
1000
0000
,
0010
0000
0020
0000
,
0030
0000
0100
0000
,
0010
0010
0000
0000
,
0000
0000
0010
0000
,
1000
0000
0001
0000
,
0000
0000
0001
0000
,
1000
0000
0010
0000
,
0020
0000
0030
0000
0010
0000
0000
1000
,
0000
0000
0000
0000
0010
0000
0000
1000
,
0000
0000
0000
0000
0001
0000
0000
0100
,
0000
0000
0000
0000
0010
0000
0000
1000
,
0000
0000
0000
0000
0010
0000
0000
0100
,
0000
0000
0000
0000
0001
0000
0000
0100
,
0000
0000
0000
0000
0100
0000
0000
0010
,
0000
0000
0000
0000
1000
0000
0000
0010
,
0000
0000
1000
0000
,
0000
0000
0010
0010
,
0010
0000
1000
0000
,
0000
0000
0100
0100
,
0100
0000
1000
0000
,
1000
0000
0010
0000
,
0010
0000
1100
0000
,
0000
0000
1100
0000
,
0100
0000
0000
1000
0000
1000
0000
0000
,
0010
0000
0000
0010
0000
0000
0000
0000
,
0100
0000
0000
0001
0000
0001
0000
0000
,
0010
0000
0000
0010
0000
0000
0000
0000
,
0001
0000
0000
0100
0000
0100
0000
0000
,
0010
0000
0000
0010
0000
0000
0000
0000
,
1000
0000
0000
1000
0000
1000
0000
0000
,
1001
1001
0020
0000
,
0130
0000
0000
0100
0000
0100
0000
0000
,
0001
0000
0000
1000
0000
0000
0000
0000
,
0100
0000
0000
0100
0000
0100
0000
0000
,
0010
0000
0000
0010
0000
0000
0000
0000
,
0100
0000
0000
1000
0000
1000
0000
0000
,
0010
0000
0000
0010
0000
0000
0000
0000
,
1000
0000
0000
1000
0000
1000
0000
0000
,
0100
0000
0000
0100
0000
0000
0000
0000
,
0000
0000
1000
1000
,
1000
0000
0100
0100
,
0100
0000
0000
0000
,
0010
0000
0010
0000
,
0000
0000
0001
0001
,
0001
0000
1000
1000
,
1000
0000
0000
0000
0000
0000
0000
0110
,
0000
0000
0000
0110
0000
0000
0000
0000
;
