#VERSION:0.83;
#TITLE:Hung Up;
#SUBTITLE:;
#ARTIST:Madonna;
#TITLETRANSLIT:;
#SUBTITLETRANSLIT:;
#ARTISTTRANSLIT:;
#GENRE:;
#ORIGIN:;
#CREDIT:;
#BANNER:[Girls Week] - Hung Up.png;
#BACKGROUND:[Girls Week] - Hung Up-bg.png;
#PREVIEWVID:;
#JACKET:[Girls Week] - Hung Up-jacket.png;
#CDIMAGE:;
#DISCIMAGE:;
#LYRICSPATH:;
#CDTITLE:;
#MUSIC:[Girls Week] - Hung Up.ogg;
#OFFSET:-0.031000;
#SAMPLESTART:72.992996;
#SAMPLELENGTH:15.000000;
#SELECTABLE:YES;
#DISPLAYBPM:125.000000;
#BPMS:0.000=125.000;
#STOPS:;
#DELAYS:;
#WARPS:;
#TIMESIGNATURES:0.000=4=4;
#TICKCOUNTS:0.000=4;
#COMBOS:0.000=1;
#SPEEDS:0.000=1.000=0.000=0;
#SCROLLS:0.000=1.000;
#FAKES:;
#LABELS:0.000=Song Start;
#BGCHANGES:0.000=[Girls Week] - Hung Up.avi=1.000=0=0=0=StretchNoLoop====,
99999=-nosongbg-=1.000=0=0=0 // don't automatically add -songbackground-
;
#KEYSOUNDS:;
#ATTACKS:
;

//---------------dance-single - ----------------
#NOTEDATA:;
#CHARTNAME:;
#STEPSTYPE:dance-single;
#DESCRIPTION:;
#CHARTSTYLE:;
#DIFFICULTY:Hard;
#METER:7;
#RADARVALUES:0.285184,0.338225,0.095364,0.082649,0.000000,314.000000,299.000000,15.000000,13.000000,0.000000,0.000000,0.000000,0.000000,0.000000,0.285184,0.338225,0.095364,0.082649,0.000000,314.000000,299.000000,15.000000,13.000000,0.000000,0.000000,0.000000,0.000000,0.000000;
#CREDIT:;
#DISPLAYBPM:125.000000;
#NOTES:
0000
0000
0000
0000
,
0000
0000
0000
0000
,
0000
0000
0000
0000
,
0000
0000
0000
0000
,
0000
0000
0000
0000
,
0000
0000
0000
0000
,
0010
0001
0100
0001
0010
0000
0010
0000
,
0001
0000
0100
0000
0001
0100
0010
0000
,
1000
0100
0010
0001
0100
0000
0010
0000
,
1000
0000
0100
0000
1000
1000
0010
0000
,
0200
0010
0010
0310
,
2000
0100
0100
3100
,
0020
0001
0001
0031
,
0200
0010
0310
0110
,
1001
0001
0010
0001
0100
0010
0100
0001
,
0010
0100
1000
0010
1000
0010
0100
0001
,
0010
0000
0100
0000
1000
0010
0100
0000
,
0001
0100
0001
1000
0002
0100
0103
0001
,
0010
0001
0100
0001
0010
0010
0100
1000
,
0010
1000
0100
0010
0001
0100
0001
0010
,
0100
0000
0100
0000
1000
0010
1000
0000
,
0010
0100
0001
0010
0001
0100
0001
0000
,
1000
0010
1000
0000
1000
0010
1000
0000
,
0001
0100
0001
0000
0001
0100
0001
0010
,
0001
0000
0001
0000
0100
0000
0100
0001
,
0010
0000
0010
0000
0100
1000
0010
0000
,
0100
0001
0010
0000
0100
0001
0010
0000
,
0100
1000
0010
0000
0100
1000
0010
0000
,
0100
0010
0100
0001
0020
0000
0130
0000
,
1000
0001
1000
0001
0200
0000
0310
0000
,
0101
0000
0011
0000
0001
0100
0010
0000
,
0001
0100
0010
0000
1000
0010
0100
0000
,
1000
0010
0100
0000
0010
1000
0001
0100
,
0010
0000
0100
0000
0010
0100
0001
0000
,
0010
0001
0100
0000
0010
1000
0100
0000
,
1000
0100
0001
0000
0001
0100
1000
0000
,
0010
0100
0001
0010
0002
0000
1003
0000
,
0220
0000
0330
0011
,
1001
0001
0100
0001
0010
0001
0100
0010
,
1000
0100
1000
1000
0010
0000
0110
0100
,
0001
0010
0001
0000
0001
0010
0001
0100
,
0010
1000
0100
1000
0010
1000
0100
0000
,
1100
1000
0010
0100
0010
1000
0100
0100
,
0010
0001
0100
0001
0000
0010
0011
0001
,
0101
0000
1010
0000
1000
1000
1100
0000
,
0100
1000
0010
1000
0100
1000
0010
0000
,
1001
1000
0100
1000
0010
0100
0010
1000
,
0100
0010
0001
0100
0001
0100
0010
1000
,
0100
0000
0010
0000
0001
0100
0010
0000
,
1000
0010
1000
0001
2000
0010
3010
1000
,
0100
1000
0010
1000
0100
0100
0010
0001
,
0100
0001
0010
0100
1000
0010
1000
0100
,
0010
0000
0010
0000
0001
0100
0001
0000
,
0100
0010
1000
0001
0010
0001
0100
0000
,
2002
0000
0000
0000
,
0000
0000
0000
0000
,
3003
0000
0000
0000
;

//---------------dance-single - ----------------
#NOTEDATA:;
#CHARTNAME:;
#STEPSTYPE:dance-single;
#DESCRIPTION:;
#CHARTSTYLE:;
#DIFFICULTY:Medium;
#METER:5;
#RADARVALUES:0.172564,0.195815,0.038146,0.101722,0.000000,190.000000,184.000000,6.000000,16.000000,0.000000,0.000000,0.000000,0.000000,0.000000,0.172564,0.195815,0.038146,0.101722,0.000000,190.000000,184.000000,6.000000,16.000000,0.000000,0.000000,0.000000,0.000000,0.000000;
#CREDIT:;
#DISPLAYBPM:125.000000;
#NOTES:
0000
0000
0000
0000
,
0000
0000
0000
0000
,
0000
0000
0000
0000
,
0000
0000
0000
0000
,
0000
0000
0000
0000
,
0000
0000
0000
0000
,
0010
1000
0010
0000
,
0000
0000
0100
0000
0010
0010
0000
0000
,
1000
0001
0010
0000
,
0000
0000
0100
0000
0010
0010
0000
0000
,
0001
0100
1000
0100
,
0010
0100
0001
0000
,
0010
0001
0100
0010
,
0200
0000
0020
0330
,
1001
0010
1000
0100
,
1000
1000
0001
0100
,
0110
0000
1001
0000
,
0001
0010
0001
0000
0200
0000
0310
0000
,
0010
0010
1000
0100
,
1000
0000
0010
0000
0010
1000
0100
0000
,
1000
0001
1000
0010
,
0100
0000
0100
0000
0001
0010
0001
0000
,
0100
0010
0100
0100
,
0010
0100
0010
0010
,
1000
0000
0100
0000
1000
0010
1000
0000
,
0001
0000
0100
0000
0001
0100
0001
0000
,
0010
0001
0100
0100
,
0001
0010
0100
0100
,
1000
0100
1000
0000
0010
0000
0010
0000
,
0100
0001
0100
0000
0001
0000
0001
0000
,
0020
0001
0001
0031
,
0002
0100
0100
0103
,
0020
1000
1000
1030
,
2000
0100
0100
3100
,
1000
0010
0100
0100
,
0001
0010
0001
0001
,
0200
0000
0002
0303
,
0002
0010
0020
0033
,
1001
0001
0100
0100
,
0010
1000
0100
1000
,
0020
1000
1030
0000
,
0100
1000
0100
0000
0100
0000
0000
0000
,
0010
0001
0100
0100
,
0001
0000
0010
0000
0001
0000
1000
0001
,
1000
0000
1000
0000
,
0010
0100
0001
0001
,
0100
0010
0100
0000
0001
0000
0001
0000
,
0010
0100
0010
0010
,
0002
0000
1003
0000
,
1000
0010
1000
0000
0100
0000
0100
0000
,
1000
0010
0100
0100
,
0001
0010
0001
1000
,
0020
0000
0130
0000
,
0010
0100
0010
0000
0110
0000
0000
0000
,
2002
0000
0000
0000
,
0000
0000
0000
0000
,
3003
0000
0000
0000
;

//---------------dance-single - ----------------
#NOTEDATA:;
#CHARTNAME:;
#STEPSTYPE:dance-single;
#DESCRIPTION:;
#CHARTSTYLE:;
#DIFFICULTY:Easy;
#METER:3;
#RADARVALUES:0.128061,0.160212,0.063576,0.063576,0.000000,141.000000,131.000000,10.000000,10.000000,0.000000,0.000000,0.000000,0.000000,0.000000,0.128061,0.160212,0.063576,0.063576,0.000000,141.000000,131.000000,10.000000,10.000000,0.000000,0.000000,0.000000,0.000000,0.000000;
#CREDIT:;
#DISPLAYBPM:125.000000;
#NOTES:
0000
0000
0000
0000
,
0000
0000
0000
0000
,
0000
0000
0000
0000
,
0000
0000
0000
0000
,
0000
0000
0000
0000
,
0000
0000
0000
0000
,
0010
1000
0100
0000
,
0000
1000
0001
0000
,
0010
0001
0100
0000
,
0000
0001
1000
0000
,
0010
0100
0001
0000
,
0010
0001
0100
0000
,
0010
1000
0100
0000
,
2000
0000
3001
0000
,
0110
0010
1000
0010
,
1000
0100
1000
0000
,
0010
0000
0010
0000
,
0100
0001
0010
0000
,
0001
0001
1000
0000
,
1000
1000
0010
0000
,
1010
0000
0101
0000
,
0001
1000
0001
0000
,
0010
0000
0001
0000
,
0010
0000
0001
0000
,
1000
0000
0010
0000
,
1000
1000
1000
0000
,
0100
0000
0010
0000
,
0001
0000
1000
0000
,
0010
0010
0010
0000
,
0100
0100
0100
0000
,
0001
0010
0001
0000
,
2000
0000
3010
0000
,
0010
0100
0001
0000
,
0002
0000
0013
0000
,
0100
1000
0010
0000
,
0100
0001
0010
0000
,
0001
1000
0001
1000
,
2002
0000
0000
3003
,
0110
0010
1000
0000
,
0100
1000
0010
0000
,
0200
0001
0301
0000
,
0002
0010
0013
0000
,
0100
1000
0010
0000
,
0100
0010
0100
0000
,
1001
0000
0110
0000
,
0010
1000
0100
0000
,
1000
0010
1000
0000
,
0001
0100
0001
0000
,
0101
0000
0011
0000
,
0001
1000
0010
0000
,
0100
0010
0100
0000
,
0001
0010
0100
0000
,
2000
0000
3010
0000
,
0100
0001
0010
0100
,
2002
0000
0000
0000
,
0000
0000
0000
0000
,
3003
0000
0000
0000
;

//---------------dance-single - ----------------
#NOTEDATA:;
#CHARTNAME:;
#STEPSTYPE:dance-single;
#DESCRIPTION:;
#CHARTSTYLE:;
#DIFFICULTY:Beginner;
#METER:1;
#RADARVALUES:0.071750,0.137324,0.025430,0.000000,0.000000,79.000000,75.000000,4.000000,0.000000,0.000000,0.000000,0.000000,0.000000,0.000000,0.071750,0.137324,0.025430,0.000000,0.000000,79.000000,75.000000,4.000000,0.000000,0.000000,0.000000,0.000000,0.000000,0.000000;
#CREDIT:;
#DISPLAYBPM:125.000000;
#NOTES:
// measure 0
0000
0000
0000
0000
,  // measure 1
0000
0000
0000
0000
,  // measure 2
0000
0000
0000
0000
,  // measure 3
0000
0000
0000
0000
,  // measure 4
0000
0000
0000
0000
,  // measure 5
0000
0000
0000
0000
,  // measure 6
1000
0000
0000
0000
,  // measure 7
0001
0000
0000
0000
,  // measure 8
1000
0000
0000
0000
,  // measure 9
0001
0000
0000
0000
,  // measure 10
0100
0000
0000
0000
,  // measure 11
0010
0000
0000
0000
,  // measure 12
0100
0000
0000
0000
,  // measure 13
0010
0000
0000
0000
,  // measure 14
0001
0000
0001
0000
,  // measure 15
0001
0000
0000
0000
,  // measure 16
1000
0000
1000
0000
,  // measure 17
1000
0000
0000
0000
,  // measure 18
0010
0000
0100
0000
,  // measure 19
0010
0000
0000
0000
,  // measure 20
0010
0000
0100
0000
,  // measure 21
0010
0000
0000
0000
,  // measure 22
1000
1000
1000
0000
,  // measure 23
0001
0000
0000
0000
,  // measure 24
0001
0001
0001
0000
,  // measure 25
1000
0000
0000
0000
,  // measure 26
0010
0000
0010
0000
,  // measure 27
0010
0000
0010
0000
,  // measure 28
0100
0000
0000
0000
,  // measure 29
0100
0000
0000
0000
,  // measure 30
0001
0000
0001
0000
,  // measure 31
1000
0000
1000
0000
,  // measure 32
0001
0000
1000
0000
,  // measure 33
1001
0000
0000
0000
,  // measure 34
0010
0000
0010
0000
,  // measure 35
0100
0000
0100
0000
,  // measure 36
0110
0000
0000
0000
,  // measure 37
1001
0000
0000
0000
,  // measure 38
0010
0000
0010
0000
,  // measure 39
0010
0000
0000
0000
,  // measure 40
1000
0000
0100
0000
,  // measure 41
1000
0000
0000
0000
,  // measure 42
0010
0000
0100
0000
,  // measure 43
0001
0000
0000
0000
,  // measure 44
0010
0000
0001
0000
,  // measure 45
0010
0000
0000
0000
,  // measure 46
0001
0000
0100
0000
,  // measure 47
0010
0000
0000
0000
,  // measure 48
1000
0000
0100
0000
,  // measure 49
1000
0000
0000
0000
,  // measure 50
0010
0000
0100
0000
,  // measure 51
0001
0000
0000
0000
,  // measure 52
1000
1000
1000
0000
,  // measure 53
0001
0001
0001
0000
,  // measure 54
1001
0000
0000
0000
;
