#TITLE:Hoshi Furu Yoru no Adenium;
#SUBTITLE:;
#ARTIST:Yunomi;
#TITLETRANSLIT:;
#SUBTITLETRANSLIT:;
#ARTISTTRANSLIT:;
#GENRE:EDM;
#CREDIT:;
#BANNER:Yunomi_Banner.png;
#BACKGROUND:Grey Loop Background.avi;
#LYRICSPATH:;
#CDTITLE:;
#MUSIC:Hoshi_Furu_Yoru_no_Adenium.ogg;
#OFFSET:-0.040000;
#SAMPLESTART:14.119998;
#SAMPLELENGTH:12.000000;
#SELECTABLE:YES;
#BPMS:0.000000=160.000000
;
#STOPS:
;
#BGCHANGES:0.000=Grey Loop Background.avi=1.000=0=0=1=====,
99999=-nosongbg-=1.000=0=0=0 // don't automatically add -songbackground-
;
#KEYSOUNDS:;
#ATTACKS:;

//---------------dance-single - Give Me The Benpai----------------
#NOTES:
     dance-single:
     Give Me The Benpai:
     Medium:
     9:
     0.636110,0.687882,0.178468,0.142774,0.272163,499.000000,479.000000,20.000000,16.000000,4.000000,0.000000,0.636110,0.687882,0.178468,0.142774,0.272163,499.000000,479.000000,20.000000,16.000000,4.000000,0.000000:
0000
0000
0000
0000
,
0000
0000
0000
0000
,
0000
0000
0000
0000
,
0000
00M0
0000
0000
0000
0000
0000
0000
,
0000
0000
0000
0000
,
0000
0M00
0000
0000
0001
1000
0000
1000
,
0000
1000
0000
0010
0000
0010
0000
0010
,
0000
0110
0000
0000
2002
0000
0000
0000
,
0000
0000
0000
0000
,
3003
0001
0100
0010
1000
0001
1000
0100
,
0010
0001
0100
0010
1000
0001
0010
0001
,
0100
0000
0010
0000
0100
0000
0001
0000
1000
0000
0100
0000
0010
0000
0000
0100
0000
0000
1000
0000
0000
0100
0000
0000
,
0010
0100
1000
0010
0100
0010
1000
0001
,
0010
0001
1000
0010
1000
0001
0010
0001
,
0010
0100
1000
0100
1000
0010
0100
0010
,
1000
0000
0001
0000
0010
0000
0100
0000
1000
0000
0100
0000
1000
0000
0000
0100
0000
0000
0010
0000
0000
0100
0000
0000
,
0010
0000
0000
0001
0000
0000
0100
0000
0000
0001
0000
0000
0010
0000
0100
0000
0010
0000
0001
0000
1000
0000
0010
0000
,
0100
0000
0001
0000
0010
0000
0100
0000
1000
0000
0100
0000
1000
0000
0000
0010
0000
0000
1000
0000
0000
0100
0000
0000
,
0010
0100
1000
0001
0200
0000
0310
2000
,
0000
3100
0001
0000
0100
0010
0001
1000
,
0010
0100
1000
0100
0001
0010
0000
0200
,
0000
0300
1000
0001
0020
0000
0030
0001
,
0200
0000
0300
0001
0020
0000
0030
0100
,
0020
0000
0031
0100
0001
0010
0001
1000
,
0100
0010
0001
0010
1000
0010
0100
1000
,
0001
0100
0110
0000
0001
0010
0011
0000
,
0000
1000
0010
1010
0000
0000
0001
0100
,
0000
0010
0100
0001
0001
1000
1001
0000
,
0000
1000
0100
1100
1000
0010
0100
0002
,
0000
0013
0001
0100
100M
0000
0000
0100
,
0001
0000
0000
0010
1000
0000
0000
0010
,
0100
0000
1000
0001
1000
0010
0100
0001
,
1000
0100
0010
0011
0000
1001
0000
1100
,
0000
1000
0020
0000
0130
0000
0001
0000
,
0001
0010
0002
0000
,
0003
1000
0010
2000
0000
0000
0000
0000
,
3000
0100
0010
0100
1000
0001
0000
0100
,
0000
0010
0000
0000
1000
0100
1000
0001
,
0100
0001
0010
0100
0010
0001
1000
0010
,
1000
0100
0010
0001
0100
0010
1000
0001
,
1000
0100
0010
0100
1000
0001
0100
0001
0010
0100
1000
0001
,
0100
0000
1001
0000
1000
0100
0110
0010
,
0001
1000
1001
0001
0100
0001
0010
0100
,
0010
0001
2000
0000
3010
0100
0101
0001
,
0010
0000
0100
0000
1100
0000
1000
0000
0001
0000
0100
0010
0000
0000
1000
0000
,
0000
0010
1010
1000
0100
1000
0011
0002
,
0003
0000
0100
0000
0010
0000
0100
0000
0001
0000
0000
0001
0000
0000
0010
0000
,
0000
0100
1000
0100
1100
0000
1000
0010
,
0000
0100
0010
0100
0001
0010
0100
1000
,
1000
0010
0210
0000
0301
0010
0100
0001
,
0100
1000
0010
0100
0010
1000
0100
0010
,
0100
1000
0001
000M
0001
0000
0000
0010
,
1000
0000
0000
0000
0000
0000
0010
0000
0100
0000
0000
1000
0000
0000
0001
0000
,
0100
0000
0101
0000
1000
0100
1000
0001
,
0010
0001
0100
0010
0100
0001
0010
0001
,
0000
0000
0001
0000
0000
0000
0100
0000
0010
0000
0000
0010
0000
0000
1000
0000
,
0100
0000
1000
0000
0010
0000
0100
0000
0001
0000
0000
0001
0000
0000
1000
0000
,
0000
0010
0100
0010
1000
0100
0010
0100
,
1000
0001
0010
0001
0100
0010
0100
0001
,
0010
0000
0100
0000
0010
0000
0001
0000
1000
0000
0010
0000
0100
0000
0000
0010
0000
0000
1000
0000
0000
0100
0000
0000
,
0010
0001
0100
0001
0010
0100
0010
0100
,
1000
0010
0001
0010
0100
0010
1000
0100
,
0010
0100
1000
0001
0100
1000
0100
0001
,
0010
0000
0001
0000
0100
0000
0001
0000
0010
0000
0100
0000
1000
0000
0000
0100
0000
0000
0010
0000
0000
0001
0000
0000
,
0100
0000
0000
0010
0000
0000
0001
0000
0000
0010
0000
0000
1000
0000
0100
0000
1000
0000
0010
0000
0100
0000
0001
0000
,
0010
0000
0100
0000
1000
0000
0100
0000
0010
0000
0100
0000
1000
0000
0000
0010
0000
0000
0100
0000
0000
0001
0000
0000
,
0010
0100
0010
0001
1000
0010
1000
0001
,
0010
0000
0001
0000
0100
0000
0010
0000
0100
0000
0001
0000
1000
0000
0000
0100
0000
0000
1000
0000
0000
0010
0000
0000
,
0001
0010
1000
0100
0010
0001
1000
0001
,
0010
0100
0001
0100
1000
0010
0100
0010
,
0100
0001
0010
0100
1000
0100
0010
0001
,
0100
0000
0010
0000
0100
0000
0001
0000
0010
0000
0100
0000
1000
0000
0000
0100
0000
0000
1000
0000
0000
0010
0000
0000
,
0100
0000
0000
0010
0000
0000
1000
0000
0000
0001
0000
0000
1000
0000
0001
0000
0100
0000
0010
0000
0100
0000
0001
0000
,
0010
0100
0010
0001
0010
0100
0000
0000
0000
0000
0000
0000
;

//---------------dance-single - Give Me The Benpai----------------
#NOTES:
     dance-single:
     Give Me The Benpai:
     Easy:
     5:
     0.328891,0.327563,0.017847,0.151698,0.017847,258.000000,256.000000,2.000000,17.000000,2.000000,0.000000,0.328891,0.327563,0.017847,0.151698,0.017847,258.000000,256.000000,2.000000,17.000000,2.000000,0.000000:
0000
0000
0000
0000
,
0000
0000
0000
0000
,
0000
0000
0000
0000
,
0000
00M0
0000
0000
0000
0000
0000
0000
,
0000
0000
0000
0000
,
0000
0M00
0000
0000
0001
0000
0001
0000
,
0000
1000
0000
1000
0000
0000
0010
0000
,
0000
0010
0000
0000
2000
0000
0000
0000
,
0000
0000
0000
0000
,
3000
0001
1000
0100
,
1000
0010
0100
0001
,
0100
0010
1000
0100
,
0010
0001
0010
0100
,
0010
0001
1000
0010
,
0001
0010
1000
0100
,
0001
0100
1000
0010
,
0100
0001
0100
1000
,
0100
0010
1000
0100
,
1000
0000
0010
0000
0200
0000
0300
0001
,
0000
0020
0130
0010
,
0001
0000
0010
0000
0100
0000
0000
2000
,
0000
3000
0010
0000
2000
0000
3000
0001
,
0020
0000
0030
0100
2000
0000
3000
0010
,
0200
0301
0010
0001
,
1000
0010
1000
0100
,
0001
0100
1000
1000
,
0000
0001
0000
0001
0000
0000
0100
0000
,
0000
0010
0100
0000
0010
0000
0010
0000
,
0000
0100
0000
0100
0000
0000
0001
0000
,
0000
1000
0100
0000
2000
0000
3000
0010
,
0200
0000
0300
0001
0020
0000
0030
0100
,
2000
3001
1000
0100
,
0010
0000
0000
0100
0000
1000
0000
0001
,
0000
0100
0002
0000
1003
0000
0100
0000
,
0010
0001
0002
0000
,
0103
0010
2000
0000
,
3100
1000
0010
1000
,
0001
0010
1000
0010
,
0001
0100
0010
0100
,
0001
0010
0100
1000
,
0010
0100
0020
0000
,
0030
0000
1001
0000
1000
0000
0000
0001
,
0100
0000
0000
0010
0100
0000
0001
0000
,
0010
0000
0100
0000
0001
0000
0000
0100
,
1000
0000
0000
0010
0100
0000
0100
0000
,
0100
0100
0001
0010
,
0001
1000
0010
0010
,
0010
0000
1000
0000
0100
0000
1000
0100
,
0000
1000
0001
1000
,
0001
0000
1001
0000
1000
0000
0000
0010
,
0100
0000
0000
0001
0010
0000
0100
0000
,
0010
0000
0001
0000
1000
0000
0000
0010
,
1000
0000
0100
0010
,
0100
1000
0001
0100
,
0010
1000
0100
0010
,
0001
1000
0001
0001
,
0001
0001
1000
1000
,
2000
0000
3100
1000
,
0100
0010
0100
0010
,
0001
0100
0001
0010
,
0100
0001
0100
1000
,
0001
0010
0100
0010
,
0001
1000
0010
0100
,
1000
0100
0001
0010
,
0100
0010
0001
0010
,
0100
1000
0010
1000
,
0010
0100
0001
0100
,
1000
0100
0001
0010
,
0100
0010
1000
0010
,
0001
0100
0001
0010
,
0100
0010
0001
1000
,
0010
0100
0001
0010
,
0001
0000
0000
0100
0000
0000
0010
0000
1000
0000
0001
0000
,
0100
0000
0010
0000
0000
1000
0000
0000
0000
0000
0000
0000
;

//---------------dance-single - Give Me The Benpai----------------
#NOTES:
     dance-single:
     :
     Hard:
     11:
     0.856646,1.211983,0.053540,0.124927,1.084192,672.000000,666.000000,6.000000,14.000000,2.000000,0.000000,0.856646,1.211983,0.053540,0.124927,1.084192,672.000000,666.000000,6.000000,14.000000,2.000000,0.000000:
0000
0000
0000
0000
,
0000
0000
0000
0000
,
0000
0000
0000
0000
,
0000
00M0
0000
0000
0000
0000
0000
0000
,
0000
0000
0000
0000
,
0000
0M00
0000
0000
0001
1000
0000
1000
,
0000
1000
0000
0010
0000
0010
0000
0010
,
1000
0000
0000
0000
1010
0000
0000
0000
0000
0000
0000
0000
0000
0000
0000
0000
0040
0400
0000
0000
0000
0000
0000
0000
0000
0000
0000
0000
0000
0000
0000
0000
,
0000
0000
0000
0000
,
0330
0000
1000
0001
1000
0100
0010
0001
1000
0100
0010
0001
1000
0010
0100
0001
,
1000
0010
0100
0010
1000
0100
0010
0001
1000
0001
0010
0001
0100
0010
0100
0001
,
0010
0000
0000
0000
0100
0000
0000
0000
1000
0000
0000
0000
0001
0000
0000
0000
1000
0000
0000
0000
0010
0000
0000
0000
1000
0000
0000
0100
0000
0000
0010
0000
0000
0001
0000
0000
0010
0000
0000
0100
0000
0000
0010
0000
0000
0001
0000
0000
,
0010
0100
1000
0010
1000
0010
0100
0001
1000
0100
0010
0001
0100
0010
0100
0001
,
1000
0000
0100
0000
0010
0000
0001
0000
0010
0000
0100
0000
1000
0000
0010
0000
0100
0000
0001
0000
0100
0000
0010
0000
1000
0000
0000
0100
0000
0000
1000
0000
0000
0100
0000
0000
0010
0000
0000
0001
0000
0000
1000
0000
0000
0001
0000
0000
,
0010
0001
0100
0010
1000
0001
0100
0001
1000
0100
0010
0100
0010
0001
0010
0001
,
1000
0000
0000
0000
0010
0000
0000
0000
0100
0000
0000
0000
0001
0000
0000
0000
0010
0000
0000
0000
0100
0000
0000
0000
1000
0000
0000
0100
0000
0000
0010
0000
0000
0100
0000
0000
1000
0000
0000
0010
0000
0000
0100
0000
0000
0010
0000
0000
,
1000
0000
0000
0001
0000
0000
0100
0000
0000
0001
0000
0000
0010
0000
0000
0100
0000
0000
0010
0000
0000
0001
0000
0000
1000
0000
0000
0000
0010
0000
0000
0000
0100
0000
0000
0000
0001
0000
0000
0000
1000
0000
0000
0000
0001
0000
0000
0000
,
0010
0000
0100
0000
0010
0000
0001
0000
0100
0000
0010
0000
1000
0000
0000
0001
0000
0000
0100
0000
0000
0001
0000
0000
,
0100
0010
1000
0100
0020
0000
0031
0200
,
0000
0310
1000
0000
0001
1000
0100
1000
,
0100
0010
0001
0100
0010
2000
0000
3020
,
0000
0130
0010
1000
1000
0000
0000
0001
,
1000
0000
0000
1000
0001
0000
0000
0100
,
0001
0000
1000
0010
1000
0100
0010
0001
,
0100
0001
0010
0100
0010
0001
0100
1000
,
0100
0010
1000
0000
1000
0001
0010
0001
,
0010
1000
0010
0100
1000
0001
0100
0020
,
0000
0130
0001
0000
0001
1000
0010
1000
,
0010
0001
0010
0100
0002
0000
1003
0200
,
0000
0310
0001
0010
0100
0000
0000
0010
,
0001
0000
0000
0001
0100
0000
0000
0010
,
1000
0000
0001
1000
0001
0100
1000
0100
,
0010
0100
0001
0101
0000
1001
0000
1100
,
0000
0000
1000
0000
0010
0100
0001
0010
0100
0000
0000
0000
1000
0000
0000
0000
,
0010
0100
0002
0000
,
0000
1003
0010
2000
0000
0000
0000
0000
,
0000
3010
0100
0010
1000
0001
0000
0010
,
0000
0010
0000
0000
0100
1000
0100
1000
,
0001
0000
0100
0000
0001
0000
0010
0100
0010
0000
0100
0000
1000
0000
0010
0000
,
0100
0000
0001
0000
0001
0000
1000
0000
0001
0010
0100
1000
0100
0010
0001
1000
,
0001
0010
0100
1000
0001
0100
1000
0100
0001
0010
0100
1000
,
0100
0000
0000
0000
1100
0000
0000
0000
1000
0000
0100
1000
0100
0000
0010
0000
,
0100
0000
0010
0001
0010
0000
0001
0000
0100
0000
0010
0000
1000
0000
0010
0000
,
0001
0000
0010
0000
0100
0000
0001
0000
0010
0000
0001
0100
0001
0000
0010
0000
,
0100
0000
1000
0010
1000
0000
0100
0000
0010
0000
0000
0010
0000
0000
0001
0000
,
0000
0100
0001
0000
0010
0000
0001
0000
1000
0000
0001
1000
0001
0000
0020
0000
,
0000
0000
0031
0000
0100
0000
0010
0000
1000
0000
0000
0100
0000
0000
0010
0000
,
0000
0001
0000
0000
0100
0000
0010
0000
1000
0000
1000
0100
0000
0000
0110
0000
,
0000
0000
0010
0000
0001
0000
0100
0000
1000
0000
0000
0100
0010
0000
4000
0000
,
0000
0000
3001
0000
0020
0000
0000
0000
0031
0000
0100
0010
0100
0000
0001
0000
,
1000
0000
0100
0010
0100
0000
0010
0000
0001
0000
0010
0000
1000
0000
0010
0000
,
0001
0000
0100
0000
0020
0000
0000
0000
1030
0000
0001
0100
0001
0000
1000
0000
,
0001
0000
1000
0100
1000
0000
0010
0000
0100
0000
0000
0100
0010
0000
1000
0000
,
0100
0000
0010
0000
0002
0000
0000
0000
0103
0000
0000
0001
1000
0000
0200
0000
,
0000
0310
0001
0010
0100
0001
0100
1000
,
0000
0000
0010
0000
0000
0000
0100
0000
0001
0000
0000
0001
0000
0000
0100
0000
,
0000
0010
0000
0000
0100
0000
0001
0000
0001
0000
0000
0010
0000
0000
0100
0000
,
0000
0000
1000
0000
0010
0000
1000
0000
0100
1000
0100
1000
0010
0100
0001
0010
,
0100
0000
0000
0010
0000
0000
0001
0000
0000
0100
0000
0000
0010
0000
0000
0100
0000
0000
0001
0000
0000
0010
0000
0000
0100
0000
0000
0010
0000
0000
0100
0000
0000
1000
0000
0000
0100
0000
0000
0000
0010
0000
0000
0000
0001
0000
0000
0000
,
0100
0000
0000
0000
0001
0000
0000
0000
0010
0000
0000
0000
0001
0000
0000
0000
0100
0000
0000
0000
0010
0000
0000
0000
0100
0000
0000
0010
0000
0000
1000
0000
0000
0100
0000
0000
0010
0000
0000
0001
0000
0000
0010
0000
0000
0001
0000
0000
,
0100
0010
0100
0001
0010
0100
1000
0010
1000
0100
1000
0010
0100
0010
0100
0001
,
0010
0000
0100
0000
1000
0000
0100
0000
0010
0000
0001
0000
0100
0000
0010
0000
1000
0000
0100
0000
0010
0000
0001
0000
1000
0000
0000
0010
0000
0000
1000
0000
0000
0100
0000
0000
0010
0000
0000
0001
0000
0000
0010
0000
0000
0100
0000
0000
,
0010
0000
0000
0001
0000
0000
0100
0000
0000
0010
0000
0000
1000
0000
0000
0010
0000
0000
1000
0000
0000
0100
0000
0000
0010
0000
0000
0100
0000
0000
1000
0000
0000
0010
0000
0000
0100
0000
0000
0000
0001
0000
0000
0000
0100
0000
0000
0000
,
0001
0000
0000
0000
0010
0000
0000
0000
0100
0000
0000
0000
1000
0000
0000
0000
0100
0000
0000
0000
0010
0000
0000
0000
0100
0000
0000
1000
0000
0000
0010
0000
0000
0100
0000
0000
0010
0000
0000
1000
0000
0000
0100
0000
0000
0010
0000
0000
,
0100
0000
0000
0010
0000
0000
0001
0000
0000
0010
0000
0000
0001
0000
0000
0100
0000
0000
0001
0000
0000
1000
0000
0000
0010
0000
0000
1000
0000
0000
0001
0000
0000
0100
0000
0000
0010
0000
0000
0000
0100
0000
0000
0000
0001
0000
0000
0000
,
0010
0000
0000
0000
0100
0000
0000
0000
1000
0000
0000
0000
0010
0000
0000
0000
0100
0000
0000
0000
0010
0000
0000
0000
1000
0000
0000
0100
0000
0000
0010
0000
0000
0100
0000
0000
0010
0000
0000
0001
0000
0000
0100
0000
0000
0001
0000
0000
,
0010
0100
0010
0001
1000
0100
1000
0010
0100
0010
1000
0100
0010
0001
0100
0001
,
0010
0000
0000
0000
0001
0000
0000
0000
0100
0000
0000
0000
0010
0000
0000
0000
0100
0000
0000
0000
0001
0000
0000
0000
1000
0000
0000
0010
0000
0000
0100
0000
0000
0001
0000
0000
0100
0000
0000
0010
0000
0000
1000
0000
0000
0001
0000
0000
,
0010
0001
0010
0100
1000
0100
1000
0010
0100
0001
0100
0010
1000
0100
0010
0001
,
1000
0000
0100
0000
0010
0000
0001
0000
1000
0000
0100
0000
0010
0000
0001
0000
0100
0000
0010
0000
1000
0000
0010
0000
1000
0000
0000
0100
0000
0000
0010
0000
0000
0100
0000
0000
1000
0000
0000
0010
0000
0000
0100
0000
0000
0001
0000
0000
,
0010
0100
1000
0010
1000
0100
1000
0100
0010
0100
0010
0001
0010
0001
1000
0010
,
0100
0000
0000
0000
0010
0000
0000
0000
1000
0000
0000
0000
0100
0000
0000
0000
0010
0000
0000
0000
0100
0000
0000
0000
1000
0000
0000
0100
0000
0000
0010
0000
0000
0001
0000
0000
1000
0000
0000
0100
0000
0000
0010
0000
0000
0100
0000
0000
,
0010
0000
0000
0001
0000
0000
0010
0000
0000
0100
0000
0000
0010
0000
0000
0001
0000
0000
1000
0000
0000
0010
0000
0000
1000
0000
0000
0000
0100
0000
0000
0000
0010
0000
0000
0000
0100
0000
0000
0000
1000
0000
0000
0000
0010
0000
0000
0000
,
0100
0001
0010
0001
0100
0010
0000
0000
0000
0000
0000
0000
;
