#TITLE:ヘドバンギャー!!;
#SUBTITLE:;
#ARTIST:BABYMETAL;
#TITLETRANSLIT:Headbangeeeeerrrrr!!!!!;
#SUBTITLETRANSLIT:;
#ARTISTTRANSLIT:;
#GENRE:;
#CREDIT:mf32892;
#BANNER:[Girls Week] - Headbangeeeeerrrrr!!!!!-bn.png;
#BACKGROUND:[Girls Week] - Headbangeeeeerrrrr!!!!!-bg.png;
#LYRICSPATH:;
#CDTITLE:cdtitle.png;
#MUSIC:[Girls Week] - Headbangeeeeerrrrr!!!!!.ogg;
#OFFSET:0.436207;
#SAMPLESTART:72.599998;
#SAMPLELENGTH:13.500000;
#LASTBEATHINT:384.570190;
#SELECTABLE:YES;
#DISPLAYBPM:89.000000:185.000000;
#BPMS:0.000000=89.224998
,16.000000=185.000000
,32.000000=184.720001
,64.000000=185.000000
,128.000000=185.009995
,160.000000=183.000000
,184.000000=185.000000
,263.000000=190.000000
,264.000000=186.000000
,268.000000=186.619995
,276.000000=184.240005
,284.000000=182.839996
,292.000000=185.000000
;
#STOPS:
;
#BGCHANGES:0.500=[Girls Week] - HeadBangeeeeerrrrr!!!!!.mp4=1.000=0=0=0=StretchNoLoop====,
99999=-nosongbg-=1.000=0=0=0 // don't automatically add -songbackground-
;
#KEYSOUNDS:;
#ATTACKS:;

//---------------dance-single - ----------------
#NOTES:
     dance-single:
     :
     Hard:
     8:
     0.573208,0.541681,0.289788,0.178331,0.022291,477.000000,39.000000,24.000000,0.000000,0.000000,0.000000,0.573208,0.541681,0.289788,0.178331,0.022291,477.000000,39.000000,24.000000,0.000000,0.000000,0.000000:
0000
0000
0000
0000
,
0000
0000
0000
0000
,
0000
0000
0000
0000
,
0000
0000
0000
0000
,
1000
0100
0000
0100
1000
0001
0000
0001
,
1000
0010
1000
0010
0100
0000
0001
0000
,
2000
0000
0000
0000
,
3001
0100
0001
0000
0000
0000
1000
0100
1000
0000
0000
0000
1001
0000
0000
0000
,
1000
0100
0001
0000
0001
0100
1000
0000
,
1000
0010
0001
0000
0001
0010
1000
0000
,
0001
0010
1000
0000
1000
0010
0001
0000
,
1100
0000
0011
0000
1000
0001
0100
0000
,
0001
0100
1000
0000
1000
0100
0001
0000
,
0001
0010
1000
0000
1000
0010
0001
0000
,
1000
0100
0001
0000
0001
0100
1000
0000
,
1100
0000
0011
0000
1000
0001
0100
0000
,
0010
1000
0100
0000
0100
1000
0001
0000
,
0001
0010
0100
0000
0100
0010
0001
0000
,
1000
0010
0100
0000
0100
0001
1000
0000
,
1100
0000
0011
0000
1000
0001
0100
0000
,
0001
0100
0010
0000
0010
1000
0100
0000
,
0100
0010
0001
0000
0001
1000
0010
0000
,
0200
0000
0000
0000
,
0301
0100
0001
0000
0000
0000
1000
0100
1000
0000
0000
0000
1001
0000
0000
0000
,
0000
2000
0000
3001
0010
1000
0010
0001
,
0000
2000
0000
3001
0100
1000
0100
0001
,
0000
1000
0100
1000
0001
0010
1000
0010
,
0001
1000
0010
0100
,
0000
0001
0100
0001
1000
0100
0010
0001
,
0000
1000
0010
1000
0001
0010
0100
1000
,
0000
0001
0100
0001
1000
0100
0010
0001
,
1000
0010
0100
1001
,
0000
0001
0010
0002
0000
0100
0103
0010
,
0000
1000
0100
2000
0000
3100
0100
0010
,
0000
0001
0010
0001
0100
0010
1000
0000
,
0100
0010
0110
1001
,
0000
0001
0100
0020
0000
1000
1030
0001
,
0000
1000
0100
0020
0000
0001
0031
1000
,
0001
0100
0020
0000
1000
2030
0000
3001
,
0010
0100
0010
0100
0010
0000
0000
0000
,
0002
0000
0003
0001
1000
0000
0100
0000
,
0020
0000
0030
0010
0100
0000
0000
0000
,
1000
1000
0100
1000
,
0001
0100
0020
0030
,
0200
0000
0300
0100
0001
0000
1000
0100
,
0020
0000
0030
0010
0100
0000
1000
0100
,
0010
0001
0010
0001
1000
0010
1000
0010
,
0100
0001
1000
0001
0010
0100
1000
0000
,
0001
0000
0100
0010
0000
1000
0001
1000
,
0100
0010
0001
0100
0010
1000
0001
1000
,
0001
0001
0000
1000
1000
0000
0110
0000
,
0001
1000
0100
0010
0001
0000
1100
0000
,
0101
0000
1000
0001
0100
0000
1010
0000
,
1000
0001
0100
0001
0010
0000
1100
0000
,
0001
1000
0100
1000
0010
0100
0001
0000
,
1000
0010
0101
0000
0001
0010
1100
0000
,
1000
0100
0010
0001
1000
0000
0101
0000
,
0001
0100
0010
1000
0001
0000
1100
0000
,
0011
0001
1010
1000
,
1001
0000
1000
0010
0000
0100
0010
1000
,
0100
0000
1000
0001
0010
0000
1100
0000
,
0001
1000
0100
1000
0010
0000
0101
0000
,
1000
0001
0100
0001
0010
0100
1000
0000
,
0001
0010
1100
0000
1000
0010
0101
0000
,
1000
0001
0010
0001
0100
0000
1010
0000
,
0001
1000
0010
1000
0100
0000
0010
0000
,
0011
0000
1100
0000
,
0102
0100
0100
0100
,
1000
1000
1000
2003
,
0100
0100
0100
0100
,
0001
0001
0001
3001
,
1000
0000
0002
0000
1003
0200
0010
0300
,
0110
0000
0011
0000
1100
0000
1000
1000
,
0001
0010
1000
0000
1000
0010
0001
0000
,
0001
0100
1000
0000
1000
0100
0001
0000
,
1000
0100
0001
0000
0001
0100
1000
0000
,
1100
0000
0011
0000
0001
1000
0010
0000
,
1000
0100
0001
0000
0001
0100
1000
0000
,
1000
0010
0001
0000
0001
0010
1000
0000
,
0001
0010
1000
0000
1000
0010
0001
0000
,
1000
0100
0010
0000
2002
0000
3003
0000
,
0001
0100
1000
0100
0001
0100
1000
0100
,
0001
0010
1000
0010
0001
0010
1000
0010
,
0001
0100
0010
1000
0100
0001
0100
1000
,
0010
0100
0001
0010
1000
0010
0001
0000
,
1000
0100
0001
0100
1000
0010
0001
0010
,
1000
0100
0010
0001
1000
0010
0100
0001
,
0020
0000
0000
0000
,
0130
1000
0100
0000
0000
0000
0010
0001
1000
0000
0000
0000
0101
0000
0000
0000
,
0000
0220
0000
0000
,
0000
0000
0000
0000
,
0000
0330
0000
0000
0000
0000
0000
0000
;

//---------------dance-single - ----------------
#NOTES:
     dance-single:
     :
     Medium:
     6:
     0.490411,0.473971,0.534994,0.222914,0.000000,360.000000,72.000000,30.000000,0.000000,0.000000,0.000000,0.490411,0.473971,0.534994,0.222914,0.000000,360.000000,72.000000,30.000000,0.000000,0.000000,0.000000:
0000
0000
0000
0000
,
0000
0000
0000
0000
,
0000
0000
0000
0000
,
0000
0000
0000
0000
,
0000
0000
0000
0000
,
0000
0000
0000
0000
,
0002
0000
0000
0000
,
1003
1000
0000
0010
0010
0000
1001
0000
,
0001
1100
1000
0101
,
0001
1100
1000
0101
,
0001
1010
1000
0011
,
1000
0000
1000
0000
0100
0010
0000
0000
,
0001
1100
1000
0101
,
0001
1100
1000
0101
,
0001
1010
1000
0011
,
0001
0000
0001
0000
0100
0010
0000
0000
,
1000
0011
0001
1010
,
1000
0011
0001
1010
,
1000
0101
0001
1100
,
0100
0000
0100
0000
0010
0001
0000
0000
,
0001
1010
1000
0011
,
0001
1010
1000
0011
,
2000
0000
0000
0000
,
3001
0001
0000
0001
0100
0000
0110
0000
,
1000
0000
0001
0000
1000
0100
1000
0000
,
0010
0000
1000
0000
0100
0010
0100
0000
,
0010
0000
0001
0000
0100
0001
0100
0000
,
0010
1000
0100
0110
,
0010
0000
0001
0000
1000
0100
1000
0000
,
0010
0000
1000
0000
0001
0100
0001
0000
,
0010
0000
0001
0000
0100
0010
1000
0000
,
0100
0100
0010
1001
,
0001
0100
0001
0000
0010
0000
0100
0000
,
1000
0010
1000
0000
0100
0000
0010
0000
,
0001
1000
0001
0000
0100
0000
0010
0000
,
1000
1000
0100
1001
,
1000
0100
1000
0000
0010
0000
0100
0000
,
0001
1000
0001
0000
0010
0000
0100
0000
,
1000
0010
1000
0000
0100
0000
0010
0000
,
0001
0100
0001
0100
0001
0000
1000
0000
,
0002
0000
0000
0013
0100
0000
0010
0000
,
0002
0000
0000
0103
0010
0000
1000
0000
,
0200
0000
0000
0310
0100
0000
1000
0000
,
0020
0000
0000
0130
0001
0000
1000
0000
,
2001
0000
0000
3100
0010
0000
0001
0000
,
0200
0000
0000
1300
0100
0000
0001
0000
,
1000
0100
1000
0000
0010
0000
1000
0000
,
0100
0100
0010
1001
,
0001
0000
0100
0010
0000
0100
0010
0000
,
2000
3200
0320
0032
,
1003
0100
0000
1000
0100
0000
1100
0000
,
0010
0001
0010
0001
0100
0000
0110
0000
,
0101
1000
0101
1000
,
1100
0001
1100
0001
,
0011
1000
0011
1000
,
0010
1000
0002
0003
0010
0001
2000
3000
,
1010
0001
1010
0001
,
0011
1000
0011
1000
,
1100
0001
0101
1000
,
1100
0000
0001
0020
0100
0000
0130
0000
,
0011
1000
0011
1000
,
1010
0001
1010
0001
,
0101
1000
1100
0001
,
0010
0001
2000
3000
0010
1000
0002
0003
,
0011
1000
0011
1000
,
1010
0001
1010
0001
,
0101
0000
0110
0000
,
2010
0010
0010
0010
,
0001
0001
0001
3002
,
0010
0010
0010
0010
,
1000
1000
1000
1003
,
0010
0000
0200
0000
0310
2000
0001
3000
,
0002
0023
0230
2300
,
3001
1100
1000
0101
,
0001
1100
1000
0101
,
0001
1010
1000
0011
,
1000
0000
1000
0000
0100
0010
0000
0000
,
0001
1100
1000
0101
,
0001
1100
1000
0101
,
0001
1010
1000
0011
,
0001
0100
0010
0000
2002
0000
3003
0000
,
1000
0100
1000
0000
0001
0100
0001
0000
,
1000
0100
1000
0000
0001
0100
0001
0000
,
1000
0100
1000
0000
0001
0010
0001
0000
,
0100
0010
1000
0001
,
0010
0100
1000
0000
0001
0010
0100
0000
,
0010
0001
1000
0000
0001
0100
0010
0000
,
2000
0000
0000
0000
,
3001
0001
0000
0010
0100
0000
1001
0000
,
0000
0220
0000
0000
,
0000
0000
0000
0000
,
0000
0330
0000
0000
0000
0000
0000
0000
;

//---------------dance-single - ----------------
#NOTES:
     dance-single:
     :
     Challenge:
     10:
     0.748354,0.812522,0.156040,0.074305,0.349232,674.000000,21.000000,10.000000,0.000000,0.000000,0.000000,0.748354,0.812522,0.156040,0.074305,0.349232,674.000000,21.000000,10.000000,0.000000,0.000000,0.000000:
// measure 0
0000
0000
0000
0000
,  // measure 1
0000
0000
0000
0000
,  // measure 2
0000
0000
0000
0000
0001
0100
0010
0000
,  // measure 3
1000
0100
0010
0000
0001
0100
0010
1000
,  // measure 4
0100
0100
0000
0100
1000
0001
0000
0001
,  // measure 5
1000
0010
0100
0001
0010
0100
1000
0001
,  // measure 6
2000
0000
0000
0000
,  // measure 7
3010
1000
0100
0000
0000
0000
1000
0001
0010
0000
0000
0000
1001
0000
0000
0000
,  // measure 8
1000
1000
0100
0010
0000
0001
0100
0001
,  // measure 9
0100
0100
0010
1000
0000
1000
0100
1000
,  // measure 10
0100
0100
0010
0001
0000
0010
0001
1000
,  // measure 11
0001
0001
1000
1000
0010
0010
0100
0100
,  // measure 12
0001
0001
0010
0100
0000
0100
0010
0001
,  // measure 13
1000
1000
0010
0100
0000
0100
0010
1000
,  // measure 14
0100
0100
0010
0001
0000
0001
0100
0001
,  // measure 15
1000
0000
1000
0000
0010
0000
0010
0000
0100
0000
0010
0100
0001
0100
0001
0100
,  // measure 16
0010
0010
1000
0100
0000
0001
0100
1000
,  // measure 17
0010
0010
0100
0001
0000
0010
1000
0010
,  // measure 18
0001
0001
0100
1000
0000
0100
0010
1000
,  // measure 19
0001
0001
1000
1000
0001
0001
0010
0010
,  // measure 20
0100
0100
1000
0010
0000
0100
1000
0100
,  // measure 21
0010
0010
1000
0100
0000
0001
0100
0010
,  // measure 22
0002
0000
0000
0000
,  // measure 23
0103
0010
1000
0000
0000
0000
0100
1000
0001
0000
0000
0000
0011
0000
0000
0000
,  // measure 24
1000
0010
1000
0010
0100
0010
1000
0100
,  // measure 25
0010
0001
0010
0001
1000
0001
0100
0010
,  // measure 26
1000
0100
1000
0100
0001
0100
1000
0001
,  // measure 27
0010
0100
1100
0101
,  // measure 28
0001
0100
0010
0100
0001
1000
0001
1000
,  // measure 29
0100
0010
0100
1000
0001
1000
0001
1000
,  // measure 30
0010
0100
0010
1000
0100
1000
0001
0010
,  // measure 31
0100
1000
0100
1000
0100
0000
0010
0001
1000
0000
0010
0100
0001
0000
0000
0000
,  // measure 32
1000
0000
0010
0000
0010
0000
0100
0000
0010
0000
1000
0100
1000
0000
0001
0000
,  // measure 33
0010
0000
0100
0000
0100
0000
0010
0000
0001
0000
0100
0010
0100
0000
0001
0000
,  // measure 34
0010
0100
0100
1000
0010
1000
0100
1000
,  // measure 35
0001
0010
0110
1001
,  // measure 36
0001
0000
0001
0000
0100
0000
0010
0000
1000
0000
0100
1000
0001
0000
0100
0000
,  // measure 37
0001
0000
0100
0000
0100
0000
0010
0000
1000
0000
0100
1000
0001
0000
0010
0000
,  // measure 38
0001
0000
0100
0000
0010
0000
1000
0000
0100
1000
0001
0000
0010
0000
0100
0000
,  // measure 39
0010
0000
0001
0000
0010
0000
0001
0000
1000
0000
0001
0100
0001
1000
0010
0000
,  // measure 40
1000
0100
1000
0100
1000
0100
1000
0100
0010
0000
0000
0000
1001
0000
0000
0000
,  // measure 41
0001
0100
0001
0100
0001
0100
0001
0100
0010
0000
0000
0000
1001
0000
0000
0000
,  // measure 42
0001
0010
0001
0010
0001
0010
0001
0010
0100
0000
0000
0000
1001
0000
0000
0000
,  // measure 43
1000
0010
1000
0010
1000
0010
1000
0010
0100
0000
0000
0000
1001
0000
0000
0000
,  // measure 44
0001
0100
0001
0100
0001
0100
0001
0100
0010
0000
0000
0000
1001
0000
0000
0000
,  // measure 45
1000
0100
1000
0100
1000
0100
1000
0100
0010
0000
0001
1000
0010
0000
0100
0000
,  // measure 46
0001
0001
0100
0100
1000
1000
0100
0100
,  // measure 47
0001
0001
1000
1000
0100
0100
0010
0010
,  // measure 48
0001
0000
1000
0010
0000
0001
0010
1000
,  // measure 49
0001
0010
0001
0000
0010
0100
0010
0000
0100
1000
0100
1000
0001
1000
0001
1000
,  // measure 50
0010
0110
0000
1000
1100
0000
0101
0000
,  // measure 51
1100
0100
0010
0001
1000
0000
0101
0000
,  // measure 52
0001
0000
0100
0000
0010
0000
0100
0000
0001
0000
1000
0100
1000
0000
0010
0000
,  // measure 53
1000
0000
0100
0000
0010
0000
0100
0000
1000
0000
0010
0100
0010
0000
1000
0000
,  // measure 54
0001
0000
0010
0000
1000
0000
0010
0000
0001
0000
0010
0100
0010
0000
0001
0000
,  // measure 55
0100
1000
0100
0001
0010
1000
0010
0001
,  // measure 56
1000
0000
0100
0000
0010
0000
0001
0000
1000
0000
0010
0100
0010
0000
1000
0000
,  // measure 57
0001
0000
0010
0000
0100
0000
1000
0000
0001
0000
0100
0010
0100
0000
0001
0000
,  // measure 58
0010
0100
0001
0100
1000
0010
0001
0010
,  // measure 59
2000
0000
0100
0200
3000
0310
0020
0000
,  // measure 60
0031
0100
0001
0000
0010
0000
0100
0000
1000
0000
0001
1000
0010
0000
1000
0000
,  // measure 61
0010
0100
0010
0000
0100
0000
0001
0000
0010
0000
0001
1000
0100
0000
1000
0000
,  // measure 62
0010
1000
0100
0000
1000
0000
0001
0000
0010
0000
0001
0100
0010
0000
0100
0000
,  // measure 63
1000
0100
0001
0010
1000
0010
0001
0100
,  // measure 64
1000
0100
0010
0000
1000
0000
0100
0010
0001
0000
1000
0001
0100
0000
0001
0000
,  // measure 65
1000
0001
0010
0000
0100
0000
1000
0010
0100
0000
0010
1000
0100
0000
0010
0000
,  // measure 66
0110
0000
0011
0000
,  // measure 67
2100
0100
0100
0100
,  // measure 68
0001
0001
0001
3002
,  // measure 69
0100
0100
0100
0100
,  // measure 70
1000
1000
1000
1003
,  // measure 71
0010
1000
0100
1000
,  // measure 72
0001
0010
1000
0010
0001
0100
1000
0100
,  // measure 73
0001
0001
0010
0100
1000
1000
0010
0100
,  // measure 74
0001
0001
0010
0100
1000
1000
0010
0100
,  // measure 75
0001
0001
0010
0100
1000
1000
0010
0100
,  // measure 76
0001
0001
1000
1000
0100
0100
1000
1000
,  // measure 77
0010
1000
0100
0100
0010
0001
0100
0100
,  // measure 78
0010
1000
0100
0100
0010
0001
0100
0100
,  // measure 79
0010
1000
0100
0100
0010
0001
0100
0100
,  // measure 80
0010
0000
1000
0000
0100
0000
0000
0000
0010
0000
0001
1000
0001
1000
0001
1000
,  // measure 81
0100
0000
1000
0001
0000
1000
0100
0000
0010
0000
0001
1000
0000
0001
0100
0000
,  // measure 82
0010
0000
1000
0001
0000
1000
0100
0000
0010
0000
0001
1000
0000
0001
0010
0100
,  // measure 83
0010
0000
0001
0100
0000
0010
1000
0000
0100
0000
1000
0010
0000
0100
1000
0000
,  // measure 84
0100
0000
0010
1000
0000
0001
0010
0000
0100
0000
1000
0000
0001
0000
0000
0000
,  // measure 85
1000
0000
0100
0010
0000
0100
1000
0000
0001
0000
0100
0010
0000
1000
0001
0000
,  // measure 86
0010
0000
1000
0010
0000
0001
1000
0000
0010
0000
0100
1000
0000
0100
0001
0000
,  // measure 87
0020
0000
0000
0000
,  // measure 88
0130
1000
0010
0000
0000
0000
0001
0010
1000
0000
0000
0000
1010
0000
0000
0000
,  // measure 89
0000
0202
0000
0000
,  // measure 90
0000
0000
0000
0000
,  // measure 91
0000
0303
0000
0000
0000
0000
0000
0000
;

//---------------dance-single - ----------------
#NOTES:
     dance-single:
     :
     Easy:
     4:
     0.273866,0.338086,0.096596,0.185762,0.000000,220.000000,13.000000,25.000000,0.000000,0.000000,0.000000,0.273866,0.338086,0.096596,0.185762,0.000000,220.000000,13.000000,25.000000,0.000000,0.000000,0.000000:
0000
0000
0000
0000
,
0000
0000
0000
0000
,
0000
0000
0000
0000
,
0000
0000
0000
0000
,
0000
0000
0000
0000
,
0000
0000
0000
0000
,
0000
0000
0000
0000
,
0000
0000
0000
0000
,
0001
1000
0000
1000
,
0000
0100
0000
0100
,
0010
0010
0000
0010
,
0001
1000
0001
0000
,
1000
0001
0000
0001
,
0000
0100
0000
0100
,
0100
0010
0000
0010
,
1000
0001
1000
0000
,
0100
0010
0000
0001
,
0000
1000
0000
0001
,
0100
0010
0000
0100
,
0010
1000
0001
0000
,
1000
0001
0000
1000
,
0000
0001
0000
1000
,
0020
0000
0000
0000
,
0130
0000
0001
1000
,
1000
0010
0000
0100
,
0000
0010
0000
1000
,
0000
0100
0000
1000
,
0001
0001
1000
1000
,
0010
0100
0000
0001
,
0000
1000
0000
0001
,
0000
0010
0000
0100
,
0010
0010
0001
0001
,
1000
0010
0000
0100
,
0000
0001
0000
1000
,
0000
0001
0000
0010
,
0100
0100
0010
0010
,
0001
1000
0000
0010
,
0000
0100
0000
0001
,
0000
1000
0000
0001
,
0000
0010
0000
0100
,
2000
0000
3010
0110
,
0002
0000
0013
0110
,
2000
0000
3100
1100
,
0002
0000
0103
0101
,
2000
0000
3010
1010
,
0002
0000
0013
0011
,
1000
0010
1000
0000
,
0100
0010
0001
1000
,
0002
0000
0000
0000
,
0000
0000
0000
0003
,
1000
0000
0000
0001
0000
0000
1000
0000
,
0100
0010
0001
0000
,
1000
0100
0010
0000
,
0001
1000
0010
0000
,
0100
0010
1000
0001
,
0000
0011
0000
1100
,
0001
1000
0100
0000
,
1000
0001
0100
0000
,
0020
0000
2030
0000
,
3002
0000
0000
0020
0003
0000
0130
0000
,
1000
0100
0010
0000
,
0001
1000
0010
0000
,
1000
0001
0100
0010
,
0000
1010
0000
0101
,
1000
0100
0010
0000
,
0001
1000
0010
0000
,
0110
0000
1001
0000
,
0002
0000
0000
0000
,
0023
0000
0000
0000
,
0230
0000
0000
0000
,
2300
0000
0000
0000
,
3002
0000
0203
0000
,
0320
2030
3002
0103
,
0010
1000
0000
0001
,
0000
0010
0000
0100
,
1000
0001
0000
0100
,
0010
0010
1000
1000
,
0001
1000
0000
0100
,
0000
1000
0000
0001
,
0010
0100
0000
0010
,
0001
1000
0020
0000
,
0130
0100
0001
0001
,
1000
1000
0001
0001
,
0010
0010
0100
0100
,
1000
0001
0100
0000
,
0010
1000
0100
1000
,
0001
0010
0100
1000
,
0020
0000
0000
0000
,
1030
0000
0001
0010
,
0000
0220
0000
0000
,
0000
0000
0000
0000
,
0330
0000
0000
0000
;
