#VERSION:0.83;
#TITLE:Disco Night;
#SUBTITLE:;
#ARTIST:M2U feat. Kaicy;
#TITLETRANSLIT:;
#SUBTITLETRANSLIT:;
#ARTISTTRANSLIT:;
#GENRE:NU DISCO;
#ORIGIN:;
#CREDIT:;
#BANNER:[Girls Week] - Disco Night.png;
#BACKGROUND:[Girls Week] - Disco Night-bg.png;
#PREVIEWVID:;
#JACKET:[Girls Week] - Disco Night-jacket.png;
#CDIMAGE:;
#DISCIMAGE:;
#LYRICSPATH:;
#CDTITLE:cdtitle.png;
#MUSIC:[Girls Week] - Disco Night.ogg;
#OFFSET:0.007500;
#SAMPLESTART:58.101898;
#SAMPLELENGTH:15.117191;
#SELECTABLE:YES;
#BPMS:0.000=128.000;
#STOPS:;
#DELAYS:;
#WARPS:;
#TIMESIGNATURES:0.000=4=4;
#TICKCOUNTS:0.000=4;
#COMBOS:0.000=1;
#SPEEDS:0.000=1.000=0.000=0;
#SCROLLS:0.000=1.000;
#FAKES:;
#LABELS:0.000=Song Start;
#BGCHANGES:0.000=[Girls Week] - Disco Night.avi=1.000=0=0=1===CrossFade_Fastest==,
99999=-nosongbg-=1.000=0=0=0 // don't automatically add -songbackground-
;
#KEYSOUNDS:;
#ATTACKS:
;

//---------------dance-single - ----------------
#NOTEDATA:;
#CHARTNAME:;
#STEPSTYPE:dance-single;
#DESCRIPTION:;
#CHARTSTYLE:;
#DIFFICULTY:Hard;
#METER:9;
#RADARVALUES:0.554362,0.550545,0.493018,0.087471,0.401571,488.000000,426.000000,62.000000,11.000000,0.000000,0.000000,0.000000,0.000000,0.000000,0.554362,0.550545,0.493018,0.087471,0.401571,488.000000,426.000000,62.000000,11.000000,0.000000,0.000000,0.000000,0.000000,0.000000;
#CREDIT:;
#NOTES:
// measure 0
0000
0000
0000
0000
,  // measure 1
0000
0000
0000
0000
,  // measure 2
0000
0000
0000
0000
,  // measure 3
0000
0000
0000
0000
,  // measure 4
1000
0100
0010
0200
0000
0000
1300
0002
,  // measure 5
0000
0203
0000
0310
0100
1000
0100
0010
,  // measure 6
0000
1000
0100
0001
0000
0001
0100
1000
,  // measure 7
0010
0000
0000
0110
0000
0101
0000
1001
0000
0000
0000
1000
0100
0000
0100
0010
,  // measure 8
0000
0000
0101
0002
0000
0000
0013
0200
,  // measure 9
0000
2300
0000
3001
0100
1000
0100
0001
,  // measure 10
0000
1000
0100
0110
0000
0011
0000
2010
,  // measure 11
0000
0000
0000
0000
3100
0000
0010
0000
0000
0000
0101
0000
0000
1100
0000
0000
,  // measure 12
1001
0001
0100
1000
0000
1000
0100
0002
,  // measure 13
0000
2003
0000
3100
0010
0001
0010
1000
,  // measure 14
0000
0010
0100
1000
0000
1000
0010
0001
,  // measure 15
0010
0000
0000
0110
0000
1010
0000
1001
0000
0000
0000
1000
0100
0000
0100
0010
,  // measure 16
0000
0001
1001
2000
0000
0000
3010
0200
,  // measure 17
0000
0300
0001
1000
0100
0010
0100
0001
,  // measure 18
0000
0001
0100
1000
0000
1000
0010
0100
,  // measure 19
0001
0000
0000
0011
0000
0000
0110
0000
0000
1100
0000
0000
1001
0000
0000
0000
,  // measure 20
1010
0000
0000
0011
0000
0000
1001
0000
0000
0000
1000
0000
0010
0000
0001
0000
,  // measure 21
0000
0010
0000
0000
1000
0000
0100
0000
0010
0000
0011
0000
0000
0101
0000
0000
,  // measure 22
0110
0000
0000
1010
0000
0000
1100
0000
0000
0000
1000
0000
0010
0000
0001
0000
,  // measure 23
0010
0000
0100
0000
0010
0000
1000
0000
0000
0000
1100
0000
0000
0101
0000
0000
,  // measure 24
0011
0000
0000
1010
0000
0000
1001
0000
0000
0000
1000
0000
0100
0000
0001
0000
,  // measure 25
0000
0100
0000
0000
1000
0000
0010
0000
0100
0000
0101
0000
0000
0011
0000
0000
,  // measure 26
0110
0000
0000
1100
0000
0000
1010
0000
0000
0000
0110
0000
0000
0000
1001
0000
,  // measure 27
0001
1000
0001
1000
,  // measure 28
0100
0010
0100
0010
,  // measure 29
0001
0100
0001
0000
1000
0100
1000
0000
,  // measure 30
0001
0010
0100
1000
0100
0010
0001
0000
,  // measure 31
1000
0000
0000
0001
0000
0000
0100
0000
0000
0001
0000
0000
1000
0000
0000
0000
0000
0100
0000
0000
0010
0001
0000
0010
,  // measure 32
0001
0000
0000
1000
0000
0000
0010
0000
0000
1000
0000
0000
0001
0000
0000
0000
0000
0010
0000
0000
0100
1000
0000
0100
,  // measure 33
1000
0000
0000
0010
0000
0000
0001
0000
0000
0010
0000
0000
1000
0000
0000
0000
0000
0100
0000
0000
0010
0001
0000
0010
,  // measure 34
0001
0000
0000
0100
0000
0000
1000
0000
0000
0100
0000
0000
0001
0000
0000
0000
0000
0010
0000
0000
0100
1000
0000
0100
,  // measure 35
1000
0000
0000
0010
0000
0000
1000
0000
0000
0001
0000
0000
0010
0000
0000
0000
0000
0100
0000
0000
1000
0001
0000
1000
,  // measure 36
0001
0000
0000
0100
0000
0000
0001
0000
0000
1000
0000
0000
0100
0000
0000
0000
0000
0010
0000
0000
0001
1000
0000
0001
,  // measure 37
1000
0000
0000
0010
0000
0000
0100
0000
0000
0010
0000
0000
0001
0000
0000
0000
0000
0010
0000
0000
1000
0001
0000
1000
,  // measure 38
0001
0000
0000
0000
0000
0000
0000
0000
0000
0101
0000
0000
0000
0000
0000
0000
0000
0000
1001
0000
0000
0000
0000
0000
0000
0000
0000
0000
1000
0000
0100
0000
0000
0000
1000
0000
0100
0000
0000
0000
0000
0000
0000
0000
0000
0000
0000
0000
,  // measure 39
0011
0000
0000
1010
0000
0000
1001
0000
0000
0000
0001
0000
0010
0000
1000
0000
,  // measure 40
0000
0010
0000
0000
0001
0000
0100
0000
0010
0000
1010
0000
0000
1100
0000
0000
,  // measure 41
0110
0000
0000
0011
0000
0000
0101
0000
0000
0000
0001
0000
0010
0000
1000
0000
,  // measure 42
0010
0000
0100
0000
0010
0000
0001
0000
0000
0000
0101
0000
0000
1100
0000
0000
,  // measure 43
1010
0000
0000
0011
0000
0000
1001
0000
0000
0000
0001
0000
0100
0000
1000
0000
,  // measure 44
0000
0100
0000
0000
0001
0000
0010
0000
0100
0000
1100
0000
0000
1010
0000
0000
,  // measure 45
0110
0000
0000
0101
0000
0000
0011
0000
0000
0000
0110
0000
0000
0000
1001
0000
,  // measure 46
1000
0001
1000
0001
,  // measure 47
0100
0010
0100
0010
,  // measure 48
1000
0100
1000
0000
0001
0100
0001
0000
,  // measure 49
1000
0010
0100
0001
0100
0010
1000
0000
,  // measure 50
0001
0000
0000
0010
0000
0000
0100
0000
0000
0010
0000
0000
0001
0000
0000
0000
0000
1000
0000
0000
0010
0100
0000
0010
,  // measure 51
0100
0000
0000
0001
0000
0000
0010
0000
0000
0100
0000
0000
1000
0000
0010
0000
0000
0100
0000
0000
0001
1000
0000
0001
,  // measure 52
1000
0000
0000
0100
0000
0000
0010
0000
0000
0100
0000
0000
1000
0000
0000
0000
0000
0001
0000
0000
0100
0010
0000
0100
,  // measure 53
0010
0000
0000
1000
0000
0000
0100
0000
0000
0010
0000
0000
0001
0000
0100
0000
0000
0010
0000
0000
1000
0001
0000
1000
,  // measure 54
0001
0000
0000
0100
0000
0000
1000
0000
0000
0100
0000
0000
0001
0000
0000
0000
0000
1000
0000
0000
0100
0010
0000
0100
,  // measure 55
0010
0000
0000
1000
0000
0000
0010
0000
0000
0001
0000
0000
0100
0000
0010
0000
0000
1000
0000
0000
0001
1000
0000
0001
,  // measure 56
1000
0000
0000
0100
0000
0000
0001
0000
0000
0100
0000
0000
1000
0000
0000
0000
0000
0001
0000
0000
0100
0010
0000
0100
,  // measure 57
0010
0000
0000
0000
0000
0000
0000
0000
0000
0101
0000
0000
0000
0000
0000
0000
0000
0000
1001
0000
0000
0000
0000
0000
0000
0000
0000
0000
1000
0000
0001
0000
0000
0000
1000
0000
0001
0000
0000
0000
0000
0000
0000
0000
0000
0000
0000
0000
,  // measure 58
1000
0000
0000
0100
0000
0000
0000
0000
0000
0100
0000
0000
0010
0000
0000
0000
0000
0001
0000
0000
1000
0001
0000
1000
,  // measure 59
0001
0000
0000
0100
0000
0000
0000
0000
0000
0100
0000
0000
0010
0000
0000
0000
0000
1000
0000
0000
0001
1000
0000
0001
,  // measure 60
1000
0000
0000
0010
0000
0000
0000
0000
0000
0010
0000
0000
0100
0000
0000
0000
0000
0001
0000
0000
1000
0001
0000
1000
,  // measure 61
0001
0000
0000
0010
0000
0000
0000
0000
0000
0010
0000
0000
0100
0000
0000
0000
0000
1000
0000
0000
0001
1000
0000
0001
,  // measure 62
1000
0000
0000
0001
0000
0000
0000
0000
0000
0001
0000
0000
0100
0000
0000
0000
0000
0010
0000
0000
1000
0001
0000
1000
,  // measure 63
0001
0000
0000
1000
0000
0000
0000
0000
0000
1000
0000
0000
0100
0000
0000
0000
0000
0010
0000
0000
0001
1000
0000
0001
,  // measure 64
1000
0010
0100
0001
1000
0100
0010
0001
,  // measure 65
1000
0000
0010
0000
0001
0000
0010
0000
1000
0000
0100
0000
0001
0000
0100
1000
;

//---------------dance-single - ----------------
#NOTEDATA:;
#CHARTNAME:;
#STEPSTYPE:dance-single;
#DESCRIPTION:;
#CHARTSTYLE:;
#DIFFICULTY:Medium;
#METER:7;
#RADARVALUES:0.383964,0.365987,0.103375,0.015904,0.163014,338.000000,325.000000,13.000000,2.000000,0.000000,0.000000,0.000000,0.000000,0.000000,0.383964,0.365987,0.103375,0.015904,0.163014,338.000000,325.000000,13.000000,2.000000,0.000000,0.000000,0.000000,0.000000,0.000000;
#CREDIT:;
#NOTES:
0000
0000
0000
0000
,
0000
0000
0000
0000
,
0000
0000
0000
0000
,
0000
0000
0000
0000
,
1000
0100
0010
0000
0100
0000
1000
0000
,
0010
0100
0001
0000
0010
0100
0010
0100
,
1000
0000
0001
0000
0100
0010
0100
0000
,
0001
0000
0000
1000
0000
0001
0000
1000
0000
0000
0000
0000
0100
0000
0010
0000
,
0001
0000
0100
0000
0010
1000
0010
0000
,
1000
0000
0100
0000
0010
0001
0010
0001
,
0000
1000
0010
1000
0000
1001
0000
0220
,
0000
0000
0330
0000
0001
0000
1000
0000
0000
0000
0100
0000
0000
0010
0000
0000
,
0001
0100
0010
0000
0100
0000
0001
0000
,
0010
0100
1000
0000
0010
0100
0010
0100
,
0001
0000
1000
0000
0100
0010
0100
0000
,
1000
0000
0000
0001
0000
1000
0000
0001
0000
0000
0000
0000
0100
0000
0010
0000
,
1000
0000
0100
0000
1000
0001
1000
0000
,
0010
0000
0100
0000
0001
1000
0001
1000
,
0000
0100
0010
0001
0000
0100
0010
0000
,
1000
0000
0000
1000
0000
0000
0001
0000
0000
0001
0000
0000
1001
0000
0000
0000
,
1000
0000
0000
0100
0000
0000
0010
0000
0000
0000
0000
0000
0001
0000
0000
0000
,
0100
0000
0000
0000
0001
0000
0000
0000
1000
0000
0001
0000
0000
0001
0000
0000
,
0100
0000
0000
0010
0000
0000
1000
0000
0000
0000
0000
0000
0100
0000
0000
0000
,
1000
0000
0000
0000
0010
0000
0000
0000
0100
0000
0001
0000
0000
0001
0000
0000
,
1000
0000
0000
0100
0000
0000
0010
0000
0000
0000
0000
0000
0100
0000
0000
0000
,
1000
0000
0000
0000
0001
0000
0000
0000
1000
0000
0100
0000
0000
0100
0000
0000
,
0010
0000
0000
0001
0000
0000
1000
0000
0000
0000
0001
0000
0000
0000
1000
0000
,
0001
0001
0100
0100
,
0010
0010
1000
1000
,
0001
0100
0001
0000
1000
0010
1000
0000
,
0001
0010
0100
0000
1000
0010
0100
0000
,
0001
0000
0010
0000
0001
0000
0000
0000
1000
0000
0000
1000
0000
0000
0010
0000
,
1000
0000
0100
0000
1000
0000
0000
0000
0001
0000
0000
0001
0000
0000
0100
0000
,
0001
0000
1000
0000
0001
0000
0000
0000
0010
0000
0000
0010
0000
0000
0100
0000
,
1000
0000
0001
0000
1000
0000
0000
0000
0010
0000
0000
0010
0000
0000
0100
0000
,
0001
0000
1000
0000
0001
0000
0000
0000
0100
0000
0000
0100
0000
0000
0010
0000
,
1000
0000
0001
0000
1000
0000
0000
0000
0100
0000
0000
0100
0000
0000
0010
0000
,
0001
0000
1000
0000
0001
0000
0000
0000
0100
0000
0000
0100
0000
0000
0010
0000
,
1000
0000
0000
1000
0000
0000
0001
0000
0000
0001
0000
0000
1001
0000
0000
0000
,
1000
0000
0000
0010
0000
0000
0100
0000
0000
0000
0000
0000
0001
0000
0000
0000
,
0010
0000
0000
0000
0001
0000
0000
0000
1000
0000
0001
0000
0000
0001
0000
0000
,
0010
0000
0000
0100
0000
0000
1000
0000
0000
0000
0000
0000
0010
0000
0000
0000
,
1000
0000
0000
0000
0100
0000
0000
0000
0010
0000
0001
0000
0000
0001
0000
0000
,
1000
0000
0000
0010
0000
0000
0100
0000
0000
0000
0000
0000
0010
0000
0000
0000
,
1000
0000
0000
0000
0001
0000
0000
0000
1000
0000
0010
0000
0000
0010
0000
0000
,
0100
0000
0000
0001
0000
0000
1000
0000
0000
0000
0001
0000
0000
0000
1000
0000
,
0001
0001
0010
0010
,
0100
0100
1000
1000
,
0001
0010
0001
0000
1000
0100
1000
0000
,
0001
0100
0010
0000
1000
0100
0010
0000
,
0001
0000
0100
0000
0001
0000
0000
0000
1000
0000
0000
1000
0000
0000
0100
0000
,
1000
0000
0010
0000
1000
0000
0000
0000
0001
0000
0000
0001
0000
0000
0010
0000
,
0001
0000
1000
0000
0001
0000
0000
0000
0100
0000
0000
0100
0000
0000
0010
0000
,
1000
0000
0001
0000
1000
0000
0000
0000
0100
0000
0000
0100
0000
0000
0010
0000
,
0001
0000
1000
0000
0001
0000
0000
0000
0010
0000
0000
0010
0000
0000
0100
0000
,
1000
0000
0001
0000
1000
0000
0000
0000
0010
0000
0000
0010
0000
0000
0100
0000
,
0001
0000
1000
0000
0001
0000
0000
0000
0010
0000
0000
0010
0000
0000
0100
0000
,
1000
0000
0000
1000
0000
0000
0001
0000
0000
0001
0000
0000
1001
0000
0000
0000
,
1000
0100
0010
0000
0100
0000
1100
0000
,
0001
0100
0010
0000
0100
0000
0101
0000
,
1000
0010
0100
0000
0010
0000
1010
0000
,
0001
0010
0100
0000
0010
0000
0011
0000
,
1000
0010
0100
0000
0010
0000
0110
0000
,
0001
0010
0100
0000
0010
0000
1001
0000
,
1000
0100
0010
0000
0100
0000
0110
0000
,
0001
0100
0010
0000
0100
0000
1001
0000
;

//---------------dance-single - ----------------
#NOTEDATA:;
#CHARTNAME:;
#STEPSTYPE:dance-single;
#DESCRIPTION:;
#CHARTSTYLE:;
#DIFFICULTY:Easy;
#METER:4;
#RADARVALUES:0.265821,0.261419,0.015904,0.000000,0.003976,234.000000,232.000000,2.000000,0.000000,0.000000,0.000000,0.000000,0.000000,0.000000,0.265821,0.261419,0.015904,0.000000,0.003976,234.000000,232.000000,2.000000,0.000000,0.000000,0.000000,0.000000,0.000000,0.000000;
#CREDIT:;
#NOTES:
0000
0000
0000
0000
,
0000
0000
0000
0000
,
0000
0000
0000
0000
,
0000
0000
0000
0000
,
1000
0001
0000
1000
,
0010
1000
0000
0100
,
0010
0001
0000
0100
,
0010
0000
1000
0001
,
1000
1001
0000
0001
,
0010
0100
0000
1000
,
0010
0000
1000
0001
0000
1000
0000
0001
,
0000
0000
0000
0000
1000
0000
0010
0000
0000
0000
0100
0000
0000
0100
0000
0000
,
0001
0010
0001
0100
,
0010
1000
0100
0010
,
0001
0100
0001
0010
,
0100
0000
1000
0000
,
0001
1001
1000
0100
,
0010
0100
1000
0010
,
0100
0001
0010
0100
,
1000
0000
0000
0001
0000
0000
1000
0000
,
0001
0000
0000
0100
0000
0000
0010
0000
,
1000
0000
0100
0000
0010
0001
0000
0000
,
1000
0000
0000
0001
0000
0000
1000
0000
,
0010
0000
0100
0000
0001
1000
0000
0000
,
0001
0000
0000
1000
0000
0000
0001
0000
,
0010
0000
0100
0000
0010
0001
0000
0000
,
1000
0000
0000
0001
0000
1000
0000
0100
,
1000
1000
1000
1000
,
0001
0001
0001
0001
,
0010
0010
0100
0100
,
1000
1000
0001
0001
,
1000
0100
0001
0100
,
1000
0010
0100
0001
,
1000
0100
0010
0001
,
1000
0010
0001
0010
,
1000
0100
0010
0100
,
1000
0010
0100
0001
,
1000
0100
0010
0001
,
1000
0000
0000
0001
0000
0000
1000
0000
,
0001
0000
0000
0010
0000
0000
0100
0000
,
1000
0000
0010
0000
0100
0001
0000
0000
,
1000
0000
0000
0001
0000
0000
1000
0000
,
0100
0000
0010
0000
0001
1000
0000
0000
,
0001
0000
0000
1000
0000
0000
0001
0000
,
0100
0000
0010
0000
0100
0001
0000
0000
,
1000
0000
0000
0001
0000
1000
0000
0010
,
1000
1000
1000
1000
,
0001
0001
0001
0001
,
0100
0100
0010
0010
,
1000
1000
0001
0001
,
1000
0010
0001
0010
,
1000
0100
0010
0001
,
1000
0010
0100
0001
,
1000
0100
0001
0100
,
1000
0010
0100
0010
,
1000
0100
0010
0001
,
1000
0010
0100
0001
,
1000
0000
0000
0001
0000
0000
1000
0000
,
0001
0001
0010
0100
,
1000
1000
0010
0100
,
0001
0001
0010
0100
,
1000
1000
0010
0100
,
0001
1000
0100
0010
,
0001
1000
0010
0100
,
0001
1000
0100
0010
,
0001
1000
0010
0100
;

//---------------dance-single - ----------------
#NOTEDATA:;
#CHARTNAME:;
#STEPSTYPE:dance-single;
#DESCRIPTION:;
#CHARTSTYLE:;
#DIFFICULTY:Beginner;
#METER:2;
#RADARVALUES:0.137454,0.182993,0.000000,0.000000,0.000000,121.000000,121.000000,0.000000,0.000000,0.000000,0.000000,0.000000,0.000000,0.000000,0.137454,0.182993,0.000000,0.000000,0.000000,121.000000,121.000000,0.000000,0.000000,0.000000,0.000000,0.000000,0.000000,0.000000;
#CREDIT:;
#NOTES:
0000
0000
0000
0000
,
0000
0000
0000
0000
,
0000
0000
0000
0000
,
0000
0000
0000
0000
,
1000
0000
0001
0000
,
1000
0000
0001
0000
,
0100
0000
0010
0000
,
0100
0000
0010
0000
,
1000
0001
0000
0000
,
1000
0000
0001
0000
,
0010
0000
0000
0100
0000
0000
0000
0010
,
0000
0000
0000
0000
0000
0100
0000
0000
,
1000
0000
0001
0000
,
1000
0000
0001
0000
,
0100
0000
0010
0000
,
0100
0000
0010
0000
,
1000
0001
0000
0000
,
1000
0000
0001
0000
,
0010
0000
0100
0000
,
0010
0000
0000
0100
,
1000
0000
0000
0001
0000
0000
0000
0000
,
1000
0000
0001
0000
,
0010
0000
0000
0100
0000
0000
0000
0000
,
1000
0000
0001
0000
,
0100
0000
0000
0010
0000
0000
0000
0000
,
1000
0000
0001
0000
,
0010
0000
0000
0100
0000
0000
0000
0000
,
1000
0000
1000
0000
,
0001
0000
0001
0000
,
1000
0000
0001
0000
,
1000
0001
1000
0001
,
1000
0000
0100
0000
,
0010
0000
0001
0000
,
1000
0000
0010
0000
,
0100
0000
0001
0000
,
1000
0000
0100
0000
,
0010
0000
0001
0000
,
1000
0000
0010
0000
,
0100
0000
0001
0000
,
1000
0000
0000
0001
0000
0000
0000
0000
,
1000
0000
0001
0000
,
0010
0000
0000
0100
0000
0000
0000
0000
,
1000
0000
0001
0000
,
0100
0000
0000
0010
0000
0000
0000
0000
,
1000
0000
0001
0000
,
0010
0000
0000
0100
0000
0000
0000
0000
,
1000
0000
1000
0000
,
0001
0000
0001
0000
,
1000
0000
0001
0000
,
1000
0001
1000
0001
,
1000
0000
0100
0000
,
0010
0000
0001
0000
,
1000
0000
0010
0000
,
0100
0000
0001
0000
,
1000
0000
0100
0000
,
0010
0000
0001
0000
,
1000
0000
0010
0000
,
0100
0000
0001
0000
,
1000
0000
0000
0000
,
0010
0000
0000
0000
,
1000
0000
0000
0000
,
0010
0000
0000
0000
,
0100
0000
0000
0000
,
0001
0000
0000
0000
,
0100
0000
0000
0000
,
0001
0000
0000
1000
;
