#TITLE:Common World Domination;
#SUBTITLE:;
#ARTIST:Pinocchio-P feat. Hatsune Miku;
#TITLETRANSLIT:;
#SUBTITLETRANSLIT:;
#ARTISTTRANSLIT:;
#GENRE:;
#CREDIT:;
#BANNER:bn.png;
#BACKGROUND:bg.png;
#LYRICSPATH:;
#CDTITLE:;
#MUSIC:Common.ogg;
#OFFSET:0.004;
#SAMPLESTART:40.012;
#SAMPLELENGTH:12.000;
#SELECTABLE:YES;
#BPMS:0.000=150.010,60.000=75.005,61.500=150.010,62.000=150.010,118.000=75.005,122.000=150.010,170.000=75.005,186.000=150.010,242.750=150.010;
#STOPS:61.500=0.050
,61.625=0.050
,61.750=0.050
,61.875=0.050
,186.000=0.400
,255.000=2.000
;
#BGCHANGES:;
#KEYSOUNDS:;

//---------------dance-single - warpdr!ve (10)----------------
#NOTES:
     dance-single:
     warpdr!ve (10):
     Challenge:
     10:
     0.796,1.000,0.228,0.288,0.914:
0000
0000
0000
0000
,
0000
0000
0000
0000
,
1000
0000
0010
0100
0000
0000
0001
0000
1000
0000
0000
0100
0000
0010
0000
0000
,
0100
1000
0000
0001
0000
0100
0001
1000
0000
0100
0000
0010
0001
1000
0001
1000
,
0010
0000
0000
0100
0001
0000
1000
0000
0100
0000
0000
0010
0000
0000
0100
0000
,
1000
0000
0000
0001
0100
0000
0010
0000
0100
0000
0001
0010
1000
0010
0001
0000
,
1000
0000
0000
0010
0000
0000
0100
0001
0100
0000
0000
0010
0000
0000
1000
0000
,
0200
0000
0000
0000
0000
0000
0000
0000
0000
0000
0000
0000
0310
0001
0010
0001
,
1000
0010
0100
0001
1000
0000
0001
0000
1000
0000
0100
0000
0010
0000
0001
0000
,
0010
0000
0000
0010
1000
0000
0010
0000
0001
1000
0001
0100
0010
0000
1000
0000
,
0001
0010
0100
0010
0001
0000
1000
0000
0001
0000
0010
0000
0100
0000
1000
0000
,
0100
0000
0000
0100
0001
0000
0100
0000
1000
0000
0001
0000
0100
0010
0100
0001
,
1000
0100
0010
0100
1000
0000
0001
0000
0010
0000
0001
0000
0M00
00M0
M000
0000
,
1000
0010
0100
0001
0100
0000
0001
0000
1000
0000
0100
0000
00M0
0000
000M
0000
,
1000
0100
0010
0001
1000
0000
0001
0000
0010
0000
0100
0000
1000
0000
0001
0000
,
01M0
0001
0100
0001
1000
0010
1000
0010
0100
0001
1000
0010
1000
0001
1000
0001
1000
0000
0000
0000
0000
0000
0010
0000
0000
0000
0000
0000
0100
0000
0000
0000
,
0001
1000
0100
0010
0100
0000
1000
0001
0100
0000
0000
0010
0100
0001
1000
0000
,
0100
0000
0000
0000
000M
0000
00M0
0000
1000
0000
0000
0001
0000
0000
0100
0000
,
0010
1000
0001
1000
0100
0000
0010
0000
0001
0000
0000
1000
0000
0000
0010
0000
,
1000
0001
1000
0001
0010
0100
0010
0100
1000
0000
0000
0001
0100
0000
0010
0000
,
1000
0100
0010
0001
1000
0000
0010
1000
0001
0000
0000
0010
0100
0010
0001
0000
,
1000
0000
0020
0000
0230
0000
0302
0000
1003
0000
0100
0010
0100
0010
0001
0000
,
1000
0000
0010
0100
0010
0100
0001
0000
2000
0000
3200
0000
0320
0000
0230
0000
,
2300
0000
3000
000M
0000
0000
0000
0000
0002
0000
0000
0013
0001
0000
1000
0000
,
0001
0100
0010
1000
0001
0000
1000
0000
0200
0000
0000
0310
0100
0000
1000
0000
,
0001
0000
0100
0000
0001
0000
1000
0000
0200
0000
0000
0310
0001
0000
1000
0000
,
0010
0000
0100
0000
0010
1000
0001
0000
2000
0000
0000
3100
1000
0000
0001
0000
,
0200
0020
0330
1000
1001
0000
0000
0001
,
0011
0000
0000
0010
0011
0001
1000
0010
,
0100
0000
0010
0000
1000
0000
0001
0000
10M1
0M00
0000
00M0
0M00
1010
000M
0M00
,
0000
0000
1001
0000
0000
0011
0000
0000
1100
0000
0000
0000
0000
0000
1000
0100
0020
0000
0000
0000
0000
0000
0000
0000
0031
0000
0000
0000
0010
0000
0100
0000
,
2000
0000
0000
0000
3001
0000
1000
0010
0100
0000
0010
0000
1000
0000
0001
0000
,
0010
0000
1000
0000
0010
0000
0001
1000
0010
0000
1000
0000
0001
0000
1000
0001
,
0010
0001
1000
0001
0100
1000
0100
0010
,
1000
0000
0001
0000
0001
0000
0010
0001
1000
0000
0010
0000
0100
0000
0010
1000
,
0001
0000
0010
0000
0100
0000
1000
0001
0100
0000
0010
0000
1000
0000
1000
0000
,
1000
0000
1001
0000
1001
0000
0001
0010
2000
0000
0000
0000
0000
3000
1000
0010
,
0002
0000
0003
0000
0000
0000
0000
0000
1001
0000
0000
0000
0101
0000
0000
1010
,
0000
0000
1001
0000
1000
0100
0010
0000
0001
0000
0000
1000
0000
0000
0010
0000
,
0100
0000
0001
0000
1000
0000
1000
0000
0001
0000
0000
1000
0000
0000
0100
0000
,
0010
0000
0001
1000
0001
1000
0000
0000
0001
0000
0000
1000
0000
0000
0010
0000
,
1000
0000
0000
0001
0000
0010
0000
0000
0001
0000
1000
0010
0000
0010
1000
0000
,
0001
0000
0000
0000
0010
0000
0100
0000
0000
0000
0100
0000
0010
0000
0000
0000
0M01
0000
1000
0010
0100
0010
1000
0000
0001
0010
0100
1000
0000
0000
0001
0000
,
0100
0000
0010
0000
4000
0000
0000
0000
3001
0010
0100
1000
0000
0000
0010
0000
0100
0000
0001
1000
0100
1000
0001
0000
1000
0000
0010
1000
0000
1000
0000
0000
,
0100
0000
0010
0100
1000
0001
1000
0000
0010
0100
0010
0100
0000
0001
1000
0000
0100
2000
0000
3002
0000
0003
2000
0000
3001
0100
0000
0000
0010
0100
0000
0001
,
2000
0000
0000
0000
0000
0000
0000
0000
0000
0000
0000
0000
0000
0000
0000
0000
0000
0000
0000
0000
0000
0000
0000
0000
0000
0000
0000
0000
0000
0000
0000
0000
0000
0000
0000
0000
3000
0000
0000
0000
0000
0000
0100
0000
0000
0000
0000
0000
0000
0000
0000
0000
0000
0000
0010
0000
0000
0000
0000
0000
0000
0000
0000
0000
0000
0000
0000
0000
0000
0000
0000
0000
0001
0000
0000
0000
0000
0000
0001
0000
0000
0000
0000
0000
1000
0000
0000
0000
0000
0000
1000
0000
0000
0000
0000
0000
0010
0000
0000
0000
0000
0000
0100
0000
0000
0000
0000
0000
0010
0000
0000
0000
1000
0000
0000
0000
0001
0000
0000
0000
1000
0000
0000
0000
0000
0000
0100
0000
0000
0000
0000
0000
0010
0000
0000
0000
0000
0000
0001
0000
0000
0000
0000
0000
0000
0000
0000
0000
0000
0000
1000
0000
0000
0000
0000
0000
0000
0000
0000
0000
0000
0000
0001
0000
0000
0000
0000
0000
0100
0000
0000
0000
0000
0000
0010
0000
0000
0000
0000
0000
1000
0000
0000
0000
0000
0000
0010
0000
0000
0000
0000
0000
,
0200
0000
0000
0000
0000
0000
0301
0000
1000
0000
0001
0000
1000
0100
0010
0001
M000
0000
0M00
0000
00M0
0000
0M00
0000
1000
0000
0010
0000
1000
0000
0001
0000
,
0100
0010
0100
0001
1000
0100
0010
0000
0100
0000
1000
0000
1001
0000
0000
0000
,
0101
0000
0000
0000
1010
0000
0000
0000
1001
0000
0000
0000
0001
0010
0100
0010
,
0001
1000
0010
0100
0001
0010
0100
0020
0000
0000
0000
0000
0031
0000
1000
0000
,
0001
0000
1000
0000
0010
0000
0100
0001
1000
0000
0100
0000
1000
0001
0100
0010
,
0100
0001
1000
0001
1000
0100
0010
0000
0100
0000
0000
0000
1100
0000
0000
0000
,
1001
0101
1010
2000
,
3001
0100
0001
0100
0000
0020
0000
1030
,
0001
0000
0010
0000
0100
0000
0010
0001
1000
0000
0010
0000
0100
0000
0001
0000
,
1002
0000
0003
0000
1000
0000
0100
0000
1200
0000
0300
0000
1000
0001
0100
0010
,
0100
0000
0001
0000
0100
0000
0001
0000
0000
1000
0000
0000
0100
0000
0000
0010
0000
0000
0001
0000
0010
0000
0001
0000
0010
0000
0100
0000
0010
0000
0100
0000
0000
0000
0000
0000
1000
0000
0000
0000
0000
0000
0001
0000
0000
0100
0000
0000
,
0010
0000
0100
0000
0001
1000
0100
0000
0010
0100
1000
0000
0001
0000
0000
0100
,
0001
0000
1000
0000
0100
1000
0001
0000
0100
0001
1000
0000
0100
0000
0010
0001
,
1000
0000
0010
0100
0010
1000
0001
0000
1000
0001
0010
0000
0100
0000
0000
1000
,
0001
0000
1000
0000
0010
0200
0300
0002
0003
0200
0310
2000
3001
0000
0010
0000
,
0100
0000
0010
0001
1000
0000
0010
0000
0100
0000
0010
1000
0001
0000
0010
0000
,
0001
0000
0001
0000
0002
0000
0000
0000
0003
0000
1000
0010
0002
0000
0000
0000
,
0003
0000
0001
0010
2000
0000
3000
0000
0000
0000
0000
0000
0001
0000
0000
0000
,
1000
0100
0010
0100
1000
0000
0001
0000
1000
0000
0010
0000
0100
0010
0100
0000
,
0010
0000
0000
0010
0001
0000
0010
0000
1000
0100
0010
0001
1000
0000
0001
0000
,
1000
0010
0100
0001
0100
0000
0001
0000
1000
0000
0100
0010
0100
0000
1000
0000
,
0100
0000
0000
0100
0001
0000
0100
0000
1000
0000
0001
0000
1000
0010
0100
0010
,
1000
0001
1000
0100
0010
0000
0100
0000
1000
0000
0010
0000
000M
M000
000M
0000
,
0100
0010
0100
0001
1000
0000
0100
0000
0010
0000
0100
0000
000M
0000
M000
0000
,
0010
0001
1000
0100
1000
0000
0010
0000
0100
0000
0010
0100
0001
0000
1000
0000
,
1001
0000
0000
0011
0000
0000
1100
0000
0000
1001
0000
0000
0101
0000
0101
0000
,
0000
0000
0000
0002
2000
0000
0000
0000
0000
0000
0000
0000
0000
0000
0000
0000
,
0000
0000
0000
0000
,
0000
0000
0000
0000
,
0000
3003
0000
0000
;

//---------------dance-single - NOVICE----------------
#NOTES:
     dance-single:
     NOVICE:
     Beginner:
     2:
     0.093,0.114,0.008,0.023,0.000:
0000
0000
0000
0000
,
0000
0000
0000
0000
,
0000
0000
0000
0000
,
0000
0000
0000
0000
,
1000
0000
0000
0000
,
0001
0000
0000
0000
,
1000
0000
0000
0000
,
0002
0000
0000
0000
,
1003
0000
0000
0000
,
0010
0000
0000
0000
,
0100
0000
0000
0000
,
0001
0000
0000
0000
,
1000
0000
0000
0000
,
0100
0000
0000
0000
,
0010
0000
0000
0000
,
0001
0000
1000
0000
,
0000
0000
0010
0000
,
0000
0000
1000
0000
,
0000
0000
0010
0000
,
0000
0000
0100
0000
,
0000
0000
0001
0000
,
0000
0000
1000
0000
,
0001
0000
1000
0000
,
0001
0000
1000
0000
,
0000
0000
0100
0000
,
0000
0000
0010
0000
,
0000
0000
0100
0000
,
0000
0000
1000
0000
,
0000
0000
0001
0000
,
0000
0000
0100
0000
,
0000
0000
0010
0000
,
1000
0000
0010
0000
,
0000
0000
1000
0000
,
0001
0000
1000
0000
,
0000
0000
0001
0000
,
0010
0000
0001
0000
,
0000
0000
1000
0000
,
0001
0000
1000
0000
,
0000
0000
0010
0000
,
0000
0000
0100
0000
,
0000
0000
0001
0000
,
0000
0000
1000
0000
,
0000
0000
0100
0000
,
0000
0000
1000
0000
,
0000
0000
0001
0000
,
0100
0000
0001
0000
,
0100
0000
0000
0001
,
0000
0000
0000
1000
,
0000
1000
0000
0001
,
0000
0000
0000
0010
,
0000
0010
0000
0100
,
0000
0000
0000
1000
,
0000
1000
0000
0001
,
0000
0000
0000
0000
,
0000
0000
0000
0100
,
0000
0100
0000
0000
,
0000
0000
0000
0010
,
0000
1000
0000
0010
,
0000
0000
0000
1000
,
0000
0001
0000
1000
,
0000
0000
0000
0001
,
0000
0010
0000
0001
,
0000
0000
0000
1000
,
0000
0000
0000
0000
,
0001
0000
0000
0000
,
1000
0000
0000
0000
,
0010
0000
0000
0000
,
0100
0000
0000
0000
,
0001
0000
0000
0000
,
1000
0000
0000
0000
,
0001
0000
0000
0000
,
1000
0000
0000
0000
,
0000
2002
0000
0000
,
0000
0000
0000
0000
,
0000
0000
0000
0000
,
0000
3003
0000
0000
;

//---------------dance-single - warpdr!ve (4)----------------
#NOTES:
     dance-single:
     warpdr!ve (4):
     Easy:
     4:
     0.244,0.400,0.030,0.190,0.000:
0000
0000
0000
0000
,
0000
0000
0000
0000
,
0000
0000
0000
0000
,
0000
0000
0000
0000
,
1000
0010
1000
0000
,
0001
0010
0001
0000
,
1000
0000
0010
0000
,
0200
0000
0000
0000
,
0301
1000
0001
1000
,
0100
0000
0010
0000
,
0001
1000
0001
1000
,
0010
0000
0100
0000
,
0001
0010
0001
0000
,
1000
0010
1000
0000
,
0001
0100
0001
0000
,
1000
0100
0010
0000
,
0001
0000
1000
0010
,
1000
0000
0010
0000
,
0100
0000
0001
0000
,
2000
3200
0310
0000
,
0001
0000
1000
0001
,
1000
0000
0010
0000
,
0100
0000
0001
1000
,
0002
0000
0013
0000
,
0100
0010
0001
0000
,
1000
0000
0001
0000
,
0100
0010
1000
0000
,
0001
0000
1001
0000
,
1001
0000
1001
0000
,
1000
0000
0010
0000
,
0000
0000
0100
0001
,
0100
0001
1000
0010
,
1000
0000
0001
0010
,
0001
0010
0100
1000
,
0100
0000
1000
0001
,
1000
0010
1000
0010
,
0100
0000
0002
0003
,
0010
0000
0100
0000
,
0000
0000
1000
0000
,
0001
0100
0001
0000
,
1000
0100
0010
0000
,
0001
0000
1000
0001
,
1000
0001
2000
3020
,
0230
0302
0023
0230
,
2300
3020
0230
0302
,
2003
0000
3200
0320
,
0230
0000
0300
1000
,
0100
0001
0100
1000
,
0001
1000
0001
1000
,
0010
0001
0010
1000
,
0000
0001
0000
1000
,
0100
0001
0100
1000
,
0001
1000
0001
0200
,
0000
0000
0300
0000
0000
0020
0000
0000
,
0030
0000
0000
1000
,
0020
0130
0002
0013
,
0000
0100
0000
0000
0000
0000
1000
0000
,
0001
1000
0001
0100
,
0010
0100
0000
0001
,
1000
0001
1000
0100
,
1000
0100
0000
0010
,
0001
0010
0001
1000
,
0001
1000
0000
0010
,
0000
0100
0000
0010
,
1000
0001
0100
0001
,
1000
0000
0100
0000
,
0010
0100
1000
0100
,
0010
0000
0001
0000
,
1000
0010
1000
0000
,
0001
0010
0001
0000
,
1000
0010
1000
0000
,
0001
0000
0000
0100
0000
0000
0010
0000
,
0000
2002
0000
0000
,
0000
0000
0000
0000
,
0000
0000
0000
0000
,
0000
3003
0000
0000
;

//---------------dance-single - warpdr!ve (7-)----------------
#NOTES:
     dance-single:
     warpdr!ve (7-):
     Medium:
     7:
     0.361,0.371,0.099,0.167,0.061:
0000
0000
0000
0000
,
0000
0000
0000
0000
,
0000
0000
0000
0000
,
0000
0000
0000
0000
,
1000
0000
0000
0010
0000
0000
0100
0000
0001
0000
0000
1000
0000
0000
0100
0000
,
0010
0000
0000
0100
0000
0000
1000
0000
0001
0000
0000
0000
0000
0000
0000
0000
,
1000
0000
0000
0010
0000
0000
0100
0000
0010
0000
0000
1000
0000
0000
0001
0000
,
0020
0000
0000
0000
,
0031
1000
0001
0000
0100
0000
0010
0000
,
1000
0100
0001
0100
,
1000
0001
0100
0000
0010
0000
0100
0000
,
0001
0010
1000
0010
,
0001
1000
0010
0000
0100
0000
0101
0000
,
0001
1000
0100
0000
0010
0000
0110
0000
,
0100
1000
0001
0000
0100
0000
0010
0000
,
0100
0001
0100
0002
1003
0000
0100
0000
,
0010
0000
0100
0000
1000
0000
0001
0100
,
0010
0000
1000
0001
,
0010
0100
0010
0001
,
2000
3020
0130
0001
,
1000
0000
0100
0000
0010
0000
0100
1000
,
0001
0000
0101
0000
,
1010
0000
1000
0001
,
1000
0000
0100
0010
,
0100
1000
0001
0000
0100
0000
0010
0000
,
0100
0001
1000
0100
,
0010
0001
1000
0000
0001
0000
0100
0000
,
0110
0000
1010
0000
,
0101
0000
0001
1000
,
0001
0000
0000
0000
1000
0000
0000
0000
0100
0000
0000
0000
1000
0000
0001
0200
,
0000
0000
0320
1030
,
0020
0130
0010
1000
,
0001
0000
0010
0000
0100
0010
0100
0000
,
0100
1000
0100
0000
1000
0000
0001
0000
,
0100
0000
0001
0000
1000
0001
1000
0000
,
1000
0010
1000
0000
0001
0000
0100
0100
,
0100
0000
0110
0000
0020
0000
0000
0030
,
2000
0000
0000
0000
3000
0000
0000
0000
0001
0000
0000
0000
0010
0000
0000
0100
,
0000
0010
0001
1000
0020
0000
0000
0000
,
0031
0000
0020
0000
,
1030
0100
0020
0000
,
1030
0000
0020
0000
,
0031
0000
1000
0000
0001
0000
0000
0100
,
0010
0000
0000
0000
0000
0000
0000
0000
0000
0000
0000
0000
0000
0000
0000
0000
1000
0000
0000
0000
0000
0000
0000
0000
0000
0000
0001
0000
0000
1000
0000
0000
,
0010
0000
0000
0000
0000
0000
0000
0000
0100
0000
0000
0001
1000
0000
0100
0000
,
0010
0000
0000
0001
1000
0000
0000
0000
0010
0000
0000
1000
0000
0000
0001
0000
,
0020
0000
0000
0000
0030
0000
0001
0100
,
1000
0100
0001
0000
1000
0000
0100
0000
,
0100
0000
0100
0000
0100
0000
1000
0100
,
0001
0100
1000
0000
0001
0000
0100
0000
,
0010
0000
0100
0001
1000
0000
0001
0010
,
1000
0010
0001
0000
1000
0000
0010
0000
,
0010
0010
0010
0200
,
0001
0000
0300
0001
0000
2000
0000
0000
,
3100
0000
0010
0100
0010
0000
0001
0000
,
1001
1000
1001
0001
,
0200
0300
0000
0020
2030
3000
0001
0010
,
0001
0000
0001
1000
0001
0000
1000
0000
,
0010
0000
0001
0000
0010
0000
0100
0001
,
0100
0000
0100
0010
0100
0000
0001
0000
,
1000
0000
0100
0000
0000
0000
1000
0001
,
1000
0000
1000
0010
1000
0000
0001
0000
,
0010
0010
0010
0000
0000
0000
0011
0000
,
0000
1001
0000
0001
,
1000
0010
0100
0010
1000
0000
0001
0000
,
0010
0000
0000
0010
0100
0000
0000
0000
0100
0000
0000
0000
1000
0000
0000
0000
,
0001
0100
0010
0100
0001
0000
1000
0000
,
0100
0000
0000
0100
0010
0000
0000
0000
0010
0000
0000
0000
0001
0000
0000
0000
,
1000
0010
0100
0010
1000
0000
0000
0000
,
0001
0010
0100
0010
0001
0000
0000
0000
,
1000
0010
0100
0010
1000
0000
0001
0000
,
0010
0000
0000
0100
0000
0000
0010
0000
0000
0001
0000
0000
2000
0000
0000
0000
,
3000
2002
0000
0000
,
0000
0000
0000
0000
,
0000
0000
0000
0000
,
0000
3003
0000
0000
;

//---------------dance-single - warpdr!ve (9+)----------------
#NOTES:
     dance-single:
     warpdr!ve (9+):
     Hard:
     9:
     0.637,0.914,0.083,0.266,0.474:
0000
0000
0000
0000
,
0000
0000
0000
0000
,
0000
0000
0000
0000
,
0000
0000
0000
0000
,
1000
0000
0000
0010
0100
0000
0001
0000
1000
0000
0000
0100
0000
0000
1000
0000
,
0001
0000
0000
0100
0010
0000
0100
0000
0001
0000
1000
0100
1000
0100
1000
0000
,
0001
0000
0000
1000
0000
0000
0100
0010
0001
0000
0000
1000
0000
0000
0010
0000
,
0200
0000
0000
0000
0000
0000
0000
0000
0000
0000
0000
0000
0301
1000
0001
1000
,
0001
0000
0010
0100
0010
0000
0001
0000
1000
0000
0010
0000
0100
0000
0010
0000
,
0100
0000
0000
0100
0001
0000
1000
0000
0100
0000
0001
0000
0100
0000
1000
0000
,
0001
0000
0100
0010
0100
0000
0001
0000
1000
0000
0100
0000
0010
0000
0100
0000
,
1000
0000
0000
1000
0001
0000
0100
0000
0010
0000
0100
0000
0001
1000
0001
1000
,
0001
0000
0010
0100
0010
0000
0001
0000
1000
0000
0001
0000
0000
0000
0000
0000
,
1000
0000
0010
0100
0010
0000
0100
0000
0001
0000
1000
0000
0000
0000
0000
0000
,
0001
0000
0010
0100
0010
0000
0001
0000
1000
0000
0010
0000
0100
0000
0010
0000
,
1000
0001
1000
0001
0010
0100
0020
0230
1300
0000
0000
0001
0000
0000
0100
0000
,
0020
0000
0000
0000
1030
0000
0001
0000
1000
0000
0000
0100
0010
0000
0100
0000
,
1000
0000
0001
0100
0001
0000
1000
0100
,
0010
0100
1000
0001
0200
0000
0310
1000
,
0002
0000
0000
0000
0000
0000
0003
0000
0010
0000
0000
0100
0010
0000
0001
0000
,
1000
0000
0010
0100
0001
0000
0100
0000
0001
0000
0000
1000
0100
0000
0010
0000
,
0001
1000
0001
0100
0010
0000
0000
0100
,
0001
0000
0000
1000
0100
0010
0001
1000
,
0001
0000
0000
0000
0000
0000
0000
0000
0200
0000
0000
0301
1000
0000
0100
0000
,
0010
0001
0010
0001
1000
0000
0010
0000
0200
0000
0000
0310
1000
0000
0001
0000
,
1000
0000
0100
0000
0010
0000
0001
0000
2000
0000
0000
3010
1000
0000
0010
0000
,
0100
0000
0001
0000
1000
0001
0010
0000
0200
0000
0000
1300
0001
0000
1000
0000
,
0020
0000
0000
0130
0101
0000
0000
0001
,
1001
0000
0000
1000
1100
0100
0010
0001
,
1000
0000
0010
0000
0100
0000
0001
0000
1000
0000
0000
0000
0000
0100
0000
0000
,
0000
0000
1000
0000
0000
0100
0000
0000
0100
0000
0000
0000
0000
0000
1000
0001
2000
0000
0000
0000
0000
0000
0000
0000
3100
0000
0000
0000
1000
0000
0001
0000
,
2000
0000
0000
0000
3010
0000
1000
0001
1000
0000
0100
0000
0001
0000
0100
0000
,
1000
0000
0001
0000
0100
0000
0010
1000
0010
0000
0010
0000
0100
0000
0010
1000
,
0010
0010
1000
0010
0001
0010
1000
0001
,
1000
0000
0000
0000
0000
0000
0001
0010
0001
0000
0001
0000
1000
0000
0001
0010
,
0001
0001
0100
0001
1000
0010
1000
1000
,
1000
0000
0000
0100
0020
0000
0030
0100
,
2000
0000
3000
0000
0000
0000
0000
0000
0001
0000
0000
0000
0100
0000
0000
0010
,
0000
0000
0100
0000
0001
0000
1000
0000
0001
0000
0000
0100
0000
0000
0010
0000
,
1000
0000
0001
0000
0010
0000
0010
0000
0100
0000
0000
0010
0000
0000
0001
0000
,
1000
0000
0001
1000
0001
1000
0000
0000
0010
0000
0000
0100
0000
0000
0001
0000
,
1000
0000
0000
0100
0000
0010
0000
0000
0100
0000
1000
0100
0000
0100
1000
0000
,
0001
0000
0000
0000
1000
0000
0010
0000
0000
0000
0010
0000
1000
0000
0000
0000
0001
0000
0100
0000
0010
0000
0100
0000
0001
0000
0000
1000
0000
0000
0100
0000
,
2000
0000
3200
0000
0302
0000
0203
0000
1300
0000
0000
0001
0000
0000
0100
0000
0010
0000
1000
0001
1000
0000
0010
0000
0100
0000
0001
1000
0000
1000
0000
0000
,
0100
0000
1000
0000
0100
0000
0010
0000
0001
1000
0001
1000
0000
0000
0010
0000
0100
0000
0000
0001
0000
0000
1000
0000
0100
0000
0000
0000
1000
0100
0000
0100
,
2000
0000
0000
0000
0000
0000
3000
0001
0000
0001
0000
0000
0100
0010
0100
0010
1000
0000
0001
0000
0010
0000
0100
0000
0010
0000
0001
0000
1000
0000
0010
0000
,
0200
0000
0000
0301
1000
1000
0001
0001
0000
0000
0000
0000
0010
0001
0010
0100
,
1000
0001
1000
0010
0100
0010
1010
0000
,
1010
0000
0000
0000
0101
0000
0000
0000
0101
0000
0000
0000
0100
0001
0100
0010
,
1000
0000
0100
0000
0010
0000
0001
0020
0000
0000
0000
0000
0130
0000
1000
0000
,
0001
0000
1000
0000
0010
0000
1000
0001
0100
0000
0001
0000
0010
0001
0010
0100
,
0010
0001
1000
0010
0100
0000
0101
0000
,
0101
1010
1010
0020
,
1030
0001
1000
0001
0000
0200
0000
0301
,
1000
0000
0100
0000
0010
0000
0100
1000
0001
0000
0100
0000
0010
0000
1000
0000
,
0002
0003
0010
0001
0020
0031
0010
0100
,
1000
0000
0002
0000
0000
0000
0000
0000
0000
0000
0103
0010
0100
0000
0100
0000
,
0001
0000
0100
0010
0100
0000
0100
0000
0010
0000
0100
0000
0001
0000
0100
0000
,
1000
0000
0100
0000
0001
0000
1000
0000
0100
0000
0010
0001
0010
0000
0010
0000
,
0100
0000
0010
0001
0010
0000
0010
0000
0001
0000
1000
0000
0010
0000
0001
0000
,
0010
0000
1000
0000
0001
0020
0030
0200
0300
2000
3001
0200
0301
0000
0001
0000
,
1000
0000
0001
0100
0001
0000
0001
0000
0010
0000
0100
1000
0100
0000
1000
0000
,
0001
0001
0001
0000
0000
1000
0200
0000
,
0300
0010
0002
0003
0000
0000
1000
0000
,
0001
0000
0010
0100
0010
0000
0001
0000
1000
0000
0010
0000
0100
0000
0010
0000
,
0100
0000
0000
0100
0001
0000
1000
0000
0100
0000
0001
0000
0100
0000
1000
0000
,
0001
0000
0100
0010
0100
0000
0001
0000
1000
0000
0100
0000
0010
0000
0100
0000
,
1000
0000
0000
1000
0001
0000
0100
0000
0010
0000
0100
0000
0001
1000
0001
1000
,
0001
0000
0010
0100
0010
0000
0001
0000
1000
0000
0001
0000
0000
0000
0000
0000
,
1000
0000
0010
0100
0010
0000
0100
0000
0001
0000
1000
0000
0000
0000
0000
0000
,
0001
0000
0010
0100
0010
0000
0001
0000
1000
0000
0010
0000
0100
0000
0100
0000
,
0001
0000
0000
1000
0000
0000
0100
0000
0000
1000
0000
0000
0001
0000
1000
0000
,
0000
0000
0000
0002
0200
0000
0000
0000
0000
0000
0000
0000
0000
0000
0000
0000
,
0000
0000
0000
0000
,
0000
0000
0000
0000
,
0000
0303
0000
0000
;
