#TITLE:Bury It;
#SUBTITLE:(ft. Hayley Williams);
#ARTIST:CHVRCHES;
#TITLETRANSLIT:;
#SUBTITLETRANSLIT:;
#ARTISTTRANSLIT:;
#GENRE:;
#CREDIT:;
#BANNER:[Girls Week] - Bury It.png;
#BACKGROUND:[Girls Week] - Bury It-bg.png;
#LYRICSPATH:;
#CDTITLE:cdtitle.png;
#MUSIC:[Girls Week] - Bury It.ogg;
#OFFSET:0.000000;
#SAMPLESTART:76.349998;
#SAMPLELENGTH:19.200001;
#LASTBEATHINT:208.333328;
#SELECTABLE:YES;
#BPMS:0.000000=100.000000
;
#STOPS:
;
#BGCHANGES:;
#KEYSOUNDS:;
#ATTACKS:;

//---------------dance-single - ----------------
#NOTES:
     dance-single:
     :
     Easy:
     3:
     0.240085,0.283160,0.226685,0.187601,0.000000,215.000000,186.000000,29.000000,24.000000,0.000000,0.000000,0.240085,0.283160,0.226685,0.187601,0.000000,215.000000,186.000000,29.000000,24.000000,0.000000,0.000000:
0000
0000
0000
0000
,
0000
0000
0000
0000
,
1000
0010
0001
0010
,
1000
0010
0100
0100
,
0001
0100
1000
0100
,
0001
0100
0010
0010
,
1000
0100
0020
0000
,
0031
0001
1001
0000
,
0001
0010
0100
1000
,
1000
0010
0010
0000
,
2000
0100
3100
0010
,
0002
0100
0103
0010
,
0020
1030
0200
0000
,
0320
0031
0200
0001
,
0302
0010
0013
0100
,
2000
0010
3010
0100
,
0200
1000
0302
0000
,
0203
0001
2300
3100
,
0100
1010
0100
0011
,
0100
1001
0100
0010
,
0010
1100
0010
0101
,
0010
1001
0010
0100
,
0001
0001
0001
0110
,
1000
1000
1000
0200
,
0000
0010
0000
0010
,
0000
0010
0000
0310
,
0100
1000
0001
0100
,
0010
1000
0001
0010
,
0002
0010
0010
0000
,
2003
3100
0110
0000
,
0100
0010
0001
1000
,
0010
0100
0001
0000
,
2000
0010
3001
0100
,
0002
0010
1003
0100
,
0010
0010
2000
0000
,
3010
0010
0002
1003
,
0200
1000
0001
0310
,
0020
1000
0001
0130
,
1000
0010
0200
0000
,
0301
0100
0020
1030
,
0001
1010
0001
1100
,
0001
1010
0001
0110
,
1000
0011
1000
0101
,
1000
0011
1000
0110
,
0001
1001
1000
1001
,
0100
0110
0010
0110
,
1000
0011
0001
1100
,
1000
0101
0001
1010
,
1000
1000
1000
0110
,
0001
0001
0001
0110
,
0100
0100
0100
1001
,
0010
0010
0010
1001
;

//---------------dance-single - ----------------
#NOTES:
     dance-single:
     :
     Medium:
     5:
     0.375202,0.365382,0.117251,0.132884,0.125067,336.000000,321.000000,15.000000,17.000000,0.000000,0.000000,0.375202,0.365382,0.117251,0.132884,0.125067,336.000000,321.000000,15.000000,17.000000,0.000000,0.000000:
0000
0000
0000
0000
,
0000
0000
0000
0000
,
1100
0100
0010
0000
0101
0100
0010
0000
,
1010
0010
0100
0000
0001
0010
0100
1000
,
0011
0000
0010
0000
0100
0000
0000
0000
1001
0000
0000
0100
0000
0000
0010
0000
,
1000
0100
0010
0000
0001
0010
0100
1000
,
0001
0000
0000
0000
0001
0000
0010
0000
0100
0000
2000
0000
3001
0000
0000
0001
,
1000
0000
0000
1000
0100
0000
0000
0100
0010
0000
0000
0000
0110
0000
0000
0000
,
0001
0000
1000
0000
0010
0000
0100
0000
0001
0000
0010
0000
0100
0000
0000
0100
,
1000
0000
0000
1000
0001
0000
0000
0001
0010
0000
0000
0000
1001
0000
0000
0000
,
0010
1000
0020
0000
0100
0000
0001
0000
,
0130
0001
0200
0000
0010
0000
1000
0000
,
0310
1000
0001
0100
0002
0000
1000
0000
,
0013
0001
1000
0100
2000
0000
3001
0000
,
0010
0100
1000
0001
0010
0001
0020
0000
,
0100
0000
0001
0000
0130
1000
0200
0000
,
0310
0001
0010
0100
1000
0000
1010
0000
,
0100
1000
0100
0010
0001
0000
0101
0000
,
1000
0000
0010
0010
0001
0000
0010
0010
,
1000
0000
0100
0100
0000
0001
0100
0010
,
0001
0000
0100
0100
1000
0000
0100
0100
,
0001
0000
0010
0010
0000
1000
0010
0100
,
1000
0000
0000
1000
0001
0000
0000
0001
1000
0000
0000
1000
0001
0000
0010
0000
,
0100
0000
0000
0100
0010
0000
0000
0010
0100
0000
0000
0100
0010
0000
0000
0000
,
0002
0000
0010
1000
0000
0000
0100
1000
,
0000
0000
0100
1000
0013
0000
0110
0000
,
1001
0000
0100
0000
0010
0000
0000
0000
0110
0000
0000
0001
0000
0000
1000
0000
,
0001
0010
0100
0000
1000
0010
0100
0001
,
1001
0000
0000
0000
0010
0000
0001
0000
0010
0000
0100
0000
1000
0000
0000
1000
,
0001
0000
0000
0001
0100
0000
0000
0100
0010
0000
0000
0000
0110
0000
0000
0000
,
0001
0000
0010
0000
1000
0000
0010
0000
0001
0000
1000
0000
0100
0000
0000
0100
,
1000
0000
0000
1000
0010
0000
0000
0010
0001
0000
0000
0000
0110
0000
0000
0000
,
0001
0100
0020
0000
1000
0000
0001
0000
,
1030
0100
0020
0000
0001
0000
1000
0000
,
0031
0010
0100
1000
0200
0000
0001
0000
,
1300
0010
0100
0001
0020
0000
1000
0000
,
0031
0100
0010
0100
1000
0100
0002
0000
,
0010
0000
0100
0000
0013
0100
2000
0000
,
3001
0010
1000
0010
0002
0000
0100
0000
,
1003
0100
0001
0100
2000
0000
0010
0000
,
3001
0000
0010
0100
1000
0000
0010
0100
,
0001
0000
0010
0100
1000
0001
1000
0001
,
1000
0000
0100
0010
0001
0000
0100
0010
,
1000
0000
0100
0010
0001
1000
0001
1000
,
1000
0100
0010
0010
0001
0100
0010
0010
,
1000
0100
0010
0010
0001
0010
0100
1000
,
0001
0010
0100
0100
1000
0010
0100
0100
,
0001
0010
0100
0100
1000
0010
0100
0001
,
1000
0000
0000
0010
0100
0000
0000
0010
1000
0000
0000
0010
0100
0000
0001
0000
,
0001
0000
0000
0010
0100
0000
0000
0010
0001
0000
0000
0010
0100
0000
0000
0000
,
1000
0000
0000
0100
0010
0000
0000
0001
0100
0000
0000
0010
1000
0000
0001
0000
,
0001
0000
0000
0010
0100
0000
0000
1000
0010
0000
0000
0100
0002
0000
0000
0003
;

//---------------dance-single - ----------------
#NOTES:
     dance-single:
     :
     Beginner:
     1:
     0.125067,0.161806,0.054717,0.093801,0.000000,112.000000,105.000000,7.000000,12.000000,0.000000,0.000000,0.125067,0.161806,0.054717,0.093801,0.000000,112.000000,105.000000,7.000000,12.000000,0.000000,0.000000:
// measure 0
0000
0000
0000
0000
,  // measure 1
0000
0000
0000
0000
,  // measure 2
1000
0000
1000
0000
,  // measure 3
0001
0000
0010
0000
,  // measure 4
0001
0000
0001
0000
,  // measure 5
1000
0000
0100
0000
,  // measure 6
1000
0000
0010
0000
,  // measure 7
0100
0000
0001
0000
,  // measure 8
0010
0000
0001
0000
,  // measure 9
1000
0000
0100
0000
,  // measure 10
2000
0000
3010
0000
,  // measure 11
0002
0000
0013
0000
,  // measure 12
2000
0000
3100
0000
,  // measure 13
0002
0000
0103
0000
,  // measure 14
0020
0000
0031
0000
,  // measure 15
0200
0000
0301
0000
,  // measure 16
0200
0000
1300
0000
,  // measure 17
0020
0000
1030
0000
,  // measure 18
0000
0010
0000
0010
,  // measure 19
0000
0010
0000
1001
,  // measure 20
0000
0100
0000
0100
,  // measure 21
0000
0100
0000
1001
,  // measure 22
1000
1000
1000
0000
,  // measure 23
0001
0001
0001
0000
,  // measure 24
0100
0000
0000
0000
,  // measure 25
0100
0000
0000
0000
,  // measure 26
1000
0000
0001
0000
,  // measure 27
0100
0000
0010
0000
,  // measure 28
0001
0000
0010
0000
,  // measure 29
1000
0000
0001
0000
,  // measure 30
1000
0000
0100
0000
,  // measure 31
0001
0000
0100
0000
,  // measure 32
0020
0000
0031
0000
,  // measure 33
0200
0000
1300
0000
,  // measure 34
0100
0000
0010
0000
,  // measure 35
0010
0000
0100
0000
,  // measure 36
0002
0000
0013
0000
,  // measure 37
2000
0000
3100
0000
,  // measure 38
0001
0000
1000
0000
,  // measure 39
1000
0000
0001
0000
,  // measure 40
0000
1000
0000
1000
,  // measure 41
0000
1000
0000
0110
,  // measure 42
0000
0001
0000
0001
,  // measure 43
0000
0001
0000
0110
,  // measure 44
0000
0010
0000
0010
,  // measure 45
0000
0010
0000
1001
,  // measure 46
0000
0100
0000
0100
,  // measure 47
0000
0100
0000
1001
,  // measure 48
0100
0100
0100
0000
,  // measure 49
0010
0010
0010
0000
,  // measure 50
1000
1000
1000
0000
,  // measure 51
0001
0001
0001
1001
;

//---------------dance-single - ----------------
#NOTES:
     dance-single:
     :
     Hard:
     8:
     0.537120,0.548074,0.132884,0.109434,0.805122,481.000000,464.000000,17.000000,14.000000,0.000000,0.000000,0.537120,0.548074,0.132884,0.109434,0.805122,481.000000,464.000000,17.000000,14.000000,0.000000,0.000000:
0000
0000
0000
0000
,
0000
0000
0000
0000
,
0100
0000
0000
1000
0000
0100
0010
0000
0001
0000
0000
0001
0000
0100
0010
0000
,
1000
0000
0000
0001
0000
0100
0001
0000
0010
0000
0001
0000
1000
0000
0100
0000
,
0010
0000
0000
0001
0000
0010
0100
0000
1000
0000
0000
1000
0000
0000
0010
0100
,
0001
0000
0000
1000
0000
0010
1000
0000
0001
1000
0001
1000
0010
0000
0100
0000
,
0001
0000
0000
0001
0010
0100
0000
1000
0000
0001
0100
0000
1000
0000
0000
1000
,
0100
0000
0000
0100
0001
0000
0000
0001
0010
0000
0100
0000
0110
0000
0000
0000
,
0001
0000
0010
1000
0010
0000
0001
0000
0100
0000
0010
0000
1000
0000
0000
0100
,
1000
0000
0000
0001
0100
0000
0000
0010
1000
0000
0000
0000
0001
0100
0001
0100
,
0010
0000
1000
0000
0200
0000
0000
0000
0001
0000
0000
1300
0000
0001
1000
0001
,
0010
0000
0001
0000
0200
0000
0000
0000
1000
0000
0000
0301
0000
0001
0000
1000
,
0010
1000
0010
1000
0001
0000
0001
0200
0000
0000
0301
0000
1001
0000
0000
0000
,
0010
0001
0010
0001
1000
0000
1000
0200
0000
0000
0310
0000
0110
0000
0010
0100
,
0000
1000
0000
0000
1000
0100
1000
0100
0010
0000
0001
0000
0200
0000
0000
0000
,
1000
0000
0300
0001
0000
0100
0010
0100
0010
1000
0100
0000
0200
0000
0000
0000
,
1300
0100
1000
0100
0010
0000
0010
0002
0000
0000
0103
0000
0110
0000
0000
0000
,
0001
0100
0001
0100
0010
0000
0010
2000
0000
0000
3100
0000
0110
0000
0000
0010
,
0100
0000
0000
0010
0000
0001
0010
0000
0100
0000
0000
0010
0000
1000
0010
0000
,
0100
0000
0000
0010
0000
0001
0010
0000
0100
0000
1000
0001
0000
1000
0001
0000
,
0100
0000
0000
0010
0000
1000
0010
0000
0100
0000
0000
0010
0000
0001
0010
0000
,
0100
0000
0000
0010
0000
1000
0010
0000
0100
0000
0001
0010
0000
0100
1000
0000
,
0001
0010
0000
0010
1000
0010
0000
0010
0001
0010
0000
0010
1000
0010
0001
0100
,
1000
0100
0000
0100
0001
0100
0000
0100
1000
0100
0000
0100
0001
1000
0001
1000
,
0200
0000
0000
0010
0000
0000
0001
0000
0000
0000
0000
0010
0000
0000
1000
0000
,
0000
0000
0000
0010
0000
0000
0001
0000
0310
0000
0001
0000
1000
0000
0100
0000
,
0010
0000
0000
1000
0000
0010
0100
0000
1000
0000
0000
0100
0000
0000
0100
0010
,
0001
0000
0000
1000
0000
0010
0100
0000
0010
1000
0001
0100
0001
0000
1000
0000
,
0001
0000
0000
1000
0010
0100
0000
0001
0000
1000
0100
0000
0001
0000
0000
0001
,
0100
0000
0000
0100
1000
0000
0000
1000
0010
0000
0100
0000
0110
0000
0000
0000
,
1000
0000
0100
0001
0100
0000
0010
0000
0001
0000
0100
0000
0010
0000
0000
1000
,
0010
0000
0000
0100
0001
0000
0000
0010
0100
0000
0000
0000
0010
0100
0010
0100
,
2000
0000
3100
0000
0011
0000
0000
0000
0101
0000
0000
0001
0000
0100
0001
1000
,
0002
0000
0103
0000
1010
0000
0000
0000
1100
0000
0000
1000
0000
1000
0000
0100
,
0010
0001
0010
0001
1000
0000
0010
0200
0000
0000
0301
0000
1001
0000
0000
0000
,
0010
1000
0010
1000
0001
0000
0010
0100
0000
0000
1000
0000
1001
0000
0010
0001
,
0000
0100
0000
0000
0001
0100
0001
0100
0020
0000
1030
0000
1001
0000
0000
0000
,
0110
0000
0000
1000
0000
0100
1000
0100
0010
0001
1000
0000
1001
0000
0000
0000
,
0100
0001
0100
0001
0010
0000
0100
2000
0000
0000
3001
0000
0110
0000
0000
0000
,
1000
0100
1000
0100
0010
0000
0001
0100
0000
0000
0001
0000
1001
0000
0000
0100
,
0001
0000
0000
0010
0000
1000
0010
0000
0001
0000
0000
0100
0000
1000
0100
0000
,
0001
0000
0000
0010
0000
1000
0010
0000
0001
0000
1000
0001
0000
1000
0001
0000
,
1000
0000
0000
0010
0000
0001
0010
0000
1000
0000
0000
0100
0000
0001
0100
0000
,
1000
0000
0000
0010
0000
0001
0010
0000
1000
0000
0010
0100
0000
0010
0100
0000
,
0001
0010
0001
0010
0000
0100
1000
0000
1000
0010
1000
0010
0000
0100
0001
0000
,
0001
0100
0001
0100
0000
0010
1000
0000
1000
0000
0001
0010
0000
0100
1000
0000
,
0001
0100
0001
0010
0000
0100
1000
0000
1000
0100
1000
0010
0000
0100
0001
0000
,
0100
0001
1000
0010
0000
0100
0010
0000
1000
0000
0100
0010
0000
0001
1000
0000
,
1000
0100
0000
0100
0001
0100
0000
0100
1000
0100
0000
0100
0001
0100
1000
0010
,
0001
0010
0000
0010
1000
0010
0000
0010
0001
0010
0000
0010
1000
0001
1000
0000
,
0001
0010
0000
0010
1000
0010
0000
0010
0001
0010
0000
0010
1000
0010
0001
0100
,
1000
0100
0000
0100
0001
0100
0000
0100
1000
0100
0000
0100
0001
0010
0001
0010
;
