#TITLE:Big Boss;
#SUBTITLE:;
#ARTIST:Big Boss;
#TITLETRANSLIT:;
#SUBTITLETRANSLIT:;
#ARTISTTRANSLIT:;
#CREDIT:;
#BANNER:Big Boss-bn.png;
#BACKGROUND:Big Boss-bg.png;
#LYRICSPATH:;
#CDTITLE:cd.png;
#MUSIC:Big Boss.mp3;
#OFFSET:-5.972;
#SAMPLESTART:67.790;
#SAMPLELENGTH:12.000;
#SELECTABLE:YES;
#BPMS:0.000=163.010;
#STOPS:48.000=2.577
;
#BGCHANGES:;

//---------------dance-single - ----------------
#NOTES:
     dance-single:
     :
     Hard:
     8:
     0.623,0.573,0.526,0.282,0.038:
1000
0000
0001
0000
1001
0000
1000
0001
,
2000
3010
2020
3030
,
0002
0003
0002
0003
0002
0003
0002
0003
,
0002
1000
1000
1003
,
1000
0010
1000
0010
0100
0001
0010
0000
,
0001
0010
0100
0010
0001
1000
0010
0000
,
0010
1000
0100
0010
0001
0010
0001
0000
,
0001
0100
0010
0100
0001
0100
0010
0000
,
0010
0100
0010
1000
0010
0100
0010
0000
,
1000
0100
1000
0100
0010
0001
1000
0000
,
2002
0000
3003
0110
0000
0000
0011
0000
,
2200
0000
3300
1001
0000
0000
0010
0000
,
1001
0000
1001
0000
0110
0000
0010
1000
,
0000
0100
0000
0110
0000
1001
0000
0001
,
0010
0100
0010
0000
0110
0000
0001
0010
,
0000
0011
0000
1100
0000
0110
0000
1000
,
0010
0100
0001
0000
1010
0000
0100
0010
,
0000
0001
0000
0101
0000
0110
0000
0010
,
1000
0100
1000
0000
0010
0000
0100
0010
,
0000
1001
0000
0110
0000
1001
0000
0010
,
0100
0000
0020
0030
0020
0030
0020
0030
,
0010
0100
0010
0100
0020
0000
0030
0000
0020
0000
0030
0000
2002
0000
0000
0000
,
3003
0000
0200
0300
0200
0300
0200
0300
,
0100
0010
0100
0010
0200
0000
0300
0000
0200
0000
0300
0000
0220
0000
0000
0000
,
0330
0000
1001
0000
0110
0000
0010
1000
,
0100
0000
0000
0000
0010
0001
0000
0001
0010
0000
0100
0000
1000
0000
0010
0000
,
0100
0001
0010
0000
0011
0000
0100
0010
,
0001
0000
0010
1000
0010
1000
0020
0000
,
0130
0000
1001
0000
0110
0000
0001
0010
,
0100
0000
0000
0000
0100
1000
0000
1000
0010
0000
0100
0000
0001
0000
0010
0000
,
0100
1000
0010
0000
0110
0000
0001
1000
,
0100
0000
0100
0010
0001
0010
0002
0000
,
0013
0110
0001
1000
,
0010
0000
0010
0100
0001
0010
0100
1000
,
0010
0000
1010
0000
0101
0000
0010
0100
,
0010
0000
1010
0000
0110
0000
0001
0010
,
0001
0000
0001
0010
0100
1000
0010
0100
,
0001
1000
0010
1000
0100
0010
0100
0010
,
0100
0000
0110
0000
1001
0000
0010
0100
,
0010
0000
0010
1000
0001
1000
0002
0000
,
1003
0000
1001
1000
0010
1000
0100
1000
,
0010
1000
0100
1000
0010
1000
0100
1000
,
0010
1000
0100
0010
0001
0100
0010
1000
,
0001
0010
0001
0100
0001
1000
0010
0100
,
0001
0010
0001
0010
0100
0010
0001
0010
,
0100
0010
0001
0100
0010
0100
0001
0100
,
0010
0100
0001
1000
0100
1000
0010
1000
,
0001
1000
0100
0010
0001
0100
0010
0010
,
0010
0000
0010
1000
0100
1000
0010
0100
,
0010
0000
1000
0001
0100
0010
0100
0001
,
0001
0000
0100
0010
1000
0100
0010
0001
,
1000
0010
0100
0001
1000
0010
0100
0001
,
1000
0000
0100
0010
0001
0100
0010
1000
,
0100
0000
0010
1000
0001
0100
0010
0100
,
0001
0000
0001
0100
0010
1000
0100
0010
,
0001
0100
0010
1000
0001
0010
0100
0010
,
0100
1001
1001
0110
,
0110
0011
0011
1100
,
0010
1000
0010
0000
0010
0000
0100
0000
,
0100
0000
0010
0100
0010
0100
0010
0100
,
0010
0110
0110
1001
,
1001
0011
0011
1100
,
1100
0000
0010
0000
0010
0000
0100
0010
,
0000
1001
0000
0110
0000
1001
0000
0010
,
0200
0300
0000
0000
;

//---------------dance-single - ----------------
#NOTES:
     dance-single:
     :
     Easy:
     4:
     0.432,0.511,0.488,0.206,0.000: // measure 1
1000
0010
1010
0100
,  // measure 2
0001
0010
0002
0000
,  // measure 3
1003
1000
1000
1000
,  // measure 4
0010
1010
2020
3030
,  // measure 5
0001
1000
0010
0100
,  // measure 6
0001
1000
0010
1000
,  // measure 7
0100
0010
0001
0100
,  // measure 8
0010
0110
0001
1001
,  // measure 9
1000
0100
1000
0010
,  // measure 10
0100
0001
1000
0010
,  // measure 11
1000
0000
0000
0001
0000
0000
1000
0000
,  // measure 12
0010
0000
0000
0100
0000
0000
0010
0000
,  // measure 13
1001
0110
1001
0001
,  // measure 14
1000
0010
0100
0001
,  // measure 15
0010
0100
0110
0001
,  // measure 16
1000
0010
0100
0001
,  // measure 17
1000
1010
1010
0100
,  // measure 18
0001
0010
0100
1000
,  // measure 19
0001
0010
1001
0100
,  // measure 20
1000
0010
0100
0001
,  // measure 21
1000
0002
2003
3002
,  // measure 22
2003
3020
0230
0320
,  // measure 23
0000
0230
0302
0203
,  // measure 24
0320
2030
3200
0320
,  // measure 25
0030
0001
1000
0010
,  // measure 26
1000
1010
1010
0101
,  // measure 27
0101
0010
0100
0001
,  // measure 28
0010
0100
1000
0002
,  // measure 29
1003
0010
1000
0200
,  // measure 30
0310
1001
0110
1010
,  // measure 31
0101
0200
0310
0001
,  // measure 32
1000
0010
0100
0002
,  // measure 33
1003
0010
0010
0100
,  // measure 34
0100
0010
0100
0010
,  // measure 35
0100
0110
0110
0110
,  // measure 36
0110
1001
1001
1001
,  // measure 37
1001
0001
1000
0001
,  // measure 38
1000
0001
1000
0001
,  // measure 39
1000
1100
1100
0011
,  // measure 40
0011
1100
0011
1100
,  // measure 41
0011
0001
0001
1000
,  // measure 42
1000
0001
0001
1000
,  // measure 43
1000
0010
0100
0001
,  // measure 44
0010
0100
1000
0010
,  // measure 45
0100
0010
0010
0100
,  // measure 46
0100
0001
0001
1000
,  // measure 47
1000
0001
0010
0100
,  // measure 48
1000
0010
0100
0001
,  // measure 49
0000
1000
0001
1000
,  // measure 50
0010
0100
0001
0010
,  // measure 51
0100
1000
0010
0100
,  // measure 52
0001
0010
0100
2000
,  // measure 53
3000
0001
0001
1000
,  // measure 54
1000
0001
1000
0001
,  // measure 55
1000
0010
0100
0001
,  // measure 56
0010
0100
1000
0010
,  // measure 57
0000
0010
0010
0010
,  // measure 58
0010
0110
0110
0110
,  // measure 59
0110
0100
0100
0100
,  // measure 60
0100
0110
0110
0110
,  // measure 61
0110
0001
0001
0001
,  // measure 62
0001
1001
1001
1001
,  // measure 63
1001
1000
1000
1000
,  // measure 64
1000
1001
0110
1001
,  // measure 65
0110
0000
0000
0000
;

//---------------dance-single - ----------------
#NOTES:
     dance-single:
     :
     Medium:
     6:
     0.460,0.422,0.413,0.113,0.000:
1000
0000
0010
0000
1010
0000
0010
1000
,
0010
1000
0002
0000
,
1003
0010
1000
0010
,
1000
0010
2020
3030
,
0010
0000
1000
0000
0001
0100
0010
0000
,
0100
0000
0001
0000
0010
0100
1000
0000
,
0010
0000
0100
0000
0001
0010
0100
0000
,
1000
0001
1000
1001
,
0010
0000
0100
0000
0001
0010
0100
0000
,
1000
0000
0010
0000
0100
0010
0100
0000
,
0110
0000
0000
0001
0000
0000
1000
0000
,
0011
0000
0000
0100
0000
0000
1000
0000
,
1001
0000
1000
0000
0010
0000
1000
0001
,
0000
0100
0000
0010
0000
0110
0000
0001
,
1000
0001
1000
0000
0010
0000
0010
0001
,
0000
0010
0000
0100
0000
0110
0000
0001
,
1000
0010
1000
0000
0010
0000
0100
0001
,
0000
0110
0000
1001
0000
0100
0000
0010
,
0001
1000
0001
0000
0100
0000
0010
0100
,
0000
0010
0000
0010
0000
0010
0000
0100
,
0010
0100
0100
0100
,
0001
0100
0010
0000
0100
0000
2001
0000
,
0000
3001
0010
0100
,
1000
0010
1000
0000
0010
0000
0210
0000
,
0000
0000
0301
0000
1000
0000
0010
1000
,
0010
0100
0001
0010
,
0100
0000
1000
0000
0010
0000
0100
0001
,
0100
0101
0101
1010
,
1010
0000
0100
0000
0010
0000
0100
0001
,
0100
0010
1000
0100
,
0010
0000
0001
0000
0100
0000
0010
1000
,
0010
0110
0110
1001
,
1001
0002
1000
0010
,
0100
0003
0000
0000
0000
0000
0000
0000
0000
0000
0000
0000
0000
0000
0000
0000
0000
0000
0000
0000
0000
0000
0000
0000
0000
0000
0000
0000
0000
0000
0000
0000
0000
0000
0000
0000
0000
0000
0000
0000
0000
0000
0000
0000
0000
0000
0000
0000
2000
0000
0000
0000
0000
0000
0000
0000
0000
0000
0000
0000
0000
0000
0000
0000
0000
0000
0000
0000
0000
0000
0000
0000
0000
0000
0000
0000
0000
0000
0000
0000
0000
0000
0000
0000
0000
0000
0000
0000
0000
0000
0000
0000
0000
0000
0000
0000
0010
0000
0000
0000
0000
0000
0000
0000
0000
0000
0000
0000
0000
0000
0000
0000
0000
0000
0000
0000
0000
0000
0000
0000
0000
0000
0000
0000
0000
0000
0000
0000
0000
0000
0000
0000
0000
0000
0000
0000
0000
0000
0000
0000
0000
0000
0000
0000
0001
0000
0000
0000
0000
0000
0000
0000
0000
0000
0000
0000
0000
0000
0000
0000
0000
0000
0000
0000
0000
0000
0000
0000
0000
0000
0000
0000
0000
0000
0000
0000
0000
0000
0000
0000
0000
0000
0000
0000
0000
0000
0000
0000
0000
0000
0000
0000
,
3100
0010
0010
0110
,
0110
0100
0100
0110
,
0110
0200
0010
0001
,
0310
0002
1000
0010
,
1003
1010
0101
0010
,
0100
0000
0001
0100
0010
0100
0001
0000
,
0100
0000
0010
1000
0010
0000
0100
0000
,
0001
0000
0010
0100
0010
0000
0001
0000
,
0100
0000
0010
0100
0010
0000
0100
0001
,
0100
0010
0100
0110
,
1001
0000
0100
1000
0010
0000
0100
0000
,
0010
0000
0100
0001
0010
0000
0001
0000
,
1000
0000
0010
0100
0010
0000
0001
1000
,
0001
1000
0010
0100
,
0001
0000
1000
0010
0000
0100
0000
0010
,
0000
0110
0000
0110
0000
1001
0000
1001
,
0000
0001
1000
0010
0000
0010
0000
0100
,
0000
0010
0000
0100
0000
0110
0000
0001
,
0100
0000
0010
0100
0000
0101
0000
1010
,
0000
0100
1000
0010
0000
0101
0000
1010
,
0000
0001
0010
0100
0000
1000
0000
1000
,
0000
0010
0000
0110
0000
2002
0000
0000
,
0003
3000
0000
0000
0000
0000
0000
0000
0000
0000
0000
0000
0000
0000
0000
0000
0000
0000
0000
0000
0000
0000
0000
0000
0000
0000
0000
0000
0000
0000
0000
0000
0000
0000
0000
0000
0000
0000
0000
0000
0000
0000
0000
0000
0000
0000
0000
0000
0010
0000
0000
0000
0000
0000
0000
0000
0000
0000
0000
0000
0000
0000
0000
0000
0000
0000
0000
0000
0000
0000
0000
0000
0000
0000
0000
0000
0000
0000
0000
0000
0000
0000
0000
0000
0000
0000
0000
0000
0000
0000
0000
0000
0000
0000
0000
0000
0100
0000
0000
0000
0000
0000
0000
0000
0000
0000
0000
0000
0000
0000
0000
0000
0000
0000
0000
0000
0000
0000
0000
0000
0000
0000
0000
0000
0000
0000
0000
0000
0000
0000
0000
0000
0000
0000
0000
0000
0000
0000
0000
0000
0000
0000
0000
0000
0001
0000
0000
0000
0000
0000
0000
0000
0000
0000
0000
0000
0000
0000
0000
0000
0000
0000
0000
0000
0000
0000
0000
0000
0100
0000
0000
0000
0000
0000
0000
0000
0000
0000
0000
0000
0000
0000
0000
0000
0000
0000
0000
0000
0000
0000
0000
0000
,
0000
0010
0000
1010
0000
1010
0000
0010
,
0100
0000
0001
0000
0010
0000
0100
0010
,
0000
0001
0000
0010
0000
1000
0000
0001
,
1000
0000
0010
0000
0100
0000
0010
0100
,
0000
1001
0000
0110
0000
1001
0000
0001
,
1000
0000
0010
0000
0100
0000
0001
0100
,
0000
0010
0000
0010
0000
0010
0000
0100
,
0020
0030
0000
0000
;

//---------------dance-single - ----------------
#NOTES:
     dance-single:
     :
     Beginner:
     2:
     0.182,0.209,0.066,0.056,0.000: // measure 1
0010
0000
0000
0000
,  // measure 2
0100
0000
0000
0000
,  // measure 3
0020
0000
0000
0000
,  // measure 4
0230
0000
0000
0000
,  // measure 5
0301
0000
1000
0000
,  // measure 6
0001
0000
1000
0000
,  // measure 7
0010
0000
0100
0000
,  // measure 8
0010
0000
0100
0000
,  // measure 9
0001
0000
1000
0000
,  // measure 10
0001
0000
1000
0000
,  // measure 11
1001
0000
0000
0000
,  // measure 12
0000
0000
0000
0000
,  // measure 13
0100
0010
0010
0010
,  // measure 14
0000
0100
0100
0100
,  // measure 15
0000
0001
0001
0001
,  // measure 16
0000
1000
1000
1000
,  // measure 17
0000
0001
0001
0001
,  // measure 18
0000
1000
1000
1000
,  // measure 19
0000
0010
0010
0010
,  // measure 20
0000
0100
0100
0100
,  // measure 21
0000
0010
0010
0010
,  // measure 22
0010
0010
0000
0000
,  // measure 23
0000
0100
0100
0100
,  // measure 24
0100
0100
0000
0000
,  // measure 25
0000
1001
0000
0000
,  // measure 26
0000
0010
0000
0100
,  // measure 27
0000
0020
0000
0000
,  // measure 28
0000
0230
0000
0000
,  // measure 29
0000
0301
0000
0000
,  // measure 30
0000
1000
0000
0001
,  // measure 31
0000
1001
0000
0000
,  // measure 32
0000
0100
0000
0010
,  // measure 33
0000
1000
0000
0001
,  // measure 34
0000
1000
0000
0001
,  // measure 35
0000
1010
0000
0000
,  // measure 36
0000
0101
0000
0000
,  // measure 37
0000
0010
0000
0100
,  // measure 38
0000
0001
0000
1000
,  // measure 39
0000
1001
0000
0000
,  // measure 40
0000
0010
0010
0010
,  // measure 41
0000
0100
0000
0010
,  // measure 42
0000
0100
0000
0001
,  // measure 43
0000
1000
0000
0010
,  // measure 44
0000
1000
0010
1000
,  // measure 45
0000
0010
0000
0100
,  // measure 46
0000
0001
0000
1000
,  // measure 47
0000
0001
0000
0010
,  // measure 48
0000
0100
0100
0100
,  // measure 49
0000
1000
0000
0010
,  // measure 50
0000
1000
0000
0001
,  // measure 51
0000
1000
0000
0010
,  // measure 52
0000
0100
0100
0100
,  // measure 53
0000
0001
0000
1000
,  // measure 54
0000
0010
0000
1000
,  // measure 55
0000
0010
0000
0100
,  // measure 56
0000
2002
0000
0000
,  // measure 57
3003
0000
0000
0000
,  // measure 58
0000
0000
0000
0000
,  // measure 59
0000
0000
0000
0000
,  // measure 60
0000
0000
0000
0000
,  // measure 61
0000
0010
0010
0010
,  // measure 62
0000
0100
0100
0100
,  // measure 63
0000
0001
0001
0001
,  // measure 64
0000
1000
1000
1000
;
