#TITLE:Anklebiters;
#SUBTITLE:;
#ARTIST:Paramore;
#TITLETRANSLIT:;
#SUBTITLETRANSLIT:;
#ARTISTTRANSLIT:;
#CREDIT:;
#BANNER:Anklebiters.png;
#BACKGROUND:Anklebiters-bg.png;
#LYRICSPATH:;
#CDTITLE:cdtitle.png;
#MUSIC:Anklebiters.mp3;
#OFFSET:0.820;
#SAMPLESTART:29.460;
#SAMPLELENGTH:10.000;
#SELECTABLE:YES;
#BPMS:0.000=230.040;
#STOPS:183.000=1.040
;
#BGCHANGES:4.000=Anklebiters.avi=1.000=0=0=1,
320.000=Anklebiters-bg.png=1.000=0=0=1,
99999=-nosongbg-=1.000=0=0=0 // don't automatically add -songbackground-
;

//---------------dance-single - ----------------
#NOTES:
     dance-single:
     :
     Hard:
     10:
     0.654,0.959,0.694,0.489,0.000:
0000
0000
0000
0000
,
2000
0000
0000
0000
,
0000
0000
0000
0000
,
0010
0000
0010
0000
,
0001
0001
0010
3010
,
1001
0000
0001
0100
0000
0000
1000
0000
,
0100
0000
0001
0000
0100
1000
0100
0000
,
0001
0000
1000
0100
0000
0000
0001
0000
,
0100
0000
1000
0000
0100
0001
0100
0000
,
1000
0000
0001
0010
0000
0000
1000
0000
,
0010
0000
0001
0000
0010
1000
0010
0000
,
0001
0000
1000
0010
0000
0000
0001
0000
,
0002
0000
0000
0000
0000
0000
0000
0003
,
0011
0000
0000
1001
0000
0000
0001
0000
,
1000
0010
0001
0010
,
1010
0000
0000
1001
0000
0000
1000
0000
,
0001
0010
1000
0100
,
1100
0000
0000
1001
0000
0000
1000
0000
,
0001
0100
1000
0100
,
0101
0000
0000
1001
0000
0000
0001
0000
,
0100
0000
1000
0000
0100
0000
0001
0100
,
0011
0000
0000
1001
0000
0000
0001
0000
,
1000
0010
0001
0010
,
1010
0000
0000
1001
0000
0000
1000
0000
,
0001
0010
1000
0100
,
1100
0000
0000
1001
0000
0000
1000
0000
,
0001
0100
1000
0100
,
0101
0000
0000
1001
0000
0000
0100
0000
,
0001
0010
0100
0010
0001
0000
0001
0100
,
1020
0000
0000
0030
0000
0000
1000
0000
,
0010
0100
0000
0010
0000
0100
0000
0000
,
0101
0000
0000
0000
0000
0000
1000
0100
,
1000
0100
0010
0001
,
0100
0000
0000
0000
0000
0001
0010
0000
,
2020
3030
2200
3300
2020
3030
2002
3003
,
0000
0000
1000
0100
1000
0000
0010
0000
,
0100
0000
0010
1000
0000
1000
0100
0000
,
1020
0000
0000
0030
0000
0000
1000
0001
,
0010
0001
0000
0010
0000
1000
0000
0000
,
0110
0000
0000
0000
0000
0010
1000
0000
,
1000
0100
0100
0010
,
0010
0000
0000
0000
0000
0001
0010
0000
,
0022
0033
0202
0303
0022
0033
2002
3003
,
0000
0000
0001
0100
0001
0000
0000
0000
,
0010
0100
0000
0100
0000
0001
0100
0000
,
0011
0000
0000
0101
0000
0000
0011
0000
,
1001
0000
0000
1001
0000
0000
1100
0000
,
1001
0000
0000
0100
0000
0100
0000
0000
,
1100
0000
0010
0100
0010
1000
0100
0010
,
0001
0000
0010
0100
0000
0100
0000
0000
,
0011
0010
1010
0010
,
0011
0000
0000
2000
0000
0000
0020
0000
,
3030
0000
1000
0000
1000
0100
0000
0200
,
0300
0000
0001
0010
0000
0010
0000
0000
,
1100
0100
0101
0100
,
1100
1000
0010
0100
0001
0100
0010
1000
,
0011
0000
1000
0100
1000
0100
0010
0001
,
1000
0000
1000
0100
0000
0100
0000
0000
,
0101
0001
0011
0010
,
0110
0100
1100
1000
,
1001
1000
0100
0001
,
0010
0000
0100
0020
0000
0000
0130
2000
,
0000
0000
3100
0000
,
0110
0000
0000
0011
0000
0000
1010
0000
,
1001
0000
0001
0100
0000
0000
1000
0000
,
0100
0000
0001
0000
0100
1000
0100
0000
,
0001
0000
1000
0100
0000
0000
0001
0000
,
0100
0000
1000
0000
0100
0001
0100
0000
,
1000
0000
0001
0010
0000
0000
1000
0000
,
0010
0000
0001
0000
0010
1000
0010
0000
,
0001
0000
1000
0010
0000
0000
0001
0000
,
0010
0000
1000
0000
0001
0010
0001
0000
,
1001
1000
0100
0001
,
0020
0000
0130
2000
0000
0000
3100
0020
,
0000
0000
0030
0000
,
2020
3030
0220
0330
0202
0303
0220
0330
,
1001
0000
1000
0100
0000
0000
0001
0000
,
1100
0000
0001
0100
0000
0000
1000
0000
,
0002
0000
0000
0000
,
2000
3000
0200
0300
2000
3000
2000
3003
,
0220
0330
0000
0000
;

//---------------dance-single - ----------------
#NOTES:
     dance-single:
     :
     Medium:
     7:
     0.549,0.637,0.387,0.228,0.000:
0000
0000
0000
0000
,
0000
0000
0000
0000
,
0000
0000
0000
0000
,
1000
0000
1000
0000
,
0001
0001
0001
0001
,
0011
0000
1000
0010
0000
0000
0001
0000
,
0010
1000
0010
0010
,
1000
0000
0001
0010
0000
0000
1000
0000
,
0010
0001
0010
0010
,
0001
0000
1000
0100
0000
0000
0001
0000
,
0100
1000
0100
0100
,
1000
0000
0001
0100
0000
0000
1000
0000
,
2000
0000
0000
0000
0000
0000
0000
3000
,
0101
0000
0000
0110
0000
0000
0010
0000
,
0100
0001
0100
0010
,
0110
0000
0000
1001
0000
0000
1000
0000
,
0100
0010
0100
1000
,
1001
0000
0000
0110
0000
0000
0100
0000
,
0010
0001
0010
0100
,
0110
0000
0000
0011
0000
0000
0001
0000
,
1000
0010
0100
0001
,
1010
0000
0000
0110
0000
0000
0010
0000
,
0100
0001
0100
0010
,
0110
0000
0000
1001
0000
0000
1000
0000
,
0100
0010
0100
1000
,
1001
0000
0000
0110
0000
0000
0100
0000
,
0010
0001
0010
0100
,
0110
0000
0000
0011
0000
0000
0001
0000
,
1000
0010
0100
0010
,
1000
0000
0000
1001
0000
0000
0001
0000
,
1000
0100
1000
0001
,
1000
0000
0000
1001
0000
0000
0010
0000
,
1000
0001
1000
0010
,
0100
0000
0000
0110
0000
0000
1000
0000
,
0002
0003
0200
0300
0002
0003
0002
0003
,
0010
0000
0000
0110
0000
0000
0100
0000
,
0002
0003
0200
0300
0002
0003
0002
0003
,
0001
0000
0000
1001
0000
0000
1000
0000
,
0001
0010
0001
1000
,
0001
0000
0000
1001
0000
0000
0100
0000
,
0001
1000
0001
0100
,
0010
0000
0000
0110
0000
0000
0001
0000
,
2000
3000
0020
0030
2000
3000
2000
3000
,
0100
0000
0000
0110
0000
0000
0010
0000
,
2000
3000
0020
0030
2000
3000
2000
3000
,
0001
0000
0000
0010
0000
0000
1010
0000
,
0110
0000
0000
0110
0000
0000
0010
0000
,
2002
0000
3003
0000
,
1001
0100
0100
0010
,
1000
0100
0010
0001
,
0100
0100
0010
0010
,
0100
1000
0100
0001
,
1100
0010
0010
0100
,
0001
0010
0100
1000
,
0010
0010
0100
0100
,
0001
0010
0001
0010
0001
0010
0001
0010
,
1000
0010
0010
0100
,
0001
0010
0100
1000
,
0010
0010
0100
0100
,
0010
0001
0010
1000
,
0011
0100
0100
0010
,
1000
0100
0010
0001
,
0100
0100
0010
0010
,
1000
0100
1000
0100
1000
0100
1000
0100
,
0001
0000
1000
0010
0000
0000
0001
0000
,
0010
1000
0010
0010
,
1000
0000
0001
0010
0000
0000
1000
0000
,
0010
0001
0010
0010
,
0001
0000
1000
0100
0000
0000
0001
0000
,
0100
1000
0100
0100
,
1000
0000
0001
0100
0000
0000
1000
0000
,
0100
0001
0100
0100
,
1001
0000
0010
0001
0000
0000
0100
0000
,
0001
0010
0001
0001
,
0010
0000
0100
0010
0000
0000
0010
0000
,
0001
0100
0001
0001
,
0100
0000
0010
1000
0000
0000
0100
0000
,
1000
0000
0010
1000
0000
0000
1000
0000
,
0020
0000
0000
0000
,
0000
0000
0000
0030
,
0110
0000
0000
0000
;

//---------------dance-single - ----------------
#NOTES:
     dance-single:
     :
     Easy:
     5:
     0.455,0.592,0.205,0.228,0.000: // measure 1
0000
0000
0000
0000
,  // measure 2
0000
0000
0000
0000
,  // measure 3
0000
0000
0000
0000
,  // measure 4
0010
0000
0010
0000
,  // measure 5
0010
0010
0010
0010
,  // measure 6
1100
0001
0000
1000
,  // measure 7
0100
0001
0100
0100
,  // measure 8
0001
1000
0000
0001
,  // measure 9
0100
1000
0100
0100
,  // measure 10
1000
0001
0000
1000
,  // measure 11
0010
0001
0010
0010
,  // measure 12
0001
1000
0000
0001
,  // measure 13
0002
0000
0000
0000
0000
0000
0000
0003
,  // measure 14
1010
0000
0000
0100
,  // measure 15
0010
1000
0010
0100
,  // measure 16
0110
0000
0000
0001
,  // measure 17
0010
0100
0010
0001
,  // measure 18
1001
0000
0000
0010
,  // measure 19
0100
1000
0100
0010
,  // measure 20
0110
0000
0000
1000
,  // measure 21
0001
0100
0010
1000
,  // measure 22
0101
0000
0000
0100
,  // measure 23
0010
1000
0010
0100
,  // measure 24
0110
0000
0000
0001
,  // measure 25
0010
0100
0010
0001
,  // measure 26
1001
0000
0000
0010
,  // measure 27
0100
1000
0100
0010
,  // measure 28
0110
0000
0000
1000
,  // measure 29
0001
0100
0010
0100
,  // measure 30
0101
0000
0000
1000
,  // measure 31
0001
0010
0001
1000
,  // measure 32
0001
0000
0000
0100
,  // measure 33
0001
1000
0001
0100
,  // measure 34
0010
0000
0000
0001
,  // measure 35
2000
3000
0200
0300
0020
0030
0002
0003
,  // measure 36
0010
0000
0000
0000
,  // measure 37
0002
0003
0020
0030
0200
0300
2000
3000
,  // measure 38
0100
0000
0000
0001
,  // measure 39
1000
0100
1000
0001
,  // measure 40
1000
0000
0000
0010
,  // measure 41
1000
0001
1000
0010
,  // measure 42
0100
0000
0000
1000
,  // measure 43
0002
0003
0200
0300
0020
0030
2000
3000
,  // measure 44
0010
0000
0000
0000
,  // measure 45
2000
3000
0020
0030
0200
0300
0002
0003
,  // measure 46
0100
0000
0000
1001
,  // measure 47
1001
0000
0000
0000
,  // measure 48
2002
0000
3003
0000
,  // measure 49
1001
0010
0010
0100
,  // measure 50
0001
0010
0100
1000
,  // measure 51
0010
0010
0100
0100
,  // measure 52
0010
0001
0010
1000
,  // measure 53
0011
0100
0100
0010
,  // measure 54
1000
0100
0010
0001
,  // measure 55
0100
0100
0010
0010
,  // measure 56
1000
1000
1000
1000
,  // measure 57
0001
0100
0100
0010
,  // measure 58
1000
0100
0010
0001
,  // measure 59
0100
0100
0010
0010
,  // measure 60
0100
1000
0100
0001
,  // measure 61
1100
0010
0010
0100
,  // measure 62
0001
0010
0100
1000
,  // measure 63
0010
0010
0100
0100
,  // measure 64
0001
0001
0001
0001
,  // measure 65
1001
0001
0000
1000
,  // measure 66
0100
0001
0100
0100
,  // measure 67
0001
1000
0000
0001
,  // measure 68
0100
1000
0100
0100
,  // measure 69
1000
0001
0000
1000
,  // measure 70
0010
0001
0010
0010
,  // measure 71
0001
1000
0000
0001
,  // measure 72
0010
1000
0010
0010
,  // measure 73
1001
0100
0000
0010
,  // measure 74
1000
0100
1000
1000
,  // measure 75
0100
0010
0000
0100
,  // measure 76
1000
0010
1000
1000
,  // measure 77
0010
0100
0000
0010
,  // measure 78
0001
0100
0000
0001
,  // measure 79
0200
0000
0000
0000
,  // measure 80
0000
0000
0000
0000
,  // measure 81
0300
0000
0000
0000
;
