#VERSION:0.83;
#TITLE:About To Fly;
#SUBTITLE:;
#ARTIST:Fracus & Darwin;
#TITLETRANSLIT:;
#SUBTITLETRANSLIT:;
#ARTISTTRANSLIT:;
#GENRE:;
#ORIGIN:;
#CREDIT:;
#BANNER:;
#BACKGROUND:About To Fly.jpg;
#PREVIEWVID:;
#JACKET:;
#CDIMAGE:;
#DISCIMAGE:;
#LYRICSPATH:;
#CDTITLE:;
#MUSIC:About To Fly.ogg;
#OFFSET:0.000000;
#SAMPLESTART:76.822174;
#SAMPLELENGTH:21.942856;
#SELECTABLE:YES;
#BPMS:0.000=175.000;
#STOPS:;
#DELAYS:;
#WARPS:;
#TIMESIGNATURES:0.000=4=4;
#TICKCOUNTS:0.000=4;
#COMBOS:0.000=1;
#SPEEDS:0.000=1.000=0.000=0;
#SCROLLS:0.000=1.000;
#FAKES:;
#LABELS:0.000=Song Start;
#BGCHANGES:;
#KEYSOUNDS:;
#ATTACKS:
;

//---------------dance-single - ----------------
#NOTEDATA:;
#CHARTNAME:;
#STEPSTYPE:dance-single;
#DESCRIPTION:;
#CHARTSTYLE:;
#DIFFICULTY:Hard;
#METER:8;
#RADARVALUES:0.573982,0.580187,0.007757,0.062052,0.019391,518.000000,517.000000,1.000000,8.000000,0.000000,0.000000,0.000000,0.000000,0.000000,0.573982,0.580187,0.007757,0.062052,0.019391,518.000000,517.000000,1.000000,8.000000,0.000000,0.000000,0.000000,0.000000,0.000000;
#CREDIT:;
#NOTES:
0000
0000
0000
0000
,
0000
0000
0000
0000
,
0000
0000
0000
0000
,
0000
0000
0000
0000
,
1000
0000
0010
0000
0100
0001
0000
1000
,
0001
0000
0010
0000
0100
1000
0000
0001
,
1000
0000
0100
0000
0010
0001
0000
0100
,
0001
0000
1000
0000
0010
0100
0000
0001
,
0100
0000
0010
0000
1000
0001
1000
0000
,
0100
0000
0010
0000
0001
1000
0001
0000
,
1000
0000
0010
0000
0100
0001
0100
0000
,
0001
0000
0010
0000
0100
1000
0100
0000
,
0010
0001
0010
0000
0001
1000
0001
0000
,
1000
0010
1000
0000
0010
0100
0010
0000
,
1000
0010
0100
0000
0001
0100
0010
0000
,
1000
0001
0010
0000
0100
1000
0010
0000
,
1001
0000
0010
0000
,
0100
0000
0001
0000
,
1000
0000
0100
0000
,
0010
0000
0001
2000
,
3001
0100
0010
1000
,
0001
0010
0001
0010
0100
1000
0200
0000
,
0310
0010
0100
0100
1000
1000
0001
0001
,
0000
0000
0000
0000
0000
0000
0100
0001
0100
0000
0010
0000
2000
0000
3000
0000
,
0001
0000
0010
0100
1000
0100
0010
0001
,
1000
0000
0010
0100
0001
0100
0010
1000
,
0100
0000
0010
0001
0010
0100
0010
0001
,
0100
0000
0010
1000
0010
0100
0010
1000
,
0001
0000
0010
0001
1000
0001
0010
0100
,
1000
0000
0001
1000
0010
1000
0001
0010
,
0100
0000
1000
0010
0001
0010
1000
0001
,
0100
0000
0001
0010
1000
0010
0001
1000
,
0100
0000
0010
0001
0100
0010
0100
0001
,
0010
0000
0100
1000
0010
0100
0010
1000
,
0001
0000
0100
0010
1000
0001
1000
0010
,
0100
0000
0001
0010
0100
1000
0100
0010
,
0001
0000
1000
0010
0001
0010
1000
0100
,
0001
0000
1000
0010
0001
0100
1000
0100
,
0001
0000
1000
0010
0001
0010
1000
0100
,
0010
0000
0001
0000
0000
0000
1000
0001
1000
0000
0010
0000
0200
0000
0000
0000
,
0310
0000
1000
0001
1000
0000
0100
0000
,
0010
0100
0100
0010
,
0001
0000
0100
0010
0100
0000
1000
0000
,
0100
0001
1000
0100
,
0010
0000
0001
1000
0001
0000
0100
0000
,
0100
0010
1000
0001
,
0010
0000
0010
0100
0000
0100
1000
0000
,
0001
0000
1000
0000
0010
0100
0000
0010
,
1000
0000
0100
0010
1000
0000
0010
0100
,
1000
0000
0001
0100
0010
0000
0001
0010
,
0100
0000
0001
0010
1000
0000
0001
0100
,
1000
0000
0001
0100
1000
0000
0001
0010
,
1000
1000
0001
0001
,
0010
0100
0010
0100
1000
0001
1000
0001
,
0100
0001
1000
0100
0001
0100
1000
0010
,
0100
0000
0000
0000
0000
0000
0001
0010
0001
0000
1000
0000
0200
0000
0300
0000
,
0010
0001
0100
0010
0001
0010
0100
0001
,
0000
1000
0100
0010
1000
0010
0100
1000
,
0000
0001
0100
1000
0100
0010
1000
0001
,
0000
1000
0100
0001
0100
0010
0001
1000
,
0000
0010
0100
0001
1000
0100
0010
0001
,
0000
1000
0010
0100
1000
0001
0010
0100
,
0000
0001
0010
0100
0001
1000
0010
0100
,
0000
1000
0010
0001
1000
0100
0001
1000
,
0100
0000
0100
0000
0010
0001
0010
0100
,
1000
0000
1000
0000
0100
0010
0001
1000
,
0010
0000
0010
0000
0100
1000
0100
0001
,
1000
0001
1000
0000
0001
0100
0001
0000
,
1000
0010
0100
0000
0001
0010
0200
0000
,
1300
0010
0001
0000
1000
0100
0002
0000
,
1003
1000
0100
0100
0010
0010
0001
0001
,
1000
0000
0010
0000
0000
0000
0100
0010
0100
0000
0001
0000
0000
0000
0000
0000
,
1000
0100
0010
0100
1000
0010
0100
0000
,
0001
0100
0010
0100
0001
0010
0100
0000
,
1000
0100
0001
0100
1000
0001
0100
0000
,
0001
0100
1000
0100
0001
1000
0000
0010
,
0100
0001
0100
1000
0100
0010
1000
0000
,
0100
0010
0100
0001
0100
1000
0001
0000
,
0100
0010
1000
0001
0010
0100
1000
0000
,
0001
0100
0010
1000
0100
0010
0000
0001
,
1000
0010
0100
1000
0100
0010
1000
0000
,
0001
0010
0100
0001
0100
0010
0001
0000
,
1000
0100
0010
1000
0010
0100
1000
0000
,
0001
0100
0010
0001
0010
0100
0000
0001
,
1000
0100
0010
0100
1000
0010
0100
0010
,
1000
0100
0001
0100
1000
0010
0001
0010
,
0100
0001
0010
0100
1000
0010
0100
0001
,
1000
0000
0100
0000
0000
0000
0000
0010
0000
0000
0010
0000
0200
0000
0000
0000
,
1300
0000
0000
0000
;

//---------------dance-single - ----------------
#NOTEDATA:;
#CHARTNAME:;
#STEPSTYPE:dance-single;
#DESCRIPTION:;
#CHARTSTYLE:;
#DIFFICULTY:Challenge;
#METER:9;
#RADARVALUES:0.684789,0.682573,0.147374,0.155130,0.135739,618.000000,599.000000,19.000000,20.000000,0.000000,0.000000,0.000000,0.000000,0.000000,0.684789,0.682573,0.147374,0.155130,0.135739,618.000000,599.000000,19.000000,20.000000,0.000000,0.000000,0.000000,0.000000,0.000000;
#CREDIT:;
#NOTES:
// measure 0
0000
0000
0000
0000
,  // measure 1
0000
0000
0000
0000
,  // measure 2
0000
0000
0000
0000
,  // measure 3
0000
0000
0000
0000
,  // measure 4
0001
0010
0100
0010
0001
2000
0000
3010
,  // measure 5
0100
0001
0100
0010
1000
0002
0000
0003
,  // measure 6
0010
0100
1000
0100
0010
0002
0000
1003
,  // measure 7
0010
0100
0010
1000
0001
0020
0000
1030
,  // measure 8
0010
0100
1100
0000
0000
0001
0101
0000
,  // measure 9
1000
0010
0110
0000
0000
0001
1001
0000
,  // measure 10
0010
1000
1010
0000
0000
0001
0011
0000
,  // measure 11
1000
0100
0110
0000
1000
0010
0100
1000
,  // measure 12
0100
0001
1001
0000
0010
0100
0110
0000
,  // measure 13
1000
0001
0011
0000
1000
0010
1010
0000
,  // measure 14
0001
1000
1100
0000
0001
0100
0101
0000
,  // measure 15
1000
0001
1001
0000
0010
0100
0010
0000
,  // measure 16
1000
0001
0000
1000
0100
1000
0000
0001
,  // measure 17
0100
0001
0000
0010
0100
0010
0000
0001
,  // measure 18
1000
0010
0000
0100
0001
1000
0000
0100
,  // measure 19
0010
0001
0000
0100
0010
1000
0002
0000
,  // measure 20
0103
0001
0100
0000
0010
1000
0010
0000
,  // measure 21
1000
0100
1000
0100
0010
0001
0020
0000
,  // measure 22
0031
0000
0001
0000
0100
0000
0100
0000
0010
0000
0010
0000
1000
0001
1000
0001
,  // measure 23
0100
0000
0000
0100
0000
0100
0010
1000
0001
0000
0020
0000
0000
0000
0030
0000
,  // measure 24
0001
0000
0100
0000
0001
0000
1000
0010
1000
0000
0100
0000
0010
0000
0001
0000
,  // measure 25
1000
0000
0100
0000
1000
0000
0010
0100
0010
0000
1000
0000
0001
0000
0010
0000
,  // measure 26
0100
0000
1000
0000
0100
0000
0010
0001
0010
0000
0100
0000
1000
0000
0010
0000
,  // measure 27
0100
0000
0001
0000
0100
0000
0010
1000
0010
0000
0100
0000
0001
0000
1000
0000
,  // measure 28
0100
0000
0010
0000
0001
0000
1000
0010
1000
0000
0001
0000
0100
0000
0010
0000
,  // measure 29
1000
0000
0100
0000
0010
0000
0001
0010
0001
0000
1000
0000
0010
0000
0100
0000
,  // measure 30
0001
0000
1000
0000
0001
0000
0010
0100
0010
0000
0100
0000
1000
0000
0001
0000
,  // measure 31
0100
0000
0010
0000
1000
0000
0010
0100
0010
0000
1000
0000
0001
0000
0010
0000
,  // measure 32
0110
0000
0000
0000
0100
0000
1000
0001
1000
0000
0010
0000
0100
0000
0001
0000
,  // measure 33
1000
0000
0100
0000
0010
0000
0001
1000
0001
0000
0010
0000
0100
0000
0001
0000
,  // measure 34
0100
0000
1000
0000
0010
0000
0100
0010
0100
0000
1000
0000
0100
0000
0001
0000
,  // measure 35
1000
0000
0001
0000
0010
0000
0100
0010
0100
0000
1000
0000
0010
0000
0100
0000
,  // measure 36
0001
0000
0100
0000
0010
0000
1000
0100
1000
0000
0010
0000
0100
0000
0001
0000
,  // measure 37
1000
0000
0010
0000
0100
0000
0001
0100
0001
0000
0010
0000
0100
0000
0001
0000
,  // measure 38
0100
0000
1000
0000
0001
0000
0010
0100
0010
0000
1000
0000
0010
0000
0100
0000
,  // measure 39
1000
0000
0001
0000
0000
0000
0100
0010
1000
0000
0200
0000
0000
0000
0000
0000
,  // measure 40
1300
0000
0010
0100
0000
0100
0001
1000
,  // measure 41
0100
0010
0000
0010
0100
0000
1000
0000
,  // measure 42
0011
0000
0100
0101
0000
0010
1010
0000
,  // measure 43
0001
0010
0100
0000
0100
1000
0001
0000
,  // measure 44
0100
0010
1000
0100
0000
0100
1000
0001
,  // measure 45
0100
0010
0000
0010
0100
0001
1000
0000
,  // measure 46
0100
0010
0100
0000
1000
0010
0001
0000
,  // measure 47
0010
1000
0100
0000
0001
0100
1000
0010
,  // measure 48
0100
0000
0001
0001
0100
0001
0000
0001
,  // measure 49
1000
0010
0000
0010
1000
0000
0001
0000
,  // measure 50
0010
0000
0000
1000
0010
0000
0100
0000
,  // measure 51
0010
0001
0011
1000
,  // measure 52
0010
0000
0010
1000
0010
0001
0010
0000
,  // measure 53
1000
0010
1000
0010
0100
0001
1000
0010
,  // measure 54
0001
0010
1000
0100
0002
2003
3020
0032
,  // measure 55
0103
0000
0000
0100
0000
0100
0010
1000
0001
0000
0020
0000
0000
0000
0030
0000
,  // measure 56
0001
0000
0010
0000
0100
0000
0010
0001
1000
0000
0010
0000
0100
0000
0001
0000
,  // measure 57
1000
0000
0010
0000
0100
0000
0010
1000
0001
0000
0010
0000
0100
0000
0001
0000
,  // measure 58
0100
0000
1000
0000
0100
0000
0010
0001
1000
0000
0010
0000
0100
0000
1000
0000
,  // measure 59
0100
0000
0001
0000
1000
0000
0100
0010
0001
0000
1000
0000
0010
0000
0100
0000
,  // measure 60
0010
0000
1000
0000
0001
0000
0010
0100
1000
0000
0010
0000
0100
0000
0001
0000
,  // measure 61
0100
0000
0010
0000
0100
0000
0001
0100
0010
0000
1000
0000
0100
0000
0001
0000
,  // measure 62
0100
0000
1000
0000
0100
0000
0010
0100
1000
0000
0001
0000
0100
0000
1000
0000
,  // measure 63
0100
0000
0010
0000
1000
0000
0100
0010
0001
0000
1000
0000
0010
0000
0100
0000
,  // measure 64
0001
0000
0001
0100
0001
0010
0100
1000
,  // measure 65
0100
0000
0100
0010
0100
1000
0010
0100
,  // measure 66
0010
0000
0000
0000
0010
0000
1000
0000
0010
0000
0100
0000
0001
0000
1000
0001
,  // measure 67
1000
0100
0010
0100
1000
0001
0100
0001
,  // measure 68
1000
0010
0100
0010
1000
0100
0002
0000
,  // measure 69
0103
1000
0010
1000
0001
0010
2000
0000
,  // measure 70
3010
0001
1000
0010
0002
0023
2030
3200
,  // measure 71
0300
0000
0010
0000
0000
0000
0100
0010
0001
0000
1000
0000
0000
0000
0000
0000
,  // measure 72
0001
0100
1000
0100
0001
0010
0000
0000
,  // measure 73
1000
0010
0001
0100
0010
0001
0000
0000
,  // measure 74
1000
0100
0001
1000
0100
0001
0000
0000
,  // measure 75
1000
0010
0001
1000
0010
0100
0000
0001
,  // measure 76
1000
0100
0001
0100
1000
0010
0000
0000
,  // measure 77
0001
0010
1000
0100
0010
1000
0000
0000
,  // measure 78
0001
0100
1000
0001
0100
1000
0000
0000
,  // measure 79
0001
0010
1000
0001
0010
0100
0000
1000
,  // measure 80
0001
0100
0010
0100
0001
0010
0100
0000
,  // measure 81
1000
0100
0010
0100
1000
0010
0100
0000
,  // measure 82
0001
0010
0100
0010
0001
0100
0010
0000
,  // measure 83
1000
0010
0100
0010
1000
0100
0010
1000
,  // measure 84
0010
0001
0100
0010
0100
0001
0010
0000
,  // measure 85
0100
1000
0010
0100
0010
1000
0100
0000
,  // measure 86
0010
0001
0100
1000
0100
0001
0010
1000
,  // measure 87
0001
0000
0100
0000
0000
0000
0000
0100
0000
0000
0100
0000
0200
0000
0000
0000
,  // measure 88
0310
0000
0000
0000
;

//---------------dance-single - ----------------
#NOTEDATA:;
#CHARTNAME:;
#STEPSTYPE:dance-single;
#DESCRIPTION:;
#CHARTSTYLE:;
#DIFFICULTY:Medium;
#METER:6;
#RADARVALUES:0.485336,0.511930,0.077565,0.054296,0.000000,438.000000,428.000000,10.000000,7.000000,0.000000,0.000000,0.000000,0.000000,0.000000,0.485336,0.511930,0.077565,0.054296,0.000000,438.000000,428.000000,10.000000,7.000000,0.000000,0.000000,0.000000,0.000000,0.000000;
#CREDIT:;
#NOTES:
0000
0000
0000
0000
,
0000
0000
0000
0000
,
0000
0000
0000
0000
,
0000
0000
0000
0000
,
1000
0000
0010
0000
1000
0010
0000
0000
,
0100
0000
0001
0000
0100
0001
0000
0000
,
1000
0000
0100
0000
1000
0100
0000
0000
,
0010
0000
0001
0000
0010
0001
0000
1000
,
0010
0100
0010
0100
,
0001
0000
0100
0000
0001
0100
0001
0000
,
1000
0010
1000
0010
,
1000
0000
0100
0000
1000
0100
1000
0010
,
0100
0001
1000
0100
,
0010
0000
0001
0000
1000
0100
0010
0000
,
0001
1000
0010
0100
,
0001
0000
0010
0000
0100
1000
0010
0000
,
0101
0000
1100
0000
,
1001
0000
0110
0000
,
1010
0000
0011
0000
,
0110
0000
1001
0200
,
0310
0100
1000
0001
,
1000
0010
1000
0000
0001
0100
0001
0000
,
0010
0001
0010
0001
1000
0100
1000
0100
,
0010
0000
0000
0000
,
1000
0100
1000
0010
1000
0001
1000
0000
,
0001
0010
0001
0100
0001
1000
0001
0000
,
0100
1000
0100
0010
0100
0001
0100
0000
,
0010
1000
0010
0100
0010
0001
0010
0000
,
1000
0100
0010
0100
1000
0100
0010
0000
,
0001
0100
0010
0100
0001
0100
0010
0000
,
1000
0010
0100
0010
1000
0010
0100
0000
,
0001
0010
0100
0010
0001
0010
0100
0000
,
1000
0001
0010
0001
0100
0001
1000
0000
,
0001
1000
0010
1000
0100
1000
0001
0000
,
0010
0100
0001
0100
0010
0100
1000
0000
,
0001
0010
0100
0010
1000
0010
0100
0000
,
1000
0001
1000
0001
0100
0010
0100
0000
,
0001
1000
0001
1000
0100
0010
0100
0000
,
1000
0010
1000
0010
0100
0001
0100
0000
,
0010
1000
0000
1000
0001
0100
0000
0000
,
0010
0000
1000
0001
0000
0001
0000
0100
,
0000
0010
0000
0010
1000
0000
0000
0000
,
0001
0000
0000
0010
0000
0000
0100
0000
,
0000
1000
1000
0000
,
0010
0000
0100
0001
0000
0001
0000
1000
,
0000
0100
0000
0100
0010
0000
0010
0000
,
0001
0000
0000
1000
0000
0000
0010
0000
,
0000
0000
0100
0000
0001
1000
0020
0000
,
1000
0000
2030
0000
,
0100
0000
3200
0000
,
0001
0000
0302
0000
,
0010
0000
0013
0000
,
1000
0010
0100
0001
,
0010
0100
1000
0001
,
1000
0100
1000
0100
0010
0001
0010
0001
,
0100
0000
0000
0000
,
1000
0010
1000
0010
1000
0010
0100
0000
,
0001
0010
0001
0010
0001
0010
0100
0000
,
1000
0100
1000
0100
1000
0100
0001
0000
,
0100
0010
0100
0010
0100
0010
0001
0000
,
1000
0010
0100
0010
1000
0100
0010
0000
,
0001
0010
0100
0010
0001
0100
0010
0000
,
1000
0010
0001
0010
1000
0010
0100
0000
,
0001
0010
1000
0010
0001
0010
0100
0000
,
1000
0000
1000
0000
1000
0000
0010
0100
,
0001
0000
0001
0000
0001
0000
1000
0100
,
0010
0000
0010
0000
0010
0000
0010
0100
,
1000
0000
0001
0000
1000
0000
0001
0100
,
0010
0000
1000
0010
1000
0000
0020
0000
,
0130
0000
0001
0100
0001
0000
2000
0000
,
3100
0010
0100
0010
0100
0010
0001
1000
,
0000
0010
0000
0010
1000
0001
0000
0000
,
1000
0000
0010
0000
1000
0100
0010
0000
,
0001
0000
0010
0000
0001
0100
0010
0000
,
1000
0000
0100
0000
1000
0010
0100
0000
,
0001
0000
0100
0000
0001
0010
0100
1000
,
0001
0000
1000
0000
0001
0010
0100
0000
,
1000
0000
0001
0000
1000
0010
0100
0000
,
0001
0000
0010
0000
0100
1000
0001
0000
,
1000
0000
0010
0000
0100
0001
1000
0100
,
0010
0000
0001
0000
1000
0001
0100
0000
,
0010
0000
1000
0000
0001
1000
0100
0000
,
0010
0000
0001
0000
0010
0100
1000
0000
,
0010
0000
1000
0000
0010
0100
0001
1000
,
0100
0000
0100
0000
0100
1000
0100
0000
,
0010
0000
0010
0000
0010
0001
0010
0000
,
0100
1000
0010
0000
0100
0001
0010
0000
,
1001
0100
0100
0010
,
1001
0000
0000
0000
;

//---------------dance-single - ----------------
#NOTEDATA:;
#CHARTNAME:;
#STEPSTYPE:dance-single;
#DESCRIPTION:;
#CHARTSTYLE:;
#DIFFICULTY:Easy;
#METER:4;
#RADARVALUES:0.325773,0.477801,0.077565,0.062052,0.000000,294.000000,284.000000,10.000000,8.000000,0.000000,0.000000,0.000000,0.000000,0.000000,0.325773,0.477801,0.077565,0.062052,0.000000,294.000000,284.000000,10.000000,8.000000,0.000000,0.000000,0.000000,0.000000,0.000000;
#CREDIT:;
#NOTES:
0000
0000
0000
0000
,
0000
0000
0000
0000
,
0000
0000
0000
0000
,
0000
0000
0000
0000
,
1000
1000
1000
0000
,
0001
0001
0001
0000
,
0100
0100
0100
0000
,
0010
0010
0010
0100
,
0001
0100
0000
0100
,
0010
0100
0000
0100
,
1000
0010
0000
0010
,
0100
0010
0000
0010
,
1000
0100
0000
0010
,
0001
0100
0000
0010
,
1000
0001
0000
0010
,
0100
1000
0000
0001
,
1000
0000
1000
0000
,
0010
0000
0010
0000
,
0100
0000
0100
0000
,
0001
0000
0001
1000
,
0001
0001
1000
1000
,
0100
0100
0010
0010
,
0001
0100
1000
0010
,
0110
0000
0000
0000
,
1000
1000
0100
1000
,
0001
0001
0100
0001
,
0010
0010
0100
1000
,
0010
0010
0100
0001
,
1000
1000
0010
1000
,
0001
0001
0010
0001
,
1000
1000
0010
1000
,
0100
0100
0010
0001
,
1000
0010
1000
1000
,
0001
0010
0001
0001
,
1000
0100
1000
1000
,
0001
0100
0001
0001
,
1000
0010
0100
0100
,
0001
0010
0100
0100
,
1000
0010
0001
0010
,
0100
0100
0010
0000
,
2000
0000
0100
0000
,
3002
0000
0100
0000
,
2003
0000
0010
0000
,
3002
0000
0010
0000
,
0203
0000
0001
0000
,
0320
0000
1000
0000
,
0230
0000
0010
0000
,
0320
0000
0100
0000
,
1030
0000
1000
0000
,
0001
0000
0001
0000
,
0010
0000
0010
0000
,
0100
0000
0100
0000
,
1000
1000
0001
0001
,
0100
0100
0010
0010
,
1000
0100
0001
0010
,
0100
0000
0000
0000
,
1000
0010
0100
0001
,
1000
0100
0010
0001
,
1000
0100
0100
1000
,
0001
0100
0100
0001
,
1000
0010
0100
1000
,
0001
0010
0100
0001
,
1000
0010
0001
0010
,
1000
0100
0001
0100
,
1000
1100
0100
1100
,
0001
0101
0100
0101
,
0010
1010
0010
0011
,
0100
1100
0100
0101
,
1000
0010
0100
0010
,
0001
0010
0100
0010
,
1000
0100
0001
0010
,
0100
0100
0010
0000
,
0001
0001
0100
1000
,
0100
0100
0010
0100
,
1000
1000
0100
0010
,
0100
0100
0010
1000
,
0100
1000
0001
0100
,
0010
1000
0001
0010
,
0100
1000
0100
0001
,
0010
1000
0010
0001
,
1000
1000
1000
1000
,
0001
0001
0001
0001
,
0100
0100
0100
0100
,
0010
0010
0010
0010
,
1000
0010
0100
0001
,
1000
0100
0010
0001
,
1000
0010
0001
0010
,
0100
0000
0000
0000
,
1001
0000
0000
0000
;
