#TITLE:Skytoucher;
#SUBTITLE:;
#ARTIST:The Glitch Mob;
#TITLETRANSLIT:;
#SUBTITLETRANSLIT:;
#ARTISTTRANSLIT:;
#GENRE:;
#CREDIT:;
#BANNER:[Gimmick Week] - Skytoucher.png;
#BACKGROUND:[Gimmick Week] - Skytoucher-bg.png;
#LYRICSPATH:;
#CDTITLE:;
#MUSIC:[Gimmick Week] - Skytoucher.ogg;
#OFFSET:-0.017240;
#SAMPLESTART:54.274521;
#SAMPLELENGTH:25.600000;
#SELECTABLE:YES;
#DISPLAYBPM:75.000000:150.000000;
#BPMS:0.000000=150.000000
,72.000000=75.000000
,72.500000=150.000000
,86.500000=75.000000
,87.750000=150.000000
,97.250000=75.000000
,99.500000=150.000000
,127.000000=75.000000
,129.250000=150.000000
,193.250000=75.000000
,197.250000=300.000000
,197.750000=150.000000
,198.000000=75.000000
,198.250000=150.000000
,199.250000=300.000000
,199.750000=150.000000
,200.000000=75.000000
,200.250000=150.000000
,201.250000=300.000000
,201.750000=150.000000
,202.000000=75.000000
,202.250000=150.000000
,203.250000=300.000000
,203.750000=150.000000
,204.000000=75.000000
,204.250000=150.000000
,205.250000=300.000000
,205.750000=150.000000
,206.000000=75.000000
,206.250000=150.000000
,207.250000=300.000000
,207.750000=150.000000
,208.000000=75.000000
,208.250000=150.000000
,209.250000=300.000000
,209.750000=150.000000
,210.000000=75.000000
,210.250000=150.000000
,211.250000=300.000000
,211.750000=150.000000
,212.000000=75.000000
,212.250000=150.000000
,213.250000=300.000000
,213.750000=150.000000
,214.000000=75.000000
,214.250000=150.000000
,215.250000=300.000000
,215.750000=150.000000
,216.000000=75.000000
,216.250000=150.000000
,217.250000=300.000000
,217.750000=150.000000
,218.000000=75.000000
,218.250000=150.000000
,219.250000=300.000000
,219.750000=150.000000
,220.000000=75.000000
,220.250000=150.000000
,221.250000=300.000000
,221.750000=150.000000
,222.000000=75.000000
,222.250000=150.000000
,223.250000=300.000000
,223.750000=150.000000
,224.000000=75.000000
,224.250000=150.000000
,225.250000=300.000000
,225.750000=150.000000
,226.000000=75.000000
,226.250000=150.000000
,227.250000=300.000000
,227.750000=150.000000
,228.000000=75.000000
,228.250000=150.000000
,229.250000=75.000000
;
#STOPS:72.500000=0.200000
;
#BGCHANGES:;
#KEYSOUNDS:;
#ATTACKS:;

//---------------dance-single - ----------------
#NOTES:
     dance-single:
     :
     Hard:
     9:
     0.664416,0.669665,0.350725,0.518463,1.000000,496.000000,46.000000,68.000000,0.000000,0.000000,0.000000,0.664416,0.669665,0.350725,0.518463,1.000000,496.000000,46.000000,68.000000,0.000000,0.000000,0.000000:
// measure 0
0000
0000
0000
0000
,  // measure 1
0000
0000
0000
0000
,  // measure 2
0010
0000
0100
0001
0100
0001
0100
0001
1000
0000
0000
1010
0000
0000
1001
0000
,  // measure 3
1000
0000
0100
1000
0100
1000
0100
1000
0001
0000
0000
0011
0000
0000
1001
0000
,  // measure 4
1000
0000
0010
1000
0010
1000
0010
1000
0001
0000
0000
0101
0000
0000
1001
0000
,  // measure 5
0001
0000
0010
0001
0010
0001
0010
0001
1000
0000
0000
1010
0000
0000
1001
0000
,  // measure 6
0001
0000
0100
0001
0100
0001
0100
0001
0010
0000
0000
0110
0000
0000
1100
0000
,  // measure 7
1000
0000
0100
1000
0100
1000
0100
1000
0010
0000
0000
0110
0000
0000
0101
0000
,  // measure 8
1000
0001
1000
0001
0010
0100
0010
0100
,  // measure 9
1000
0100
1000
0100
0010
0001
0010
0001
0100
0010
0100
0010
1000
0001
1000
0001
,  // measure 10
0020
0000
0000
0000
0130
1000
0100
0000
0010
0000
0001
1000
0000
0001
1000
0000
,  // measure 11
0000
0000
0010
0000
0100
0010
0100
0000
0001
0000
1000
0100
0000
0010
0002
0000
,  // measure 12
0000
0000
1003
0000
0001
1000
0001
0000
0010
0000
0001
0100
0000
0010
2000
0000
,  // measure 13
0000
0000
3001
0000
0010
0100
0010
0000
0001
0000
0100
0010
0000
1000
0200
0000
,  // measure 14
0010
0000
0300
0000
0001
1000
0001
0000
0100
0000
0010
1000
0000
1000
0001
0000
,  // measure 15
0001
0000
0010
0000
0100
0010
0001
0000
0100
0000
0010
0100
0000
0100
0002
0000
,  // measure 16
0000
0003
0101
0000
0000
0000
1000
0001
0100
0000
0010
1000
0000
0010
2000
0000
,  // measure 17
0000
0000
3001
1000
0001
1000
0100
0000
0022
0000
0000
0000
0000
0000
0030
0000
,  // measure 18
1003
0000
0201
0000
0301
0000
0100
0010
0000
0010
1000
0000
0100
0000
0010
0000
,  // measure 19
0100
1000
0100
0000
0010
0000
0001
1000
0000
1000
0020
0000
0000
0000
0130
0000
,  // measure 20
0001
0100
0001
0000
1000
0000
0100
0010
0000
0010
0002
0000
1000
0000
1003
0000
,  // measure 21
0001
0100
0001
0000
0100
0000
0010
1000
0000
1000
0200
0000
0000
0000
0000
0310
,  // measure 22
0000
0001
1000
0000
1000
0001
0000
0010
0000
0001
0000
0100
0010
0100
0000
0010
,  // measure 23
0000
1000
0001
0000
0001
0020
0000
0000
0000
0130
0000
0010
0001
0010
0000
0100
,  // measure 24
0000
0000
1000
0000
0010
0000
0000
0000
0010
0000
0200
0000
0000
0300
0010
1000
0010
0000
0100
0000
0001
0000
1000
0001
1000
0000
0200
0000
0010
0000
0000
0000
,  // measure 25
0310
0000
0001
1000
0001
0000
0100
0000
0010
1000
0000
0010
0001
0000
0010
0000
,  // measure 26
1000
0000
0001
0100
0001
0000
0010
0000
0100
1000
0000
0010
0002
0000
0000
0000
,  // measure 27
0013
0000
0100
0010
0100
0000
0010
0000
1000
0001
0000
0010
2000
0000
0000
0000
,  // measure 28
3010
0000
0100
0010
0100
0000
1000
0000
0010
0100
0000
0001
2000
0000
0100
0000
,  // measure 29
3100
0000
0010
0100
0010
0000
0001
0000
0100
0010
0000
1000
0200
0000
0000
0000
,  // measure 30
0310
0000
0100
0010
0100
0000
0001
0000
0100
1000
0000
1000
0002
0000
0000
0000
,  // measure 31
0013
0000
0000
0000
0100
0000
0010
0000
0100
0000
0000
0000
0001
0000
0000
0000
0100
0000
1000
0000
0000
0000
0010
0000
0002
0000
0000
0000
0013
0100
0001
0000
,  // measure 32
0010
0000
0100
0000
1000
0010
0100
0000
0010
0000
2000
0000
0000
0000
0000
0000
0000
0000
0001
0000
0000
0000
3001
0000
0000
0000
0000
0000
0000
0000
0010
0000
,  // measure 33
0000
0001
0000
0201
0000
0000
0000
0010
0000
0310
0000
1000
0000
0000
0000
0001
,  // measure 34
0000
0000
0000
2001
0000
0000
0000
0010
0000
0000
0000
3200
0000
0010
0000
0000
,  // measure 35
0000
1300
0000
0001
0000
0000
0000
0200
0000
0000
0000
0310
1000
0001
0000
0010
,  // measure 36
0000
0010
0000
0000
0000
0012
0000
0000
0000
1000
0000
0000
0000
0103
0000
0010
,  // measure 37
0000
1000
0000
2001
0000
0000
0000
0100
0000
3100
0000
0000
0000
0100
0000
0010
,  // measure 38
0000
0001
0000
1002
0000
0000
0000
0103
0000
0100
0000
0000
0000
0010
0000
1000
,  // measure 39
0000
0001
0000
0021
0000
0000
0000
0100
0000
0130
0000
1000
0010
1000
0000
0100
,  // measure 40
0000
0010
0001
0010
0001
1000
0000
0010
0000
0000
0000
0100
0000
0000
0000
0010
,  // measure 41
0000
1000
0000
1200
0000
0000
0000
0310
0000
0001
0000
1000
0000
0000
0000
0010
,  // measure 42
0000
0000
0000
0102
0000
0000
0000
0000
0000
0000
0000
0000
0000
1003
0000
0000
,  // measure 43
0000
0000
0000
0200
0000
0000
0000
0000
0000
0300
0000
0010
0001
2000
0000
0000
,  // measure 44
0000
3000
0000
0000
0000
0010
0000
0100
0000
0000
0000
0001
0000
0000
0000
1000
,  // measure 45
0000
0100
0000
0210
0000
0000
0000
0310
0000
0001
0000
1000
0000
0000
0000
0010
,  // measure 46
0000
0000
0000
0021
0000
0000
0000
0000
0000
0000
0000
0030
0000
0200
0000
0000
,  // measure 47
0000
0310
0000
1000
0000
0020
0000
0100
0000
0000
0000
0130
0001
1000
0000
0100
,  // measure 48
0000
0010
0100
0010
0100
2000
0000
0000
0000
0010
0000
0000
0000
0001
0000
0001
,  // measure 49
0000
3100
0000
0110
0000
1002
0000
0000
0000
0103
0000
0010
0000
2010
0000
0000
,  // measure 50
0000
3100
0000
0010
0000
0012
0000
0000
0000
0103
0000
0010
0000
2010
0000
0000
,  // measure 51
0000
3100
0000
0010
0000
0012
0000
0000
0000
1003
0000
0010
0000
0210
0000
0000
,  // measure 52
0000
0301
0000
0010
0000
0210
0000
0000
0000
1300
0000
0010
0000
0210
0000
0000
,  // measure 53
0000
0301
1000
0001
1000
0200
0000
0000
0000
0310
0000
0001
0000
0201
0000
0000
,  // measure 54
0000
0310
0000
1000
0000
1200
0000
0000
0000
0310
0000
0001
0000
0201
0000
0000
,  // measure 55
0000
0310
0000
1000
0000
1200
0000
0000
0000
0310
0000
0100
0000
2100
0000
0000
,  // measure 56
0000
3010
0000
0100
0000
0102
0000
0000
0000
0013
0000
0100
0000
2100
0000
0000
,  // measure 57
0000
3010
0000
0100
0000
0201
0000
0000
0000
0010
0000
0000
0010
0000
0000
0000
,  // measure 58
0000
0000
0000
0000
0301
2000
0000
0000
0000
0000
0000
0000
0020
0000
0000
0000
,  // measure 59
0000
0000
3000
0000
0130
0002
0000
0000
0000
1000
0000
0000
0000
1000
0000
0000
,  // measure 60
0000
0000
1000
0000
0000
0000
0000
0000
1003
0000
0200
0000
0000
0000
0000
0000
0000
0000
0000
0000
0000
0000
0000
0000
0320
0000
0001
0000
0000
0001
0000
0000
,  // measure 61
0001
0000
0000
0031
1000
0020
0000
0000
0000
0100
0000
0000
0000
0100
0000
0000
,  // measure 62
0000
0000
0100
0000
0000
0000
0000
0000
0130
0000
0001
0000
0000
1000
0000
0000
0001
0000
0010
0000
0000
0100
0000
0000
1000
0000
0001
2000
0000
0000
0000
0000
,  // measure 63
0000
0000
0000
3010
0100
0210
0000
0000
0000
0010
0000
0000
0000
0010
0000
0000
,  // measure 64
0000
0000
0310
0000
1000
0000
0001
0000
0010
0000
0120
0000
0000
0000
0000
0000
0000
0000
0100
0000
0000
0000
0000
0000
0130
0000
2100
0000
0000
0100
0000
0000
,  // measure 65
3100
0000
1000
0000
0001
1000
0001
0000
0100
0000
0220
0000
0000
0000
0000
0000
0000
0000
0000
0000
0000
0000
0000
0000
0000
0000
0000
0000
0000
0000
0000
0000
,  // measure 66
0000
0000
0000
0000
,  // measure 67
0000
0000
0000
0000
0000
0000
0000
0000
0000
0330
0000
0000
0000
0000
0000
0000
;

//---------------dance-single - ----------------
#NOTES:
     dance-single:
     :
     Medium:
     6:
     0.389936,0.386345,0.091493,0.419345,0.598519,291.000000,12.000000,55.000000,0.000000,0.000000,0.000000,0.389936,0.386345,0.091493,0.419345,0.598519,291.000000,12.000000,55.000000,0.000000,0.000000,0.000000:
0000
0000
0000
0000
,
0000
0000
0000
0000
,
0010
0000
0000
0000
0110
0000
0000
0000
1000
0000
0000
1000
0000
0000
1000
0000
,
0001
0000
0000
0000
0011
0000
0000
0000
0100
0000
0000
0100
0000
0000
0100
0000
,
1000
0000
0000
0000
1010
0000
0000
0000
0100
0000
0000
0100
0000
0000
0100
0000
,
0001
0000
0000
0000
1001
0000
0000
0000
0001
0000
0000
0001
0000
0000
0001
0000
,
0010
0000
0000
0000
0110
0000
0000
0000
1000
0000
0000
1000
0000
0000
1000
0000
,
0001
0000
0000
0000
0101
0000
0000
0000
0010
0000
0000
0010
0000
0000
0010
0000
,
1000
1010
0001
0011
,
1000
0100
1000
0100
0010
0001
0010
0001
,
2000
0000
0010
0000
3001
0000
0010
0200
,
0000
0000
0310
0000
0100
0000
1000
0002
,
0000
0000
0103
0000
0001
0000
0010
0200
,
0000
0000
1300
0001
0100
0001
1000
0010
,
0200
0000
0010
0000
0301
0000
1000
0200
,
0000
0000
0310
0000
0001
0000
1000
0020
,
0000
0100
0030
0001
1000
0000
0001
1000
,
0000
0100
0010
0000
0220
0000
0030
0000
,
1300
0000
0001
0100
0001
0000
1000
0000
,
0100
0000
0010
0100
0010
0002
0000
0000
,
1003
0000
0010
0100
0010
2000
0000
0000
,
3100
0000
0000
0000
0010
0000
0001
0000
0010
0000
0200
0000
0000
0000
0000
1300
,
0000
0010
0000
0100
0000
0000
0000
0001
0000
0000
0000
1000
0000
0000
0000
0001
,
0000
0010
0000
0100
0000
2000
0000
0000
0000
0001
0000
3001
0000
0000
0000
1000
,
0000
0010
0000
0100
0000
0002
0000
0000
0000
0000
1003
0000
0000
0000
0001
0000
,
0010
0100
0000
1000
0000
0001
0000
1000
,
0010
0100
0000
0001
0000
0010
0200
0000
,
0000
1300
0000
0001
1000
0010
0200
0000
,
0000
0310
0000
1000
0001
0010
0200
0000
,
1000
1300
0000
1010
0000
0101
1000
0000
,
0000
0100
0000
1000
0001
0010
0200
0000
,
0000
1300
0000
0001
0100
0001
2000
0000
,
3001
1000
0001
1000
0000
0002
0000
0000
0000
0010
0000
0000
0000
1003
0000
0001
,
0000
1000
0000
0200
0000
0000
0000
0000
0000
1300
0000
0000
0000
0001
0000
1000
,
0000
0001
0000
0200
0000
0000
0000
0010
0000
0000
0000
0320
0000
1000
0000
0000
,
0000
0000
0000
1030
0000
0000
0000
0001
0000
0000
0000
0000
0000
1000
0000
0100
,
0000
1000
0000
0000
0000
0002
0000
0000
0000
0100
0000
0000
0000
1003
0000
0010
,
0000
0100
0000
0002
0000
0000
0000
0000
0000
1003
0000
0000
0000
0001
0000
0010
,
0000
0100
0000
2000
0000
0000
0000
0000
0000
0000
0000
0000
0000
3001
0000
0000
,
0000
0000
0000
0100
0000
0000
0000
0000
0000
0000
0000
0001
0000
1000
0000
0001
,
0000
0010
0000
0000
0000
0100
0000
1000
0000
0000
0000
0001
0000
0000
0000
1000
,
0000
0010
0000
0001
0000
0000
0000
0010
0000
0100
0000
0001
0000
0000
0000
0010
,
0000
0000
0000
0200
0000
0000
0000
0000
0000
0000
0000
0000
0000
1300
0000
0000
,
0000
0000
0000
0002
0000
0000
0000
0000
0000
0000
0000
0103
0000
0020
0000
0000
,
0000
0000
0000
0030
0000
1000
0000
0100
0000
0000
0000
0010
0000
0000
0000
0001
,
0000
1000
0000
0010
0000
0000
0000
0100
0000
0001
0000
0010
0000
0000
0000
0100
,
0000
0000
0000
0020
0000
0000
0000
0000
0000
0000
0000
0000
0000
0032
0000
0000
,
0000
0000
0000
0000
0000
2003
0000
0000
0000
0000
0000
0000
0000
3020
0000
0000
,
0000
0230
0000
0000
0000
0020
0000
0000
0000
0000
0000
0000
0000
0000
0000
0000
,
0000
0000
0000
0330
0000
1000
0000
0000
0000
0001
0000
0100
0000
0001
0000
0000
,
0000
1000
0000
0100
0000
1000
0000
0000
0000
0001
0000
0100
0000
0001
0000
0000
,
0000
1000
0000
0001
0000
0100
0000
0000
0000
0001
0000
1000
0000
0100
0000
0000
,
0000
1000
0000
0001
0000
0100
0000
0000
0000
0001
0000
1000
0000
0100
0000
0000
,
0000
1000
0000
0001
0000
0010
0000
0000
0000
0001
0000
1000
0000
0010
0000
0000
,
0000
1000
0000
0001
0000
0010
0000
0000
0000
0001
0000
1000
0000
0010
0000
0000
,
0000
1000
0000
0001
0000
0200
0000
0000
0000
0320
0000
0000
0000
2030
0000
0000
,
0000
0000
0000
0000
0000
3002
0000
0000
0000
0023
0000
0000
0000
0230
0000
0000
,
0000
0000
0000
0000
0000
2300
0000
0000
0000
0000
0000
0000
0000
0000
0000
0000
,
0000
0000
0000
0000
0000
3002
0000
0000
0000
0000
0000
0000
0203
0000
0000
0000
,
0000
0000
0000
0000
0000
0320
0000
0000
0000
1000
0000
0000
0000
1000
0000
0000
,
0000
1000
0000
0000
0000
2030
0000
0000
0000
0001
0000
0000
3002
0000
0000
0000
,
0000
0010
0000
0000
0000
0023
0000
0000
0000
0100
0000
0000
0000
0100
0000
0000
,
0000
0100
0000
0000
0000
0230
0000
0000
0000
1000
0000
0000
2300
0000
0000
0000
,
0000
0001
0000
0000
0000
3002
0000
0000
0000
0100
0000
0000
0000
0100
0000
0000
,
0000
0100
0000
0000
0000
0203
0000
0000
0000
0010
0000
0000
0000
0320
0000
0000
,
0000
1000
0000
0030
0000
2002
0000
0000
0000
0000
0000
0000
0000
0000
0000
0000
,
0000
0000
0000
0000
,
0000
0000
0000
0000
0000
0000
0000
0000
0000
3003
0000
0000
0000
0000
0000
0000
;

//---------------dance-single - ----------------
#NOTES:
     dance-single:
     :
     Easy:
     4:
     0.217841,0.202239,0.015249,0.442218,0.266856,140.000000,2.000000,58.000000,0.000000,0.000000,0.000000,0.217841,0.202239,0.015249,0.442218,0.266856,140.000000,2.000000,58.000000,0.000000,0.000000,0.000000:
0000
0000
0000
0000
,
0000
0000
0000
0000
,
1000
0100
1000
0000
,
0001
0010
0001
0000
,
1000
0010
0100
0000
,
0001
0010
0100
0000
,
1000
0000
0001
0000
,
0100
0000
0010
0000
,
1000
0100
1000
0100
,
0010
0001
0010
0001
,
2000
0000
0000
0000
3001
0000
0000
1000
,
0000
0000
0000
0000
0001
0000
0000
0020
,
0000
0000
0000
0000
0130
0000
0000
2000
,
0000
0000
3001
0000
,
0200
0000
0000
0000
0010
0000
0000
1000
,
0000
0000
0000
0000
0301
0000
0000
0002
,
0000
0000
0000
0000
1000
0003
0000
0200
,
0000
0000
0310
0000
,
1001
0000
0000
0001
,
0000
0000
1000
0000
0000
0002
0000
0000
,
0000
0000
0013
0000
0000
0200
0000
0000
,
0000
0000
0000
0000
1300
0000
0000
0000
0000
0000
0020
0000
0000
0000
0000
0130
,
0000
0000
0000
0000
0000
0000
0000
0001
0000
0000
0000
0000
0000
0000
0000
0010
,
0000
0000
0000
0000
0000
0200
0000
0000
0000
0000
0000
0000
0000
0000
0000
1300
,
0000
0000
0000
0000
0000
0002
0000
0003
0000
0000
1000
0000
0000
0000
1000
0000
,
0000
0000
0000
0010
0000
0000
0100
0000
,
0000
0001
0000
1000
0000
0000
0002
0000
,
0000
0010
0000
0013
0000
0000
0200
0000
,
0000
1000
0000
1300
0000
0001
0000
2000
,
0000
0000
0000
3020
0000
0000
0130
0000
,
0000
0001
0000
1000
0000
0000
0002
0000
,
0000
0010
0000
0013
0000
0000
0200
0000
,
0000
1300
0000
0000
0000
0002
0000
0000
0000
0000
0000
0000
0000
1003
0000
0000
,
0000
0000
0000
2000
0000
0000
0000
0000
0000
0000
0000
3000
0000
0010
0000
0000
,
0000
0000
0000
0020
0000
0000
0000
0000
0000
0000
0000
0000
0000
1000
0000
0000
,
0000
0000
0000
1030
0000
0000
0000
1001
0000
0000
0000
0000
0000
0001
0000
0000
,
0000
1000
0000
0000
0000
0002
0000
0000
0000
0000
0000
0000
0000
1003
0000
0000
,
0000
0000
0000
2000
0000
0000
0000
0000
0000
0000
0000
0000
0000
3001
0000
0000
,
0000
0000
0000
0002
0000
0000
0000
0000
0000
0000
0000
0000
0000
1003
0000
0000
,
0000
0000
0000
2000
0000
0000
0000
0000
0000
0000
0000
0000
0000
3001
0000
0000
,
0000
0000
0000
0000
0000
0020
0000
0000
0000
0000
0000
0000
0000
0130
0000
0000
,
0000
0000
0000
0200
0000
0000
0000
0000
0000
0000
0000
0000
0000
1300
0000
0000
,
0000
0000
0000
2000
0000
0000
0000
0000
0000
0000
0000
0000
0000
0001
0000
0000
,
0000
0000
0000
3001
0000
0000
0000
0000
0000
0000
0000
0000
0000
2000
0000
0000
,
0000
0000
0000
3000
0000
0020
0000
0000
0000
0000
0000
0000
0000
0130
0000
0000
,
0000
0000
0000
0200
0000
0000
0000
0000
0000
0000
0000
0000
0000
0301
0000
0000
,
0000
0000
0000
0002
0000
0000
0000
0000
0000
0000
0000
0000
0000
1000
0000
0000
,
0000
1000
0000
0000
0000
0000
0000
1003
0000
0000
0000
0000
0000
0001
0000
0000
,
0000
1000
0000
0000
0000
0002
0000
0000
0000
0000
0000
0000
0000
0000
0000
0000
,
0000
0000
0000
0000
0000
2003
0000
0000
0000
0000
0000
0000
0000
3200
0000
0000
,
0000
0000
0000
0000
0000
0320
0000
0000
0000
0000
0000
0000
0000
0032
0000
0000
,
0000
0000
0000
0000
0000
2003
0000
0000
0000
0000
0000
0000
0000
3020
0000
0000
,
0000
0000
0000
0000
0000
0230
0000
0000
0000
0000
0000
0000
0000
0302
0000
0000
,
0000
0000
0000
0000
0000
0023
0000
0000
0000
0000
0000
0000
0000
0230
0000
0000
,
0000
0000
0000
0000
0000
2300
0000
0000
0000
0000
0000
0000
0000
3002
0000
0000
,
0000
0000
0000
0000
0000
0203
0000
0000
0000
0000
0000
0000
0000
0320
0000
0000
,
0000
0000
0000
0000
0000
2030
0000
0000
0000
0000
0000
0000
0000
3002
0000
0000
,
0000
0000
0000
0000
0000
2003
0000
0000
0000
0000
0000
0000
0000
0000
0000
0000
,
0000
0000
0000
0000
0000
3002
0000
0000
0000
0000
0000
0000
0000
0000
0000
0000
,
0000
0000
0000
0000
0000
0023
0000
0000
0000
0000
0000
0000
0000
0000
0000
0000
,
0000
0000
0000
0000
0000
0230
0000
0000
0000
0000
0000
0000
0000
0000
0000
0000
,
0000
0000
0000
0000
0000
2300
0000
0000
0000
0000
0000
0000
0000
0000
0000
0000
,
0000
0000
0000
0000
0000
3002
0000
0000
0000
0000
0000
0000
0000
0000
0000
0000
,
0000
0000
0000
0000
0000
0203
0000
0000
0000
0000
0000
0000
0000
0000
0000
0000
,
0000
0000
0000
0000
0000
0320
0000
0000
0000
0000
0000
0000
0000
2030
0000
0000
,
0000
0000
0000
0000
0000
0002
0000
0000
0000
0000
0000
0000
0000
0000
0000
0000
,
0000
0000
0000
0000
0000
3003
0000
0000
0000
0000
0000
0000
0000
0000
0000
0000
;
