#TITLE:Seaside Heaven 3000;
#SUBTITLE:;
#ARTIST:MACHO ROBOT;
#TITLETRANSLIT:;
#SUBTITLETRANSLIT:;
#ARTISTTRANSLIT:;
#GENRE:Techno;
#CREDIT:Soundclud;
#BANNER:Seaside Heaven 3000.png;
#BACKGROUND:Seaside Heaven 3000-bg.png;
#LYRICSPATH:;
#CDTITLE:cuzco.png;
#MUSIC:Seaside Heaven 3000.ogg;
#OFFSET:0.209000;
#SAMPLESTART:52.058250;
#SAMPLELENGTH:15.937500;
#LASTBEATHINT:247.502472;
#SELECTABLE:YES;
#DISPLAYBPM:64.000000:128.000000;
#BPMS:0.000000=128.000000
,15.000000=64.000000
,15.250000=192.000000
,16.000000=128.000000
,47.000000=192.000000
,47.500000=96.000000
,93.000000=48.000000
,94.125000=64.000000
,94.375000=96.000000
,94.500000=192.000000
,95.000000=128.000000
,159.000000=10.667000
,159.333328=64.000000
,175.333328=42.667000
,176.000000=64.000000
,190.500000=48.000000
,190.750000=96.000000
,214.625000=64.000000
,214.666672=128.000000
,214.812500=96.000000
,215.000000=128.000000
,243.000000=118.153999
,243.250000=139.636002
,243.500000=118.153999
,243.750000=139.636002
,244.000000=102.500000
,244.250000=160.000000
,244.500000=102.500000
,244.750000=160.000000
,245.000000=85.333000
,245.166672=170.667007
,245.500000=85.333000
,245.666672=170.667007
,246.000000=64.000000
,246.125000=192.000000
,246.500000=128.000000
,246.750000=256.000000
,247.000000=512.000000
,247.500000=128.000000
;
#STOPS:14.500000=0.059000,
14.625000=0.059000,
14.750000=0.059000,
14.875000=0.059000
;
#BGCHANGES:;
#KEYSOUNDS:;
#ATTACKS:;

//---------------dance-single - Don't play this. Just stick with heavy and call it a day.----------------
#NOTES:
     dance-single:
     C 12 X 17:
     Challenge:
     12:
     0.598615,0.737192,0.314444,0.512680,1.097136,613.000000,567.000000,46.000000,75.000000,209.000000,0.000000,0.598615,0.737192,0.314444,0.512680,1.097136,613.000000,567.000000,46.000000,75.000000,209.000000,0.000000:
// measure 0
0000
0000
0000
0000
,  // measure 1
0000
0000
0000
0000
,  // measure 2
0000
M000
0M00
000M
,  // measure 3
00M0
0000
0000
0000
M000
0000
0000
0000
0M00
0000
0000
0000
000M
00M0
0000
0000
,  // measure 4
20M0
0000
3000
0000
1010
0000
MM00
0010
0001
0000
0100
0000
0101
0000
0000
0000
,  // measure 5
0002
0000
0003
0000
0011
0000
0M0M
0010
1000
0000
0100
0000
0110
0000
0000
0000
,  // measure 6
0200
0000
0300
0000
1100
0000
M0M0
0100
0001
0000
1000
0000
1010
0000
0000
0000
,  // measure 7
0001
MMMM
1001
MMMM
1000
MMMM
1100
MMMM
,  // measure 8
0200
0000
0300
0000
1100
0000
M0M0
0100
0001
0000
0010
0000
0110
0000
0100
0000
,  // measure 9
0020
0000
0030
0000
0011
0000
0M0M
0010
1000
0000
0001
0000
1001
0000
1000
0000
,  // measure 10
0002
0000
0003
0000
0101
0000
00MM
0100
1000
0000
0010
0000
1010
0000
2000
0000
,  // measure 11
0000
0001
0000
0100
0000
3001
MMMM
0000
,  // measure 12
0001
0000
0000
0000
0000
0000
0020
0000
0000
0000
0000
0000
0100
0000
0000
0000
0000
0000
0000
0000
0000
0000
0000
0000
0031
0000
0000
0000
0000
0000
1000
0000
0000
0000
0000
0000
0010
0000
0000
1000
0000
0000
0001
0000
0000
0000
0000
0000
0100
0000
0000
0000
0000
0000
0010
0000
0000
0000
0000
0000
1000
0000
0000
0000
,  // measure 13
0000
0002
0000
0000
0103
0000
0000
0020
0000
0000
0100
0000
0000
0000
0000
0000
0032
0000
0000
0000
0000
0000
0023
0000
0000
0000
0000
0000
1030
0000
0000
0100
,  // measure 14
0000
0000
0010
0000
0000
0200
0000
0000
0010
0000
0000
0000
0000
0000
0001
0000
0000
0000
0000
0000
0010
0000
0000
0000
0000
0000
1300
0000
0000
0000
0000
0000
,  // measure 15
0010
0000
0000
0000
0000
0000
0200
0000
0000
0000
0000
0000
0001
0000
0000
0000
0000
0000
0000
0000
0000
0000
0000
0000
0310
0000
0000
0000
0000
0000
1000
0000
0000
0000
0000
0000
0001
0000
0000
1000
0000
0000
0100
0000
0000
0000
0000
0000
0010
0000
0000
0000
0000
0000
0100
0000
0000
0000
0000
0000
0010
0000
0000
0000
,  // measure 16
0000
0002
0000
0000
1003
0000
0000
0200
0000
0000
0010
0000
0000
0000
0000
0000
0302
0000
0000
0000
0000
0000
0203
0000
0000
0000
0000
0000
1300
0000
0000
0010
,  // measure 17
0000
0000
0000
0000
0100
0000
0000
0000
0000
0000
0002
0000
0000
0000
0000
0000
1003
0000
0000
0000
0000
0000
M00M
0000
0000
0000
0000
0000
1010
0000
0000
0000
0000
0000
M0M0
0000
0000
0000
0000
0000
0001
0000
0000
0100
0000
0000
0010
0000
0000
1000
0000
0000
0002
0000
0000
0000
0000
0000
0000
0000
0000
0013
0000
0000
,  // measure 18
0100
0000
0000
0010
0000
0000
0001
0000
0000
0000
0000
0000
1000
0000
0000
0100
0000
0000
0010
0000
0000
0100
0000
0000
1000
0000
0000
0010
0000
0000
0001
0000
,  // measure 19
0000
0000
0010
0000
0000
0100
0000
0000
0010
0000
0000
0000
0000
0000
1000
0000
0000
0000
0000
0000
0010
0000
0000
MM00
0000
0000
0010
0000
0000
0001
0000
0000
1000
0000
0000
0000
0000
0000
0001
0000
0000
1000
0000
0000
0100
0000
0000
0000
0000
0000
0000
0000
0000
0000
0000
0000
0010
0000
0000
0000
0000
0000
0001
0000
,  // measure 20
0000
0000
0000
0000
0100
0000
0000
0000
0000
0000
1000
0000
0000
0000
0000
0000
1100
0000
0000
0000
0000
0000
MM00
0000
0000
0000
0000
0000
0110
0000
0000
0000
0000
0000
0MM0
0000
0000
0010
0000
0000
0100
0000
0000
0000
0000
0000
0001
0000
0000
0000
0000
0000
0010
0000
0000
0M0M
0000
0000
0010
0000
0000
1000
0000
0000
,  // measure 21
0001
0000
0000
0000
0000
0000
0010
0000
0000
0000
0000
0000
0100
0000
0000
0000
0000
0000
0000
0000
0000
0000
0000
0000
0010
0000
0000
0000
0000
0000
0001
0000
0000
0000
0000
0000
1000
0000
0000
0000
0000
0000
0100
0000
0000
0000
0000
0000
0010
0000
0000
0000
0000
0000
0100
0000
0000
0010
0000
0000
1000
0000
0000
0000
,  // measure 22
0000
0000
0010
0000
0000
0100
0000
0000
0010
0000
0000
0000
0000
0000
0001
0000
0000
0000
0000
0000
0100
0000
0000
0000
0000
0000
0010
0000
0000
1000
0000
0000
0001
0000
0000
0000
0000
0000
0100
0000
0000
0000
0000
0000
0010
0000
0000
0000
0000
0000
0000
0000
0000
0000
0000
0000
0100
0000
0000
0000
0000
0000
0001
0000
,  // measure 23
0000
0000
0000
0000
1000
0000
0000
0000
0000
0000
0010
0000
0000
0000
0000
0000
0M01
0000
0000
0010
0000
0000
0200
0000
0000
0002
0000
0000
0000
0000
0303
0000
0000
0000
1M1M
0000
0000
0000
0M00
0000
0000
0000
0000
0000
0000
0000
0000
0000
1M00
0000
0000
0000
0000
0000
0000
0000
0001
0000
0000
0000
0000
0000
0000
0000
,  // measure 24
0010
0100
0000
0001
0000
0100
0000
0010
0100
0000
100M
0000
001M
0000
0100
100M
,  // measure 25
0000
0100
001M
0100
001M
0000
1000
010M
0010
0000
1000
0010
0100
0000
1000
0000
,  // measure 26
0010
0000
1000
0000
0001
0000
0100
0000
1040
0000
1000
0030
0101
0000
0M0M
0000
,  // measure 27
1001
0000
1MM0
0001
1000
0000
0100
0010
00M1
1000
010M
0010
0M01
0000
0100
0000
,  // measure 28
0010
0100
0000
1000
0000
0100
0000
0010
0100
0000
M001
0000
M010
0000
0100
M001
,  // measure 29
0000
0100
M010
0001
M010
0000
0001
M100
0010
0000
0001
0010
0100
0000
0001
0000
,  // measure 30
1000
0000
0100
0010
0000
0100
1000
0000
0001
0000
0010
0000
100M
0000
1000
0000
,  // measure 31
01M0
0000
0100
0000
M001
0000
1000
0100
M010
0001
10M0
0001
M100
0000
0010
0000
,  // measure 32
1000
0100
0000
0001
0000
0100
0000
0010
0001
0000
01M0
0000
00M1
0000
0100
10M0
,  // measure 33
0000
0100
00M1
1000
01M0
0000
0001
01M0
0001
0000
0100
1000
0100
0000
0010
0000
,  // measure 34
0001
0000
0100
0000
0010
0000
0100
0000
0410
0000
0010
0300
0101
0000
0M0M
0000
,  // measure 35
1010
0000
M0M1
1000
0001
0000
0010
0100
10M0
0001
M100
0010
1M00
0000
0010
0000
,  // measure 36
0100
0010
0000
1000
0100
M0M0
0100
0001
1000
0000
0M01
0000
1M00
0000
0010
0M01
,  // measure 37
0000
0010
1M00
0001
0M10
0000
1000
0M10
1000
0000
0010
0001
0010
0000
0100
0000
,  // measure 38
0010
0000
0001
1000
0100
0010
0001
1000
0010
0000
0100
0000
100M
0000
1000
0000
,  // measure 39
0M10
0000
0000
0000
0000
0000
0010
0000
0000
0000
0000
0000
M001
0000
0000
0000
0000
0000
1000
0000
0000
0100
0000
0000
0010
0000
0000
0001
0000
0000
10M0
0000
0000
0M01
0000
0000
0000
0000
0000
0000
1001
0000
0000
0000
0000
0000
1000
0000
,  // measure 40
0000
0000
0000
0000
0000
0000
0000
0000
0000
0000
0100
0000
0000
0000
0000
0000
1000
0000
0000
0000
0000
0000
0000
0000
0000
0000
0000
0000
0000
0000
0000
0000
0000
0000
0000
0000
0000
0000
0000
0000
0100
0000
0000
0000
0000
0000
0000
0000
0000
0000
0000
0000
0010
0000
0000
0000
0000
0000
0000
0000
0000
0000
0000
0000
0001
0000
0000
0000
0000
0000
0000
0000
0000
0000
0000
0000
1000
0000
0000
0000
0000
0000
0000
0000
0000
0000
0000
0000
000M
0000
0000
0000
0000
0000
0000
0000
0000
0000
0000
0000
M000
0000
0000
0000
0000
0000
0000
0000
0000
0000
0000
0000
0110
0000
0000
0000
0000
0000
0000
0000
0000
0000
0000
0000
0000
0000
0000
0000
0000
0000
0000
0000
0000
0000
0000
0000
0001
0000
0000
0000
0000
0000
0000
0000
0000
0000
0000
0000
0000
0000
0000
0000
0000
0000
1000
0000
0000
0000
0000
0000
0001
0000
0000
0000
0000
0000
0000
0000
0000
0000
0000
0000
0000
0000
0000
0000
0000
0000
0000
0000
0000
0000
0000
0000
0000
0000
0000
0000
0000
0000
0000
0000
,  // measure 41
0000
0000
0000
0000
1000
0000
0000
0000
0000
0000
0000
0000
0000
0000
0000
0000
0100
0000
0000
0000
0000
0000
0000
0000
0000
0000
0000
0000
0010
0000
0000
0000
0000
0000
0000
0000
0000
0000
0000
0000
1000
0000
0000
0000
0000
0000
0000
0000
0000
0000
0000
0000
0020
0000
0000
0000
0000
0000
0000
0000
0000
0000
0000
0000
0001
0000
0000
0000
0000
0000
0000
0000
0000
0000
0000
0000
0000
0000
0000
0000
0000
0000
0001
0000
0000
0000
0000
0000
0000
0000
0000
0000
0000
0000
0000
0000
0000
0000
0000
0000
0001
0000
0000
0000
0000
0000
0000
0000
0000
0000
0000
0000
0031
0000
0000
0000
0000
0000
0000
0000
0000
0000
0000
0000
0000
0000
0000
0000
0000
0000
0000
0000
0000
0000
0000
0000
1000
0000
0000
0000
0000
0000
0010
0000
0000
0000
0000
0000
0100
0000
0000
0000
0000
0000
0001
0000
0000
0000
0000
0000
1000
0000
0000
0000
0000
0000
0000
0000
0000
0000
0000
0000
0000
0000
0000
0000
0000
0000
0000
0000
0000
0000
0000
0000
0000
0000
0000
0000
0000
0000
0000
0000
,  // measure 42
0000
0000
0000
0000
0100
0000
0000
0000
0000
0000
0010
0000
0000
0000
0000
0000
0100
0000
0000
0000
0000
0000
0000
0000
0000
0000
0000
0000
1000
0000
0000
0000
0000
0000
0000
0000
0000
0000
0000
0000
0001
0000
0000
0000
0000
0000
0000
0000
0000
0000
0000
0000
0000
0000
0000
0000
0000
0000
1000
0000
0000
0000
0000
0000
0001
0000
0000
0000
0000
0000
0000
0000
0000
0000
0000
0000
0000
0000
0000
0000
0000
0000
0100
0000
0000
0000
0000
0000
0000
0000
0000
0000
0000
0000
0000
0000
0000
0000
0000
0000
0100
0000
0000
0000
0000
0000
0000
0000
0000
0000
0000
0000
001M
0000
0000
0000
0000
0000
0000
0000
0000
0000
0000
0000
0000
0000
0000
0000
0000
0000
0100
0000
0000
0000
0000
0000
0000
0000
0000
0000
0000
0000
0001
0000
0000
0000
0000
0000
0100
0000
0000
0000
0000
0000
0001
0000
0000
0000
0000
0000
2000
0000
0000
0000
0000
0000
0001
0000
0000
0000
0000
0000
0000
0000
0000
0000
0000
0000
0000
0000
0000
0000
0000
0000
0000
0000
0000
0000
0000
0000
3010
0000
,  // measure 43
0000
0000
0000
0000
0100
0000
0000
0000
0000
0000
0001
0000
0000
0000
0000
0000
2000
0000
0000
0000
0000
0000
0100
0000
0000
0000
0000
0000
0000
0000
0000
0000
0000
0000
0000
0000
0000
0000
0000
0000
3000
0000
0000
0000
0000
0000
0000
0000
2000
0000
0000
0000
0000
0000
0000
0000
0000
0000
3M01
0000
0000
0000
0000
0000
0M10
0000
0000
0000
0000
0000
0000
0000
0000
0000
0000
0000
0M01
0000
0000
0000
0000
0000
0010
0000
0000
0000
0000
0000
0M01
0000
0000
0000
0000
0000
0000
0000
0000
0000
0000
0000
M010
0000
0000
0000
0000
0000
0000
0000
0000
0000
0000
0000
020M
0000
0000
0000
0000
0000
0000
0000
0000
0000
0000
0000
0000
0000
0000
0000
0000
0000
0000
0000
0000
0000
0000
0000
13M0
0000
0000
0000
0000
0000
0001
0000
0000
0000
0000
0000
0100
0000
0000
0000
0000
0000
0002
0000
0000
0000
0000
0000
20M3
0000
0000
0000
0000
0000
0000
0000
0000
0000
0000
0000
0000
0000
0000
0000
0000
0000
0000
0000
0000
0000
0000
0000
0000
0000
0000
0000
0000
0000
0000
0000
,  // measure 44
0010
0000
0000
0000
0000
0000
0000
0000
0000
0000
0000
0000
0000
0000
0000
0000
0000
0000
0000
0000
0000
0000
0000
0000
0000
0000
0000
0000
0000
0000
0000
0000
0000
0000
0000
0000
3001
0000
0000
0000
0000
0000
0000
0000
0000
0000
0000
0000
02M0
0000
0000
0000
0000
0000
0000
0000
0000
0000
0000
0000
0000
0000
0000
0000
0000
0000
0010
0000
0000
0000
0000
0000
0000
0000
0000
0000
0000
0000
0000
0000
0000
0000
0000
0000
0001
0000
0000
0000
0000
0000
0000
0000
0000
0000
0000
0000
M001
0000
0000
0000
0000
0000
0000
0000
0000
0000
0000
0000
0000
0000
0000
0000
0000
0000
0000
0000
0000
0000
0000
0000
0000
0000
0000
0000
0000
0000
0000
0000
0000
0000
0000
0000
0000
0000
0000
0000
0301
0000
0000
0000
0000
0000
0000
0000
M020
0000
0000
0000
0000
0000
0000
0000
0000
0000
0000
0000
0000
0000
0000
0000
0000
0000
0000
0000
0000
0000
0000
0000
0000
0000
0000
0000
0000
0000
0000
0000
0000
0000
0000
0000
0100
0000
0000
0000
0000
0000
0000
0000
0000
0000
0000
0000
,  // measure 45
0130
0000
0000
0000
0000
0000
0000
0000
0010
0000
0000
0000
0000
0000
0000
0000
0100
0000
0000
0000
0000
0000
0000
0000
1000
0000
0000
0000
0000
0000
0000
0000
0001
0000
0000
0000
0000
0000
0000
0000
0100
0000
0000
0000
0000
0000
0000
0000
20M0
0000
0000
0000
0000
0000
0000
0000
0000
0000
0000
0000
0000
0000
0000
0000
0000
0000
0100
0000
0000
0000
0000
0000
0000
0000
0000
0000
0000
0000
0000
0000
0000
0000
0000
0000
320M
0000
0000
0000
0000
0000
0000
0000
0000
0000
0000
0000
0310
0000
0000
0000
0000
0000
0000
0000
0000
0000
0000
0000
0200
0000
0000
0000
0000
0000
0000
0000
0000
0000
0000
0000
0301
0000
0000
0000
0000
0000
0010
0000
0000
0000
0000
0000
0100
0000
0000
0000
0000
0000
1000
0000
0000
0000
0000
0000
00M2
0000
0000
0000
0000
0000
0000
0000
0000
0000
0000
0000
0000
0000
0000
0000
0000
0000
0000
0000
0000
0000
0000
0000
0000
0000
0000
0000
0000
0000
0000
0000
0000
0000
0000
0000
0023
0000
0000
0000
0000
0000
0000
0000
0000
0000
0000
0000
,  // measure 46
0100
0000
0000
0000
0000
0000
0000
0000
0000
0000
0000
0000
0000
0000
0000
0000
0000
0000
0000
0000
0000
0000
0000
0000
0000
0000
0000
0000
0000
0000
0000
0000
0031
0000
0000
0000
0000
0000
0000
0000
0010
0000
0000
0000
0000
0000
0000
0000
2M00
0000
0000
0000
0000
0000
0000
0000
0000
0000
0000
0000
0000
0000
0000
0000
0000
0000
3020
0000
0000
0000
0000
0000
0000
0000
0000
0000
0000
0000
0000
0000
0000
0000
0000
0000
0001
0000
0000
0000
0000
0000
0000
0000
0000
0000
0000
0000
0001
0000
0000
0000
0000
0000
0030
0000
0000
0000
0000
0000
0000
0000
0000
0000
0000
0000
0020
0000
0000
0000
0000
0000
0000
0000
0000
0000
0000
0000
0000
0000
0000
0000
0000
0000
0032
0000
0000
0000
0000
0000
0000
0000
0000
0000
0000
0000
2M03
0000
0000
0000
0000
0000
0000
0000
0000
0000
0000
0000
0000
0000
0000
0000
0000
0000
3020
0000
0000
0000
0000
0000
0000
0000
0000
0000
0000
0000
0000
0000
0000
0000
0000
0000
0100
0000
0000
0000
0000
0000
0000
0000
0000
0000
0000
0000
,  // measure 47
013M
0000
0000
0000
0000
0000
0020
0000
0000
0000
0000
0000
0000
0000
0000
0000
M000
0000
0000
0000
0000
0000
0000
0000
0000
0000
0000
0000
0000
0000
0000
0000
0130
0000
0000
0000
0000
0000
0000
0000
0020
0000
0000
0000
0000
0000
0000
0000
010M
0000
0000
0000
0000
0000
0000
0000
0000
0000
0000
0000
0000
0000
0000
0000
0000
0000
0130
0000
0000
0000
0000
0000
0002
0000
0000
0000
0000
0000
0000
0000
0000
0000
0000
0000
0013
0000
0000
0000
0000
0000
0000
0000
0000
0000
0000
0000
1000
0000
0000
0000
0000
0000
0000
0000
0000
0000
0000
0000
0020
0000
0000
0000
0000
0000
0000
0000
0000
0000
0000
0000
0004
0000
0000
0000
0000
0000
0030
0000
0000
0000
0000
0000
0000
0000
0000
0000
0000
0000
0000
0000
0000
0000
0000
0000
2M03
0000
0000
0000
0000
0000
0000
0000
0000
0000
0000
0000
0000
0000
0000
0000
0000
0000
3001
0000
0000
0000
0000
0000
0000
0000
0000
0200
0000
0000
0000
0000
0000
0000
0000
0000
0010
0000
0000
0000
0000
0000
0000
0000
0000
0000
0000
0000
,  // measure 48
0000
0000
0320
0000
0000
0000
0000
0000
1000
0000
0000
0000
0000
0000
0100
0000
0000
0000
0000
0000
1030
0000
0000
0010
0000
0000
1000
0000
0000
0001
0000
0000
M020
0000
0000
0000
0000
0000
0031
0000
0000
2000
0000
0000
0100
0000
0000
0000
0000
0000
32M0
0000
0000
0000
0000
0000
0010
0000
0000
0000
0000
0000
1300
0000
,  // measure 49
0000
0010
0000
0000
0100
0000
0000
0000
0000
0000
2000
0000
0000
3100
0000
0000
002M
0000
0000
0000
0000
0000
1030
0000
0000
0002
0000
0000
1000
0000
0000
0000
0000
0000
0203
0000
0000
0000
0000
0000
M301
0000
0000
0020
0000
0000
0130
0000
0000
0020
0000
0000
0100
0000
0000
0000
0000
0000
0031
0000
0000
0000
0000
0000
,  // measure 50
110M
0000
0000
0000
0000
0000
MM00
0000
0000
0000
0000
0000
1010
0000
0000
0000
0000
0000
M0M0
0000
0000
0000
0000
0000
M110
0000
0000
0000
0000
0000
0100
0000
0000
0001
0000
0000
1000
0000
0000
0100
0000
0000
0020
0000
0000
0130
0000
0000
20M0
0000
0000
0000
0000
0000
0010
0000
0000
0000
0000
0000
0001
0000
0000
0000
,  // measure 51
0000
0000
3200
0000
0000
0000
0000
0000
0010
0000
0000
0000
0000
0000
1000
0000
0000
0000
0000
0000
0310
0000
0000
0000
0000
0000
0001
0000
0000
1000
0000
0000
0M20
0000
0000
0000
0000
0000
0100
0000
0000
0000
0000
0000
0001
0000
0000
0000
0000
0000
0100
0000
0000
0000
0000
0000
1030
0000
0000
0000
0000
0000
0001
0000
,  // measure 52
0000
0010
0000
0000
0100
0000
0000
0000
0000
0000
0002
0000
0000
0000
0000
0000
M203
0000
0000
0000
0000
0000
0310
0000
0000
0M02
0000
0000
1000
0000
0000
0000
0000
0000
M023
0000
0000
0000
0000
0000
2030
0000
0000
0000
0000
0000
301M
0000
0000
0200
0000
0000
1000
0000
0000
0300
0000
0000
0100
0000
0000
1000
0000
0000
,  // measure 53
00M1
0000
0000
0000
0000
0000
M00M
0000
0000
0000
0000
0000
M101
0000
0000
0000
0000
0000
MM0M
0000
0000
0000
0000
0000
0110
0000
0000
0000
0000
0000
1MM0
0000
0000
0001
0000
0000
0010
0000
0000
0100
0000
0000
20M0
0000
0000
3M01
0000
0000
2000
0000
0000
0000
0000
0000
0000
0000
3000
0000
0000
0000
0000
0000
0000
0000
,  // measure 54
1010
0000
0MMM
1000
0100
0000
0001
0000
0101
0000
0001
0000
2000
0000
3000
0000
,  // measure 55
1100
0000
0MMM
1000
0010
0000
0001
0000
1001
0000
1000
0000
0020
0000
0030
0000
,  // measure 56
1010
0000
0MMM
1000
0100
0000
0001
0000
1001
0000
0001
0000
0010
0000
MMMM
0000
,  // measure 57
0110
MMMM
1000
MMMM
1001
MMMM
0002
0003
,  // measure 58
0101
0000
MMM0
0001
0010
0000
1000
0000
1100
0000
1000
0000
0002
0000
0003
0000
,  // measure 59
0011
0000
MMM0
0001
0100
0000
1000
0000
1001
0000
0001
0000
0200
0000
0300
0000
,  // measure 60
0101
0000
MMM0
0001
0010
0000
1000
0000
0010
0000
0100
0000
0001
0000
MMMM
0000
,  // measure 61
1100
MMMM
1000
MMMM
0101
MMMM
0000
0000
;

//---------------dance-single - How can there be 16ths in a BEGINNER chart...!?----------------
#NOTES:
     dance-single:
     C 3 X 5:
     Beginner:
     3:
     0.144527,0.293082,0.164058,0.000000,0.071775,148.000000,124.000000,24.000000,0.000000,0.000000,0.000000,0.144527,0.293082,0.164058,0.000000,0.071775,148.000000,124.000000,24.000000,0.000000,0.000000,0.000000:
0000
0000
0000
0000
,
0000
0000
0000
0000
,
0000
0000
0000
0000
,
0000
0000
0000
0000
,
1001
0000
0000
0000
,
1000
0000
0000
0000
,
0001
0000
0000
0000
,
1000
0000
1000
0000
,
0010
0000
0000
0000
,
0100
0000
0000
0000
,
0010
0000
0000
0000
,
0000
0000
0000
0000
,
1001
0000
0000
1000
,
0000
0001
0000
0000
1000
0000
0000
0000
,
0000
0001
0000
0000
,
0110
0000
0000
0010
,
0000
0100
0000
0000
0010
0000
0000
0100
,
0000
0000
0000
0000
0010
0000
0000
0010
0000
0000
0010
0000
0000
0000
0000
0000
,
0110
0000
0000
1000
,
0000
0001
0000
0000
1001
0000
0000
0000
,
0000
0000
0000
0000
0100
0000
0000
0100
0000
0000
0100
0000
0000
0000
0000
0000
,
0110
0000
0000
1000
,
0000
0001
0000
0000
1001
0000
0000
0000
,
0000
0110
0000
1001
,
0000
0000
0000
1000
,
1000
1000
0000
0001
,
0000
0010
0000
1000
,
0000
0100
0000
0001
,
0000
0000
0000
0001
,
0001
0001
0000
1000
,
0000
0010
0000
0001
,
0000
0100
0000
1000
,
0000
0000
0000
0010
,
0010
0010
0000
1000
,
0000
0001
0000
1001
,
0000
1001
0000
0001
,
0000
0000
0000
0100
,
0100
0100
0000
0110
,
0000
1001
0000
0001
,
0001
0000
0000
0001
0000
0000
0000
0000
0000
0000
1001
0000
,
0000
0000
0000
0000
1000
0000
0000
0001
0000
0000
1001
0000
,
0000
0000
0000
0000
0000
0000
0000
0000
0010
0000
0000
0010
0000
0000
0010
0000
0000
0000
0000
0000
0110
0000
0000
0000
,
0000
0001
0000
0000
1000
0000
0000
0001
0000
0000
1001
0000
,
0000
0000
0110
0000
0000
0000
0000
0000
0001
0000
0000
0001
0000
0000
0001
0000
0000
0000
0000
0000
1001
0000
0000
0000
,
0000
1000
0000
0001
,
0000
1000
0000
0001
,
0000
1000
0000
0010
,
0100
0010
0010
0110
,
0000
0000
0000
0000
0010
0000
0000
0100
,
0000
1001
0000
0000
,
0010
0000
0000
0010
0000
0000
0010
0000
0000
0000
0000
0000
1001
0000
0000
0000
,
0000
0000
1000
0000
,
0000
0000
0001
0000
0000
1000
0000
0000
,
0100
0000
0000
0100
0000
0000
0100
0000
0000
0000
0000
0000
0110
0000
0000
0000
,
0000
0100
0000
0010
,
0000
0100
0000
0010
,
0000
0100
0000
0010
,
0010
0010
0000
1001
,
0000
0001
0000
1000
,
0000
0001
0000
1000
,
0000
0001
0000
1000
,
1000
1000
0000
0000
;

//---------------dance-single - It's really a 3, but...----------------
#NOTES:
     dance-single:
     C 5 X 8:
     Easy:
     5:
     0.254875,0.336318,0.211908,0.300772,0.201654,261.000000,230.000000,31.000000,44.000000,4.000000,0.000000,0.254875,0.336318,0.211908,0.300772,0.201654,261.000000,230.000000,31.000000,44.000000,4.000000,0.000000:
0000
0000
0000
0000
,
0000
0000
0000
0000
,
0000
0000
0000
0000
,
0000
0000
0000
0000
,
1001
1000
0010
0000
,
1001
0001
0010
0000
,
1001
1000
0100
0000
,
1000
0010
0001
0100
,
1100
1000
0001
0000
,
0101
0001
1000
0000
,
0011
0001
1000
2002
,
0000
0000
3003
0110
,
2002
0000
0000
3003
0000
0000
0001
0000
0000
0000
0000
0000
0020
0000
0000
0030
,
0000
0000
0200
0000
0000
0300
0000
0000
2000
0000
0000
3000
0000
0000
0001
0000
,
0000
0000
1000
0000
0000
0010
0000
0000
,
0200
0000
0000
0300
0000
0000
0010
0000
0000
0000
0000
0000
2000
0000
0000
3000
,
0000
0000
0001
0000
0000
0000
0000
0000
0020
0000
0000
0030
0000
0000
0100
0000
,
0000
0000
0000
0000
1000
0000
0000
0010
0000
0000
0001
0000
0000
0100
0000
0000
,
1100
0000
0000
1000
0000
0000
0000
0000
0000
0001
0000
0000
0100
0000
0000
0100
,
0000
0000
0000
0000
0000
0110
0000
0000
0010
0000
0000
0100
0000
0000
0000
0000
,
0000
0100
0000
0000
0101
0000
0000
0011
0000
0000
1010
0000
0000
1100
0000
0000
,
0101
0000
0000
0001
0000
0000
0000
0000
0000
1000
0000
0000
0100
0000
0000
0100
,
0000
0000
0000
0000
0000
0010
0000
0000
0001
0000
0000
0100
0000
0000
1000
0000
,
0000
0000
0010
0000
0000
0000
0000
0000
2002
0000
0000
0000
0000
0000
0000
0000
3003
0MM0
0000
0000
0000
0000
0000
0000
1000
0000
0000
0000
0000
0000
0000
0000
,
0100
0001
0100
1000
,
1000
0001
0001
0100
,
0010
1000
0100
0010
,
0010
0020
0030
0001
,
0100
1000
0100
0001
,
0001
1000
1000
0100
,
0010
0001
0100
1000
,
0010
0001
1001
0001
,
0010
1000
0010
0100
,
0100
0010
0010
0001
,
1000
0001
1000
0010
,
0010
0020
0030
1000
,
0010
0001
0010
0100
,
0100
0010
0010
0100
,
1000
0100
0001
0010
,
1000
0000
0000
0100
0000
0000
0002
0000
0000
1003
1001
0000
,
0000
0000
1000
0000
0000
0010
0000
0000
1000
0000
0000
0000
0000
0000
0001
0000
0000
0010
0000
0000
0001
0000
0000
0000
,
0000
0000
1000
0000
0000
0100
0000
0000
0010
0000
0000
0010
0000
0000
0010
0000
0000
M00M
0000
0000
1001
0000
0000
0000
,
0000
0000
0001
0000
0000
0100
0000
0000
0001
0000
0000
1000
0000
0000
0100
0000
0000
0000
0000
0000
0220
0000
0000
0330
,
0000
0000
2002
0000
0000
3003
0000
0000
0001
0000
0000
0001
0000
0000
0002
0000
0000
1000
0000
0000
2003
0000
0000
0000
,
3000
0020
0032
0023
,
0030
2000
3002
0023
,
0030
0020
0030
0200
,
0302
0000
0000
0000
0203
0000
0000
0000
1300
0000
1000
0000
2001
0000
0000
3001
,
0000
0000
0010
0000
0000
0100
0000
0000
0020
0000
0000
0130
0000
0000
2000
0000
,
0000
3001
0000
0000
2000
0000
0000
3100
0000
0000
0020
0000
0000
0130
0000
0000
,
2000
0000
0000
3010
0000
0000
0002
0000
0000
0103
0000
0000
1002
0000
0000
1003
,
0000
0000
0100
0000
0000
1000
0000
0000
0020
0000
0000
0130
0000
0000
0001
0000
,
0000
1000
0000
0000
0200
0000
0000
0310
0000
0000
2000
0000
0000
3010
0000
0000
,
0002
0000
0000
0103
0000
0000
2000
0000
0000
3010
0000
0000
0110
0000
0000
0000
,
0100
1000
0010
0110
,
0010
1000
0100
0110
,
0010
0001
0100
0001
,
0010
1000
0100
0110
,
0010
0001
0100
0110
,
0100
0001
0010
1100
,
0100
1000
0010
0001
,
0100
1000
1001
0000
;

//---------------dance-single - I have no idea what I'm doing anymore.----------------
#NOTES:
     dance-single:
     C 9 X 14:
     Hard:
     9:
     0.486314,0.589753,0.362294,0.430651,0.598127,498.000000,445.000000,53.000000,63.000000,38.000000,0.000000,0.486314,0.589753,0.362294,0.430651,0.598127,498.000000,445.000000,53.000000,63.000000,38.000000,0.000000:
0000
0000
0000
0000
,
0000
0000
0000
0000
,
0000
0000
0000
0000
,
0000
0000
0000
0000
,
1200
0000
0000
0000
0301
0000
0000
0001
0100
0000
1000
0000
0001
0000
0000
0000
,
0201
0000
0000
0000
1300
0000
0000
1000
0100
0000
0001
0000
0010
0000
0000
0000
,
0021
0000
0000
0000
1030
0000
0000
1000
0010
0000
0001
0000
1000
0000
0000
0000
,
0200
0310
0200
1300
0020
0130
0020
1030
,
1020
0000
0000
0000
0031
0000
0000
0001
0010
0000
0100
0000
0001
0000
1000
0000
,
1200
0000
0000
0000
0301
0000
0000
0001
0100
0000
0010
0000
0001
0000
0100
0000
,
0201
0000
0000
0000
1300
0000
0000
1000
0100
0000
0001
0000
1000
0000
0100
0000
,
2000
0000
0010
0000
0002
3003
MMMM
0000
,
0201
0000
0000
0010
0000
0000
0001
0000
0000
0310
0000
0000
2010
0000
0000
3001
,
0000
0000
0021
0000
0000
0130
0000
0000
2100
0000
0000
0001
0000
0000
0010
0000
,
0000
0001
0000
0000
3200
0000
0000
0010
0000
0000
0001
0000
0000
0310
0000
0000
,
0012
0000
0000
1000
0000
0000
0100
0000
0000
1003
0000
0000
1020
0000
0000
0100
,
0000
0000
0001
0000
0000
0130
0000
0000
0102
0000
0000
1000
0000
0000
0010
0000
,
0000
1003
0000
0000
1400
0000
0000
0304
0000
0000
0043
0000
0000
4030
0000
0000
,
3001
0000
0000
0020
0000
0000
1000
0000
0000
0000
0000
0000
0031
0000
0000
0100
0000
0000
0100
0000
0000
0010
0000
0000
1000
0000
0000
0020
0000
0000
0001
0000
,
0000
0000
0000
0000
1030
0000
0000
0001
0000
0000
0100
0000
0000
0M00
0000
0000
1000
0000
0000
0200
0000
0000
0001
0000
0000
0000
0000
0000
1300
0000
0000
0010
,
0000
0000
0010
0000
0000
0100
0000
0000
0101
0000
0000
0000
0000
0000
0011
0000
0000
0000
0000
0000
1010
0000
0000
0000
0000
0000
1100
0000
0000
0M00
0000
0000
,
0010
0000
0000
0200
0000
0000
1000
0000
0000
0000
0000
0000
0310
0000
0000
1000
0000
0000
1000
0000
0000
0001
0000
0000
0010
0000
0000
0200
0000
0000
0001
0000
,
0000
0000
0000
0000
0310
0000
0000
0001
0000
0000
0001
0000
0000
1000
0000
0000
0001
0000
0000
0200
0000
0000
1000
0000
0000
0000
0000
0000
0310
0000
0000
0100
,
0000
0000
0001
0000
0000
0000
0000
0000
2002
0000
0000
0000
3003
0000
0000
0000
0000
MMMM
0000
0000
0000
0000
0000
0000
1000
0000
0000
0000
0100
0000
0000
0000
,
0010
0000
0100
0000
1000
0000
0010
0000
1000
0000
0001
0000
0100
0000
00MM
0100
,
1000
0000
0001
0000
0010
0000
0M0M
0010
1000
0000
0001
0000
0100
0000
0010
0000
,
0001
0010
1000
0100
M001
0100
0110
0000
,
1100
0000
1001
0001
0200
1000
0310
1000
,
0100
0000
0010
0000
0001
0000
0100
0000
0001
0000
1000
0000
0010
0000
MM00
0010
,
0001
0000
1000
0000
0100
0000
M0M0
0100
0001
0000
1000
0000
0010
0000
0100
0000
,
1000
0100
0001
0010
1000
0010
0400
0000
,
0304
0000
0013
1000
0002
0010
1003
0001
,
0100
0000
0010
0000
0100
0000
0001
0000
1000
0000
0100
0000
0010
0000
MM00
0010
,
1000
0000
0001
0000
0100
0000
00MM
0100
0010
0000
0001
0000
1000
0000
0001
0000
,
0010
0001
1000
0010
M001
0010
0110
0000
,
0101
0000
1001
0001
0200
1000
0310
1000
,
0001
0000
0010
0000
1000
0000
0010
0000
0001
0000
0100
0000
0010
0000
0M0M
0010
,
0001
0000
1000
0000
0100
0000
M0M0
0100
0010
0000
1000
0000
0001
0000
0010
0000
,
1000
0000
0010
0100
0010
0001
0010
0100
0010
0000
0001
0000
0400
0000
0000
0000
,
4300
0000
0000
0000
0000
0000
0000
0000
0000
0000
0000
0000
3010
0000
0000
0000
0000
0000
0001
0000
0000
1000
0000
0000
0010
0000
0000
1000
0000
0000
0001
0000
0000
0000
0000
0000
MMMM
0000
0000
0000
1002
0000
0000
0000
0000
0000
0010
0000
,
0000
0000
0000
0000
1003
0000
0000
0000
0000
0000
0010
0000
0000
0100
0000
0000
0001
0000
0000
2000
0000
0000
0100
0000
0000
0000
0000
0000
3001
0000
0000
0000
0000
0000
0011
0000
0000
0000
0000
0000
2001
0000
0000
0000
0000
0000
0100
0000
,
0000
0000
0000
0000
0000
0000
0000
0000
0000
0000
0000
0000
0000
0000
0000
0000
3001
0000
0000
0000
0000
0000
0000
0000
0000
0000
0000
0000
0100
0000
0000
0000
0000
0000
0000
0000
0000
0000
0000
0000
0010
0000
0000
0000
0000
0000
0000
0000
0000
0000
0000
0000
1000
0000
0000
0000
0000
0000
0000
0000
0000
0000
0000
0000
0001
0000
0000
0000
0000
0000
0000
0000
0000
0000
0000
0000
0000
0000
0000
0000
0000
0000
0001
0000
0000
0000
0000
0000
0000
0000
0000
0000
0000
0000
0000
0000
0000
0000
0000
0000
0100
0000
0000
0000
0000
0000
0000
0000
0000
0000
0000
0000
0010
0000
0000
0000
0000
0000
0000
0000
0000
0000
0000
0000
0000
0000
0000
0000
0000
0000
0000
0000
0000
0000
0000
0000
M11M
0000
0000
0000
0000
0000
0000
0000
0000
0000
0000
0000
0000
0000
0000
0000
0000
0000
0000
0000
0000
0000
0000
0000
1MM2
0000
0000
0000
0000
0000
0000
0000
0000
0000
0000
0000
0000
0000
0000
0000
0000
0000
0000
0000
0000
0000
0000
0000
0100
0000
0000
0000
0000
0000
0000
0000
,
0000
0000
0000
0000
0000
0000
0000
0000
0000
0000
0000
0000
0000
0000
0000
0000
1003
0000
0000
0000
0000
0000
0000
0000
0000
0000
0000
0000
0100
0000
0000
0000
0000
0000
0000
0000
0000
0000
0000
0000
0010
0000
0000
0000
0000
0000
0000
0000
0000
0000
0000
0000
0001
0000
0000
0000
0000
0000
0000
0000
0000
0000
0000
0000
1000
0000
0000
0000
0000
0000
0000
0000
0000
0000
0000
0000
0000
0000
0000
0000
0000
0000
0000
0000
0000
0000
0000
0000
1000
0000
0000
0000
0000
0000
0000
0000
0000
0000
0000
0000
0000
0000
0000
0000
0000
0000
0100
0000
0000
0000
0000
0000
0010
0000
0000
0000
0000
0000
0000
0000
0000
0000
0000
0000
0000
0000
0000
0000
0000
0000
0001
0000
0000
0000
0000
0000
0000
0000
0000
0000
0000
0000
0000
0000
0000
0000
0000
0000
0001
0000
0000
0000
0000
0000
0000
0000
0000
0000
0000
0000
1002
0000
0000
0000
0000
0000
0000
0000
0000
0000
0000
0000
0000
0000
0000
0000
0000
0000
0000
0000
0000
0000
0000
0000
0103
0000
0000
0000
0000
0000
0000
0000
,
0000
0000
0000
0000
0000
0000
0000
0000
0000
0000
0000
0000
0000
0000
0000
0000
2010
0000
0000
0000
0000
0000
0000
0000
0000
0000
0000
0000
0000
0000
0000
0000
0000
0000
0000
0000
0000
0000
0000
0000
3001
0000
0000
0000
0000
0000
0000
0000
0000
0000
0000
0000
0000
0000
0000
0000
0000
0000
1000
0000
0000
0000
0000
0000
0001
0000
0000
0000
0000
0000
0000
0000
0000
0000
0000
0000
0100
0000
0000
0000
0000
0000
0000
0000
0000
0000
0000
0000
0010
0000
0000
0000
0000
0000
0000
0000
0000
0000
0000
0000
0001
0000
0000
0000
0000
0000
0000
0000
0000
0000
0000
0000
0020
0000
0000
0000
0000
0000
0000
0000
0000
0000
0000
0000
0000
0000
0000
0000
0000
0000
0000
0000
0000
0000
0000
0000
M10M
0000
0000
0000
0000
0000
0000
0000
0000
0000
0000
0000
0000
0000
0000
0000
0000
0000
0000
0000
0000
0000
0000
0000
2030
0000
0000
0000
0000
0000
0000
0000
0000
0000
0000
0000
0000
0000
0000
0000
0000
0000
0000
0000
0000
0000
0000
0000
0000
0000
0000
0000
0000
0000
0000
0000
,
0001
0000
0000
0000
0000
0000
3001
0000
0002
0000
0000
0010
0000
0000
0010
0000
0010
0000
0000
0000
0000
0000
0000
0000
0203
0000
0000
0000
0000
0000
0001
0000
,
0001
0000
0000
0000
0000
0000
0010
0000
0320
0000
0000
1000
0000
0000
1000
0000
1030
0000
0000
0000
1001
0000
0000
0000
0002
0000
0000
0000
0000
0000
1000
0000
,
1000
0000
0000
0000
0000
0010
0000
0000
0023
0000
0000
0000
0000
0000
0100
0000
0100
0000
0000
0000
0100
0000
0000
0000
0230
0000
0000
1000
0000
0000
1000
0000
,
1000
0000
0000
0000
0000
0000
0000
0000
2300
0000
0000
0001
0000
0000
0001
0000
3001
0000
0000
0000
4000
0000
3000
0000
1010
0000
0000
2000
0000
0000
0001
0000
,
0000
0000
0000
0000
0100
0000
0000
0000
0000
0000
3001
0000
0000
0001
0000
0000
0101
0000
0000
0000
0000
0000
0100
0000
0000
0110
0000
0000
0010
0000
0000
0000
,
0000
0010
0000
0000
1000
0000
0000
0000
0000
0000
0001
0000
0000
0000
0000
0000
1001
0000
0000
0000
0000
0000
0002
0000
0000
0000
0000
0000
0013
0000
0000
0000
0000
0000
0000
0000
0000
0000
0000
0000
1100
0000
0000
0000
0000
0000
0000
0000
0000
1000
0000
0000
0001
0000
0000
0000
0000
0000
0100
0000
0000
0000
0000
0000
,
0140
0000
0000
0000
0000
0000
0000
0000
0000
0000
0000
0000
0034
0000
0000
0000
0000
0000
0000
0000
0000
0000
0000
0000
0103
0000
0000
0000
0000
0000
1000
0000
0000
0100
0000
0000
1000
0000
0000
0001
0000
0000
0100
0000
0000
0000
0000
0000
0110
0000
0000
0000
0000
0000
0020
0000
0000
0000
0000
0000
1000
0000
0000
0000
,
0000
0000
0000
0000
0100
0000
0000
0000
0000
0000
1030
0000
0000
0001
0000
0000
0021
0000
0000
0000
0000
0000
0100
0000
0000
0000
0000
0000
0001
0000
0000
0000
,
0000
0130
0000
0000
1000
0000
0000
0000
0000
0000
0010
0000
0000
0000
0000
0000
1010
0000
0000
0000
0000
0000
0010
0000
0000
1000
0000
0000
0010
0000
0000
0000
0000
0000
0100
0000
0000
0000
0000
0000
0101
0000
0000
0000
0000
0000
0001
0000
0000
1000
0000
0000
0001
0000
0000
0000
0000
0000
0010
0000
0000
0000
0000
0000
,
0410
0000
0000
0000
0000
0000
0000
0000
0000
0000
0000
0000
0304
0000
0000
0000
0000
0000
0000
0000
0000
0000
0000
0000
0013
0000
0000
0000
0000
0000
0100
0000
0000
0010
0000
0000
0100
0000
0000
0001
0000
0000
1000
0000
0000
0000
0000
0000
1020
0000
0000
0000
0000
0000
0000
0000
0000
0000
0000
0000
0000
0000
0000
0000
,
0130
0000
0000
1000
0100
0000
0001
0000
0011
0000
0001
0000
1200
0000
0000
0000
,
0310
0000
0000
1000
0010
0000
0001
0000
0101
0000
0001
0000
0021
0000
0000
0000
,
0130
0000
0000
0001
0100
0000
1000
0000
1010
0000
1000
0000
0100
0000
2000
0000
,
3100
0002
0103
2000
3100
0010
0012
0000
,
0103
0000
0000
1000
0100
0000
0010
0000
0001
0000
0010
0000
2010
0000
0000
0000
,
3100
0000
0000
0001
0100
0000
0010
0000
1000
0000
0010
0000
0012
0000
0000
0000
,
0103
0000
0000
1000
0100
0000
0010
0000
0001
0000
0010
0000
0200
0000
0301
0000
,
0200
1300
0200
0310
0200
1300
0000
0000
;

//---------------dance-single - Hm...----------------
#NOTES:
     dance-single:
     C 7 X 10:
     Medium:
     7:
     0.374013,0.441418,0.444323,0.553695,0.324698,383.000000,318.000000,65.000000,81.000000,0.000000,0.000000,0.374013,0.441418,0.444323,0.553695,0.324698,383.000000,318.000000,65.000000,81.000000,0.000000,0.000000:
0000
0000
0000
0000
,
0000
0000
0000
0000
,
0000
0000
0000
0000
,
0000
0000
0000
0000
,
0002
0000
1003
0000
0010
1000
0100
0000
,
2000
0000
3001
0000
0010
0100
1000
0000
,
0002
0000
1003
0000
0001
1000
0010
0000
,
1010
0011
0101
1100
,
2001
0000
3010
0000
0100
0001
0010
0000
,
0210
0000
1300
0000
0001
1000
0010
0000
,
0210
0000
0301
0000
1000
0200
0020
0000
,
0000
0000
0330
1001
,
0102
0000
0000
0103
0000
0000
0010
0000
0000
1000
0000
0000
0002
0000
0000
1003
,
0000
0000
0200
0000
0000
0310
0000
0000
0002
0000
0000
0103
0000
0000
1000
0000
,
0000
0100
0000
0000
0001
0000
0000
0010
0000
0000
0100
0000
0000
1000
0000
0000
,
2100
0000
0000
3100
0000
0000
0010
0000
0000
0001
0000
0000
2000
0000
0000
3001
,
0000
0000
0100
0000
0000
0010
0000
0000
0002
0000
0000
0013
0000
0000
1000
0000
,
0000
0001
0000
0000
0011
0000
0000
1010
0000
0000
1100
0000
0000
0101
0000
0000
,
0101
0000
0000
0001
0000
0000
0010
0000
0000
0000
0000
0000
0100
0000
0000
0002
0000
0000
0203
0000
0000
0320
0000
0000
0130
0000
0000
0100
0000
0000
1000
0000
,
0000
0000
0000
0000
0001
0000
0000
0200
0000
0000
0320
0000
0000
0230
0000
0000
0301
0000
0000
1000
0000
0000
1000
0000
0000
0000
0000
0000
0001
0000
0000
0020
,
0000
0000
0230
0000
0000
1300
0000
0000
1010
0000
0000
0000
0000
0000
0011
0000
0000
0000
0000
0000
0101
0000
0000
0000
0000
0000
1100
0000
0000
0000
0000
0000
,
0100
0000
0000
0100
0000
0000
1000
0000
0000
0000
0000
0000
0001
0000
0000
0200
0000
0000
2300
0000
0000
3200
0000
0000
0301
0000
0000
0001
0000
0000
0010
0000
,
0000
0000
0000
0000
0100
0000
0000
0020
0000
0000
0032
0000
0000
0023
0000
0000
0130
0000
0000
1000
0000
0000
1000
0000
0000
0000
0000
0000
0001
0000
0000
0200
,
0000
0000
0302
0000
0000
1000
0000
0000
2000
0000
0000
0000
0000
0000
0000
0000
0000
3000
0000
0000
0000
0000
0000
0000
1003
0000
0000
0000
0100
0000
0000
0000
,
0010
0000
0001
0100
0010
0000
0002
0000
,
0013
1000
0002
0000
0013
0100
1000
0100
,
1000
0100
1000
0000
1001
0000
0101
0000
,
1100
0000
1010
0000
0021
0001
0031
0100
,
0010
0000
1000
0100
0010
0000
2000
0000
,
3010
0100
2000
0000
3010
0100
0001
0000
,
1000
0000
0000
0001
0000
0000
0100
0000
0000
0000
0100
0000
1100
0000
0000
0000
,
1010
0000
0011
0000
0002
0010
0013
0100
,
1000
0000
0010
0100
0001
0000
0020
0000
,
0130
1000
0020
0000
0130
0001
1000
0001
,
0010
0100
0110
0101
,
0011
0000
1010
0000
2000
0100
3100
0010
,
0001
0000
0200
0310
1000
0000
0200
0000
,
0310
0001
0200
0000
0310
1000
0100
0000
,
0001
0000
0000
0100
0010
0000
0001
0000
0100
0000
0010
0000
0011
0000
0000
0000
,
0101
0000
0000
0000
0000
0000
2200
0000
0000
0000
0000
0000
0000
0000
0000
3300
0000
0000
0000
0000
1001
0000
0000
0000
,
0000
0000
2000
0000
0000
0010
0000
0000
3001
0000
0000
0000
0000
0000
0011
0000
0000
0001
0000
0000
1000
0000
0000
0000
,
0000
0000
0002
0000
0000
0100
0000
0000
1003
0000
0000
1000
0000
0000
1000
0000
0000
0110
0000
0000
1001
0000
0000
0000
,
0000
0000
2000
0000
0000
0100
0000
0000
3001
0000
0000
0001
0000
0000
0011
0000
0000
0001
0000
0000
2002
0000
0000
3003
,
0000
0000
0000
0000
0000
0000
0000
0000
0000
0000
0000
0000
0000
0000
0000
0000
0220
0000
0000
0000
0000
0000
0000
0000
0000
0000
0000
0000
0000
0000
0000
0000
0000
0000
0000
0000
0000
0000
0000
0000
0330
0000
0000
0000
0000
0000
0000
0000
0000
0000
0000
0000
0000
0000
0000
0000
0000
0000
0000
0000
0000
0000
0000
0000
1000
0000
0000
0000
0000
0000
0000
0000
0000
0000
0000
0000
0000
0000
0000
0000
0000
0000
0100
0000
0000
0000
0000
0000
0000
0000
0000
0000
0000
0000
0000
0000
0000
0000
0000
0000
0010
0000
0000
0000
0000
0000
0000
0000
0000
0000
0000
0000
0002
0000
0000
0000
0000
0000
0000
0000
0000
0000
0000
0000
0000
0000
0000
0000
0000
0000
0000
0000
0000
0000
0000
0000
1000
0000
0000
0000
0000
0000
0000
0000
0000
0000
0000
0000
0000
0000
0000
0000
0000
0000
0000
0000
0000
0000
0000
0000
0203
0000
0000
0000
0000
0000
0000
0000
0000
0000
0000
0000
0000
0000
0000
0000
0000
0000
0000
0000
0000
0000
0000
0000
0000
0000
0000
0000
0000
0000
0000
0000
,
0310
0200
2300
3200
,
0301
0020
0230
2300
,
3001
0020
0130
2000
,
3020
0000
0000
0000
0032
0000
0000
0000
0013
0000
1000
0000
2001
0000
0000
0010
,
0000
0000
0000
0000
0001
0000
0000
0000
0000
0000
3100
0000
0000
0000
0000
0000
0012
0000
0000
0000
0000
0000
1003
0000
0000
0010
0000
0000
0200
0000
0000
0000
,
0000
0000
1000
0000
0000
0300
0000
0000
0120
0000
0000
0000
0000
0000
1030
0000
0000
0000
0000
0000
1002
0000
0000
0000
0000
0000
0013
0000
0000
0000
0000
0000
,
0110
0000
0000
1001
0000
0000
0220
0000
0000
0330
0000
0000
1002
0000
0000
0010
,
0000
0000
0100
0000
0000
1003
0000
0000
1020
0000
0000
0100
0000
0000
0001
0000
,
0000
0000
0130
0000
0000
0000
0000
0000
0102
0000
0000
0000
0000
0000
0010
0000
0000
0010
0000
0000
0010
0000
0000
0000
0000
0000
1003
0000
0000
0000
0000
0000
,
1010
0000
0000
0011
0000
0000
0101
0000
0000
1100
0000
0000
2100
0000
0000
0000
,
3001
0000
0100
0010
0001
0000
0020
0000
,
1030
0000
0001
0010
1000
0000
0020
0000
,
0130
0000
1000
0010
0100
0000
0101
0000
,
0011
1010
1100
0102
,
1003
0000
0100
0001
0100
0000
2000
0000
,
3001
0000
0100
1000
0100
0000
0020
0000
,
1030
0000
0010
0001
0010
0000
1010
0000
,
1100
0101
0011
0000
;
