#TITLE:Scatman;
#SUBTITLE:Short Splitter RMX;
#ARTIST:Kurwastyle Project;
#TITLETRANSLIT:;
#SUBTITLETRANSLIT:;
#ARTISTTRANSLIT:;
#GENRE:;
#CREDIT:;
#BANNER:[ROUND F] - Scatman (Extreme Splitter Rmx).png;
#BACKGROUND:[ROUND F] - Scatman (Extreme Splitter Rmx)-bg.png;
#LYRICSPATH:;
#CDTITLE:cdtitle.png;
#MUSIC:Scatman (Short Splitter Rmx).ogg;
#OFFSET:-0.057000;
#SAMPLESTART:13.324000;
#SAMPLELENGTH:12.000000;
#SELECTABLE:YES;
#BPMS:0.000000=126.470001
,15.500000=252.940002
,16.000000=126.470001
,19.500000=252.940002
,20.000000=126.470001
,23.500000=252.940002
,24.000000=126.470001
,27.500000=252.940002
,28.000000=126.470001
,60.000000=252.940002
,62.000000=126.470001
,63.000000=252.940002
,64.000000=252.920013
,66.000000=126.470001
,68.000000=252.940002
,70.000000=126.470001
,71.000000=252.940002
,74.000000=126.470001
,76.000000=189.705002
,76.750000=63.235001
,77.000000=189.705002
,77.750000=63.235001
,78.000000=189.705002
,78.750000=63.235001
,79.000000=189.705002
,79.750000=63.235001
,80.000000=189.705002
,80.750000=63.235001
,81.000000=189.705002
,81.750000=63.235001
,82.000000=189.705002
,82.750000=63.235001
,83.000000=189.705002
,83.750000=63.235001
,84.000000=189.705002
,84.750000=63.235001
,85.000000=189.705002
,85.750000=63.235001
,86.000000=189.705002
,86.750000=63.235001
,87.000000=189.705002
,87.750000=63.235001
,88.000000=189.705002
,88.750000=63.235001
,89.000000=189.705002
,89.750000=63.235001
,90.000000=189.705002
,90.750000=63.235001
,91.000000=126.470001
,106.000000=189.705002
,108.000000=126.470001
;
#STOPS:15.500000=0.030000,
15.625000=0.030000,
15.750000=0.030000,
15.875000=0.030000,
19.500000=0.030000,
19.625000=0.030000,
19.750000=0.030000,
19.875000=0.030000,
23.500000=0.030000,
23.625000=0.030000,
23.750000=0.030000,
23.875000=0.030000,
27.500000=0.030000,
27.625000=0.030000,
27.750000=0.030000,
27.875000=0.030000,
60.000000=0.119000,
60.500000=0.119000,
61.000000=0.119000,
61.500000=0.119000,
63.000000=0.119000,
63.500000=0.119000,
64.000000=0.119000,
64.500000=0.119000,
65.000000=0.119000,
65.500000=0.119000,
68.000000=0.119000,
68.500000=0.119000,
69.000000=0.119000,
69.500000=0.119000,
71.000000=0.119000,
71.500000=0.119000,
72.000000=0.119000,
72.500000=0.119000,
73.000000=0.119000,
73.500000=0.119000,
106.000000=0.040000,
106.250000=0.040000,
106.500000=0.040000,
106.750000=0.040000,
107.000000=0.040000,
107.250000=0.040000,
107.500000=0.040000,
107.750000=0.040000
;
#BGCHANGES:;
#KEYSOUNDS:;
#ATTACKS:;

//---------------dance-single - ----------------
#NOTES:
     dance-single:
     :
     Hard:
     8:
     0.536059,0.720132,0.147153,0.607008,0.358687,204.000000,196.000000,8.000000,33.000000,0.000000,0.000000,0.536059,0.720132,0.147153,0.607008,0.358687,204.000000,196.000000,8.000000,33.000000,0.000000,0.000000:
0000
0000
0000
0000
,
0000
0000
0000
0000
,
0000
0000
0000
0000
,
1000
0100
0001
0100
1000
0100
0001
0200
,
1300
0010
0001
0010
1000
0010
0001
0020
,
1030
0100
1000
0010
1000
0100
1000
0020
,
0130
0001
0010
0001
0100
0001
0010
0002
,
1003
0000
0010
0000
0100
0000
0001
0000
0010
0002
0000
1003
0000
0000
0000
0000
,
1000
0000
0010
0000
0100
0000
0001
0000
1000
0002
0000
0013
0000
0000
0000
0000
,
0001
0000
0010
0000
0100
0000
1000
0000
0001
0020
0000
0130
0000
0000
0000
0000
,
1000
0000
0100
0000
0001
0000
0100
0000
1000
0001
1000
0010
0100
0001
0010
0100
,
1000
0000
0010
0000
0100
0000
0001
0000
1000
0002
0000
0013
0000
0000
0000
0000
,
0010
0000
0001
0000
1000
0000
0100
0000
0010
0002
0000
1003
0000
0000
0000
0000
,
1000
0000
0010
0000
0100
0000
0001
0000
1000
0002
0000
0103
0000
0000
0000
0000
,
0100
0000
0001
0000
0010
0000
0001
0000
1000
0010
0100
0010
1000
0001
0010
0001
,
1000
0000
1000
0000
0100
0000
0100
0000
0010
0002
0000
1003
0001
0000
0001
0000
,
0100
0000
0100
0000
0010
0000
0010
0000
1000
0002
0000
0103
0001
0000
0001
1000
,
0010
0000
0010
0000
0100
0000
0100
0000
0001
2000
0000
3010
1000
0000
1000
0000
,
0100
0000
0100
0000
0010
0000
0010
0000
0001
0100
0010
1000
0100
0010
0100
1000
,
0002
0203
0320
1030
,
2000
3020
0230
0301
,
0002
0023
0230
1300
,
2000
0000
3200
0000
0320
0000
0031
0010
,
0011
0001
0100
0010
1010
1000
0100
0010
,
0011
0001
0100
0010
1010
1000
0100
1000
,
1001
0001
1001
1000
1001
0001
1001
1000
,
0001
1000
0001
0010
0100
1000
0001
1000
0200
0320
0032
0203
0320
2030
3002
0203
,
0301
0000
0000
0000
;

//---------------dance-single - ----------------
#NOTES:
     dance-single:
     :
     Medium:
     7:
     0.480877,0.620804,0.000000,0.349490,0.101168,183.000000,183.000000,0.000000,19.000000,0.000000,0.000000,0.480877,0.620804,0.000000,0.349490,0.101168,183.000000,183.000000,0.000000,19.000000,0.000000,0.000000:
0000
0000
0000
0000
,
0000
0000
0000
0000
,
0000
0000
0000
0000
,
1000
0100
1000
0100
1000
0100
1000
0200
,
0310
0001
0010
0001
0010
0001
0010
0002
,
0103
0010
0100
0010
0100
0010
0100
0020
,
1030
0001
1000
0001
1000
0001
1000
0002
,
1003
0100
0001
0100
1000
0100
0010
0000
,
0001
0100
1000
0100
0001
0100
0010
0000
,
1000
0100
0001
0100
1000
0010
0100
0000
,
0001
0000
0100
0000
1000
0000
0100
0000
0001
0000
0010
0000
0100
0000
1000
0001
,
1000
0010
0100
0010
1000
0010
0100
0000
,
0001
0010
0100
0010
0001
1000
0001
0000
,
0001
0100
0010
0100
0001
1000
0001
0000
,
1000
0000
0100
0000
0010
0000
0100
0000
1000
0000
0001
0000
1000
0000
0010
0100
,
0010
0010
1000
1000
0100
0100
0010
0010
,
0001
0001
0100
0100
0010
0010
0100
0100
,
0001
0001
0010
0010
0100
0100
1000
1000
,
0010
0000
0010
0000
1000
0000
1000
0000
0100
0000
0010
0000
0001
0000
1000
0001
,
2000
3200
0320
0032
,
0203
2300
3020
0032
,
0203
2300
3200
0302
,
0023
0000
2030
0000
3200
0000
0301
0001
,
0001
1000
0100
1000
0001
1000
0100
1000
,
0001
0100
0001
1000
0001
0100
0001
1000
,
0010
1000
0001
1000
0010
1000
0001
1000
,
0001
1000
0001
1000
0001
1000
0001
1000
0100
0010
0100
0010
0100
0010
0100
0010
,
0100
0000
0000
0000
;

//---------------dance-single - ----------------
#NOTES:
     dance-single:
     :
     Easy:
     5:
     0.338979,0.446979,0.147153,0.294307,0.055183,129.000000,121.000000,8.000000,16.000000,0.000000,0.000000,0.338979,0.446979,0.147153,0.294307,0.055183,129.000000,121.000000,8.000000,16.000000,0.000000,0.000000:
0000
0000
0000
0000
,
0000
0000
0000
0000
,
0000
0000
0000
0000
,
1000
0000
0100
0000
0010
0000
0001
1000
,
0001
0000
0010
0000
0100
0000
1000
0001
,
1000
0000
0100
0000
0010
0000
0001
1000
,
0001
0000
0010
0000
0100
0000
1000
0001
,
1000
0000
0000
0000
0100
0000
0000
0000
0010
0000
0000
0010
0000
0000
0000
0000
,
0000
0000
0000
0000
0001
0000
0000
0000
0010
0000
0000
0010
0000
0000
0000
0000
,
0001
0000
0000
0000
0100
0000
0000
0000
0010
0000
0000
0010
0000
0000
0000
0000
,
0000
0000
1000
0000
0010
0000
0100
0001
,
1000
0000
0000
0000
0001
0000
0000
0000
0010
0000
0000
0010
0000
0000
0000
0000
,
0000
0000
0000
0000
0001
0000
0000
0000
0010
0000
0000
0010
0000
0000
0000
0000
,
0001
0000
0000
0000
1000
0000
0000
0000
0010
0000
0000
0010
0000
0000
0000
0000
,
0000
0000
1000
0000
0001
0000
0010
0001
,
1000
0001
1000
0001
1000
0001
1000
0001
,
1000
0001
1000
0001
1000
0001
1000
0000
,
0010
0100
0010
0100
0010
0100
0010
0100
,
0010
0100
0010
0100
0010
0000
0010
0000
,
2000
0000
3200
0000
0320
0000
0032
0003
,
0002
0000
0023
0000
0230
0000
2300
3000
,
2000
0000
3020
0000
0230
0000
0302
0003
,
0002
0000
0203
0000
0320
0000
2030
3001
,
1001
1001
1100
1100
,
1001
1001
0011
0011
,
0001
0010
0001
0010
0100
1000
0100
1000
,
0001
1000
0001
1000
0010
0100
0010
0100
,
0001
0000
0000
0000
;

//---------------dance-single - ----------------
#NOTES:
     dance-single:
     :
     Beginner:
     1:
     0.070949,0.198657,0.018394,0.000000,0.000000,27.000000,26.000000,1.000000,0.000000,0.000000,0.000000,0.070949,0.198657,0.018394,0.000000,0.000000,27.000000,26.000000,1.000000,0.000000,0.000000,0.000000:
0000
0000
0000
0000
,
0000
0000
0000
0000
,
0000
0000
0000
0000
,
1000
0000
0000
0000
,
0001
0000
0000
0000
,
1000
0000
0000
0000
,
0001
0000
0000
0000
,
1001
0000
0000
0000
,
0000
0000
0000
0000
,
0001
0000
0000
0000
,
0000
0000
0000
0000
,
1000
0000
0000
0000
,
0000
0000
0000
0000
,
0001
0000
0000
0000
,
0000
0000
0000
0000
,
0100
0000
0000
0000
,
0000
0000
0000
0000
,
0010
0000
0000
0000
,
0000
0000
0000
0000
,
0100
0000
0000
0000
,
0000
0000
0000
0000
,
0010
0000
0000
0000
,
0000
0000
0000
0000
,
1000
1000
1000
0000
,
0001
0001
0001
0000
,
1000
1000
1000
0000
,
0001
0001
0001
0001
,
0001
0000
0000
0000
;

//---------------dance-double - ----------------
#NOTES:
     dance-double:
     :
     Easy:
     6:
     0.430950,0.422147,0.000000,0.423066,0.009197,164.000000,164.000000,0.000000,23.000000,0.000000,0.000000,0.430950,0.422147,0.000000,0.423066,0.009197,164.000000,164.000000,0.000000,23.000000,0.000000,0.000000:
00000000
00000000
00000000
00000000
,
00000000
00000000
00000000
00000000
,
00000000
00000000
00000000
00000000
,
10000000
01000000
10000000
01000000
10000000
01000000
10000000
02000000
,
03010000
01000000
00010000
01000000
00010000
01000000
00010000
02000000
,
13000000
00100000
10000000
00100000
10000000
00100000
10000000
00200000
,
00310000
00100000
00010000
00100000
00010000
00100000
00010000
00200000
,
20300000
00000000
31000000
00100000
00001000
00010000
00001000
00000000
,
00010000
00000000
00000100
00010000
00001000
00100000
01000000
00000000
,
20000000
00000000
30100000
00010000
00001000
00010000
00000100
00000000
,
00001000
00000000
00000000
00000000
00000010
00000000
00000100
00000000
00000001
00000000
00000010
00000000
00001000
00010000
00001000
00000000
,
01000000
00000000
01000000
00100000
10000000
01000000
00100000
00000000
,
00001000
00000000
00010000
00000100
00001000
00000010
00000100
00000000
,
00000002
00000000
00000103
00000010
00010000
00001000
00010000
00000000
,
00001000
00000000
01000000
00100000
10000000
01000000
00100000
01000000
,
10000000
00010000
10000000
00010000
01000000
00010000
01000000
00010000
,
01000000
00001000
01000000
00001000
00010000
00001000
00010000
00001000
,
00010000
00000100
00010000
00000100
00001000
00000100
00001000
00000001
,
00001000
00000001
00001000
00000001
00000100
00000001
00000100
00000001
,
00002000
00003200
00000320
00000032
,
00000203
00000320
00020030
00032000
,
02003000
03020000
20030000
30200000
,
20300000
32000000
03200000
00302000
,
00013000
00001000
00010000
00000100
00001000
00000001
00000100
00000001
,
00001000
00000100
00010000
00001000
01000000
00010000
10000000
01000000
,
10000000
00100000
01000000
00001000
00010000
00000100
00000010
00000001
,
00001000
00000001
00000010
00000100
00010000
00001000
01000000
00001000
,
00010000
00000000
00000000
00000000
;

//---------------dance-double - ----------------
#NOTES:
     dance-double:
     :
     Medium:
     8:
     0.533431,0.720132,0.202336,0.349490,0.349490,203.000000,192.000000,11.000000,19.000000,0.000000,0.000000,0.533431,0.720132,0.202336,0.349490,0.349490,203.000000,192.000000,11.000000,19.000000,0.000000,0.000000:
// measure 0
00000000
00000000
00000000
00000000
,  // measure 1
00000000
00000000
00000000
00000000
,  // measure 2
00000000
00000000
00000000
00000000
,  // measure 3
10000000
01000000
00010000
01000000
10000000
01000000
00100000
00002000
,  // measure 4
00013000
00000100
00000010
00000100
00010000
00000010
00000100
00000020
,  // measure 5
00001030
00000100
00000001
00000100
00001000
00000100
00000001
00000200
,  // measure 6
00010300
00001000
00100000
00001000
00010000
00001000
01000000
00020000
,  // measure 7
10030000
00000000
01000000
00000000
00100000
00000000
00010000
00000000
10000000
00010000
00000000
01000000
00000000
00000000
00000000
00000000
,  // measure 8
01000000
00000000
00010000
00000000
00100000
00000000
00001000
00000000
00000010
00001000
00000000
00000001
00000000
00000000
00000000
00000000
,  // measure 9
00000100
00000000
00001000
00000000
00000010
00000000
00001000
00000000
00000001
00001000
00000000
00000100
00000000
00000000
00000000
00000000
,  // measure 10
00010000
00000000
01000000
00000000
00010000
00000000
00001000
00000000
00010000
00001000
01000000
00001000
00100000
00010000
01000000
00100000
,  // measure 11
10000000
00000000
01000000
00000000
00100000
00000000
00001000
00000000
00010000
00001000
00000000
00010000
00000000
00000000
00000000
00000000
,  // measure 12
00001000
00000000
00010000
00000000
00000100
00000000
00000010
00000000
00000100
00001000
00000000
00000001
00000000
00000000
00000000
00000000
,  // measure 13
00000100
00000000
00001000
00000000
00010000
00000000
00100000
00000000
10000000
00010000
00000000
01000000
00000000
00000000
00000000
00000000
,  // measure 14
00010000
00000000
01000000
00000000
00100000
00000000
10000000
00000000
00010000
10000000
01000000
00100000
01000000
10000000
00010000
01000000
,  // measure 15
00001000
00000000
00010000
00000000
00000100
00000000
00000010
00000000
00000001
00000100
00000000
00000101
00000000
00000000
00000100
00000000
,  // measure 16
00000001
00000000
00000010
00000000
00000100
00000000
00010000
00000000
00001000
00100000
00000000
00110000
00000000
00000000
00010000
00000000
,  // measure 17
10000000
00000000
00100000
00000000
00010000
00000000
00001000
00000000
00000100
00000001
00000000
00000101
00000000
00000000
00000001
00000000
,  // measure 18
00000100
00000000
00000010
00000000
00010000
00000000
00001000
00000000
00100000
00010000
01000000
00100000
10000000
01000000
00100000
00001000
,  // measure 19
00020000
02030000
23000000
32000000
,  // measure 20
03002000
00003020
00000032
00000023
,  // measure 21
00020030
00230000
20300000
30200000
,  // measure 22
00302000
00000000
00003200
00000000
00000302
00000000
00000103
00001000
,  // measure 23
00011000
00010000
00001000
00100000
00110000
00010000
10000000
00100000
,  // measure 24
10100000
10000000
01000000
00100000
00101000
00001000
00010000
00001000
,  // measure 25
00011000
00010000
00011000
00001000
00011000
00010000
00011000
00001000
,  // measure 26
00010000
00000100
00010000
00001000
00010000
00000010
00010000
00001000
00010000
00000100
00010000
00001000
00010000
00000010
00010000
00001000
,  // measure 27
00010000
00000000
00000000
00000000
;

//---------------dance-double - ----------------
#NOTES:
     dance-double:
     :
     Hard:
     9:
     0.612264,0.819461,0.515037,0.073577,0.248322,233.000000,205.000000,28.000000,4.000000,0.000000,0.000000,0.612264,0.819461,0.515037,0.073577,0.248322,233.000000,205.000000,28.000000,4.000000,0.000000,0.000000:
// measure 0
00000000
00000000
00000000
00000000
,  // measure 1
00000000
00000000
00000000
00000000
,  // measure 2
00000000
00000000
00000000
00000000
,  // measure 3
00010000
00001000
00010000
00000010
00000100
00000001
00000010
00000200
,  // measure 4
00010300
00001000
00100000
00010000
01000000
00100000
10000000
02000000
,  // measure 5
03100000
00001000
00010000
00000010
00000100
00000001
00000010
00000200
,  // measure 6
00001300
00000010
00001000
00000100
00010000
00001000
00100000
00020000
,  // measure 7
10030000
00000000
00100000
00000000
00010000
00000000
00100000
00000000
10000000
00000000
01000000
00000000
00100000
00000000
00001000
00010000
,  // measure 8
00001000
00000000
00010000
00000000
00000100
00000000
00000010
00000000
00000001
00000000
00001000
00000000
00000001
00000000
00000100
00000001
,  // measure 9
00000100
00000000
00001000
00000000
00000100
00000000
00000001
00000000
00000010
00000000
00000100
00000000
00010000
00000000
00001000
00100000
,  // measure 10
00001000
00000000
00010000
00000000
00000100
00000000
00000010
00000000
00000001
00001000
00000001
00000010
00000100
00010000
00001000
00100000
,  // measure 11
00010000
00000000
01000000
00000000
00100000
00000000
10000000
00000000
01000000
00000000
00010000
00000000
01000000
00000000
10000000
01000000
,  // measure 12
10000000
00000000
00100000
00000000
01000000
00000000
00001000
00000000
00010000
00000000
00000100
00000000
00000010
00000000
00000001
00000010
,  // measure 13
00000001
00000000
00000100
00000000
00000010
00000000
00010000
00000000
00001000
00000000
00100000
00000000
00010000
00000000
10000000
00010000
,  // measure 14
10000000
00000000
00100000
00000000
01000000
00000000
00001000
00000000
00010000
00000010
00000100
00000001
00000010
00000100
00000010
00000001
,  // measure 15
00001000
00001000
00000100
00000010
00000001
00000100
00000001
00000010
,  // measure 16
00000100
00000000
00010000
00000000
00001000
00000000
00100000
00000000
00010000
00000000
01000000
00000000
00010000
00000000
10000000
01000000
,  // measure 17
00100000
00001000
00010000
00000100
00000010
00000100
00001000
00000010
,  // measure 18
00000100
00000000
00000001
00000000
00000010
00000000
00001000
00000000
00010000
00001000
00100000
00010000
10000000
00100000
10000000
00010000
,  // measure 19
10010000
01010000
01001000
00011000
,  // measure 20
00010010
00001010
00001001
00000101
,  // measure 21
00001001
00001010
00010010
00011000
,  // measure 22
00101000
00000000
00110000
00000000
10010000
00000000
11000000
10000000
,  // measure 23
10010000
00010000
01000000
00001000
00011000
00010000
00000100
00000010
,  // measure 24
00001001
00000001
00000100
00000010
00010010
00010000
00001000
00100000
,  // measure 25
00110000
00110000
00011000
00011000
00001100
00001100
00011000
00011000
,  // measure 26
00010000
00001000
00100000
00010000
01000000
00100000
10000000
01000000
00100000
00001000
00010000
00000100
00000010
00000001
00000100
00000010
,  // measure 27
00010000
00000000
00000000
00000000
;
