#TITLE:Little Swing;
#SUBTITLE:;
#ARTIST:AronChupa ft. Little Sis Nora;
#TITLETRANSLIT:;
#SUBTITLETRANSLIT:;
#ARTISTTRANSLIT:;
#CREDIT:;
#BANNER:Little Swing.png;
#BACKGROUND:Little Swing - Bg.png;
#LYRICSPATH:;
#CDTITLE:cdtitle.png;
#MUSIC:Little Swing.ogg;
#OFFSET:-0.246;
#SAMPLESTART:25.220;
#SAMPLELENGTH:13.600;
#SELECTABLE:YES;
#DISPLAYBPM:126.000;
#BPMS:0.000=126.000,22.500=63.000,22.750=126.000,44.000=252.000,45.000=126.000,45.500=252.000,46.500=126.000,47.000=251.999,51.000=126.000,56.000=252.000,58.000=126.000,65.000=252.000,67.000=126.000,75.000=252.000,77.000=126.000,83.000=252.000,85.000=126.000,92.000=252.000,94.000=126.000,114.000=252.000,115.000=126.000,115.500=252.000,116.500=126.000,117.000=252.000,121.000=126.000,126.000=252.000,128.000=126.000,135.000=252.000,137.000=126.000,145.000=252.000,147.000=126.000,153.000=252.000,155.000=126.000,163.000=252.000,164.000=126.000,164.500=63.000,164.750=126.000,165.250=63.000,165.500=126.000,166.000=63.000,166.250=126.000,167.250=63.000,167.500=126.000,170.000=252.000,171.000=126.000,176.000=252.000,178.000=126.000,179.000=252.000,181.000=126.000,182.000=252.000,184.000=126.000,185.000=252.000,187.000=126.000,191.000=63.000,193.000=126.000,194.000=63.000,194.500=126.000,195.500=63.000,196.000=126.000,197.000=63.000,197.500=126.000,198.500=63.000,199.000=126.000,200.000=63.000,200.500=126.000,201.500=63.000,202.000=126.000,203.000=63.000,203.500=126.000,204.500=63.000,205.000=126.000,206.000=63.000,206.500=126.000,207.500=63.000,208.000=126.000,209.000=63.000,209.500=126.000,210.500=63.000,211.000=126.000,212.000=63.000,212.500=126.000,213.500=63.000,214.000=126.000,215.000=63.000,215.500=126.000,216.500=63.000,217.000=126.000;
#STOPS:22.750=0.340
,51.000=0.240
,51.500=0.240
,52.000=0.240
,52.500=0.240
,121.000=0.240
,121.500=0.240
,122.000=0.240
,122.500=0.240
,171.000=0.240
,171.500=0.240
,172.000=0.240
,172.500=0.240
,173.000=0.240
,173.500=0.240
,174.000=0.240
,174.500=0.240
;
#BGCHANGES:;

//---------------dance-single - ----------------
#NOTES:
     dance-single:
     :
     Hard:
     9:
     0.583,0.718,0.278,0.306,0.413:
0000
0000
0000
0000
,
0000
0000
0000
0000
,
0000
0000
1000
0100
1000
0001
0100
0001
,
1000
0100
1000
0001
0010
0001
1000
0010
,
1000
0001
0010
0001
1000
0100
1000
0001
,
0100
0000
0001
0000
1000
0000
0100
0000
1000
0000
010M
001M
0020
0000
0000
0000
,
0230
0000
0000
0000
1300
0000
0000
1000
0100
0000
0001
0000
0001
0000
0000
0001
,
0100
0000
1000
0000
1000
0000
0000
0100
0010
0000
0010
0000
000M
0000
2000
0000
,
0020
0000
0030
0000
3010
0000
0000
0100
0010
0000
0010
0000
1000
0100
0000
0200
,
0000
0000
0300
0000
0010
0001
0000
0002
0000
0000
0000
0000
0000
0000
1003
0000
,
1020
0000
0030
1000
0100
0000
1000
0000
0010
0000
0100
0000
0001
0000
0010
0000
,
020M
0000
0300
2M00
0000
3000
M020
0000
,
0000
0000
2000
0000
0000
3000
1M3M
11MM
,
1MM1
0000
M1M1
0000
0001
1000
0000
1000
0001
0000
0001
0000
0020
0000
0030
0000
,
10M1
0000
0000
0000
M011
0000
1000
0100
,
0001
0000
0100
0000
1000
0000
0001
0000
1000
0000
0000
1000
0100
0000
1000
0000
,
0001
0010
M001
0000
0100
0000
011M
0000
,
0010
0000
1000
0000
0001
0000
0010
0000
0100
0000
0010
0000
0001
0000
0000
0001
,
0100
0001
1000
0010
1000
0100
M020
0000
,
0000
0030
M011
0010
1000
0010
0001
1000
,
0001
0000
0000
0001
0010
0000
0001
0000
1000
0000
0100
0000
100M
0000
0000
0000
,
0010
0000
M110
0000
0100
0001
1000
0100
,
0010
0000
0100
0000
1000
0000
0000
1000
0010
0000
1000
0000
0001
0000
0100
0000
,
002M
0000
0000
0000
0000
0000
0000
0000
2000
0000
303M
0000
1001
0000
0000
0001
,
0010
0000
0010
0000
0001
0000
0000
1000
0001
0000
0001
0000
1000
0000
0100
0000
,
0100
0000
0000
0000
000M
0000
2000
0000
0020
0000
3030
0000
0110
0000
0000
0100
,
0001
0000
1000
0000
0001
0000
0100
0000
0010
0000
0000
1000
0001
1000
0000
0200
,
0000
0000
0000
0000
M300
0000
0001
0000
0011
0000
0000
0001
0100
0000
0001
0000
,
0010
0100
1000
0010
M200
0000
0300
0M02
,
0000
0003
002M
0000
0000
0000
0000
0000
,
0000
0000
0000
0000
MM31
0000
M1M1
0000
1MM1
0000
11MM
0000
1000
0100
0000
0100
,
1000
1000
0020
0030
10M1
0000
0000
0000
,
110M
0000
0001
0010
1000
0010
0001
1000
,
0001
0000
0000
0001
0010
0000
0001
0000
1000
0000
0100
0000
100M
0000
0000
0000
,
0010
0000
M110
0000
0100
0001
1000
0100
,
0010
0000
0100
0000
1000
0000
0000
1000
0010
0000
1000
0000
0001
0000
0100
0000
,
0001
0010
020M
0000
0000
0300
110M
0100
,
0001
0000
0100
0000
1000
0000
0001
0000
1000
0000
0000
1000
0100
0000
1000
0000
,
0001
0010
M001
0000
0100
0000
011M
0000
,
0010
0000
1000
0000
0001
0000
0010
0000
0100
0000
0010
0000
0001
0000
0000
0001
,
0100
0001
1000
0010
0100
0001
2M02
3003
,
1000
0100
10M0
0001
0100
00M1
1000
0100
10M0
0001
0100
0001
0000
0M01
1000
0010
,
0100
0010
1000
0000
0100
0000
0010
0000
M00M
0000
0000
0000
20M1
3000
M200
0300
,
0M02
0003
002M
0030
20M0
3000
M020
0030
00M2
0003
020M
0300
1M01
0000
0000
0000
,
M001
0000
0000
1000
M001
0010
0010
0000
,
0000
0000
10M1
0001
0000
0000
0000
0000
,
10M1
0000
0000
1000
0000
0000
0000
0000
0000
0000
0000
0000
0000
0000
0000
0000
0000
0000
100M
0000
0010
0000
0100
0000
,
0001
0000
0010
0000
0100
0000
1000
0000
0010
0000
0100
0000
0001
0000
0010
0000
0100
0000
100M
0010
1000
0010
0100
0010
,
0100
0001
0100
0001
0010
0100
M11M
0000
0000
0000
1000
0000
010M
0000
0100
100M
0000
0000
0000
1000
0000
0M01
0000
0001
,
1M00
0000
0000
0000
1000
0000
M001
0010
0100
100M
0000
0000
0000
0100
0000
M010
0000
0010
M011
0000
0000
0000
0001
0000
,
100M
0010
0100
M001
0000
0000
0000
0001
0000
M010
0000
0010
M001
0000
0000
0000
0001
0000
10M0
0000
1000
001M
0000
0000
,
0000
0010
0000
M100
0000
0100
M101
0000
0000
0000
0001
0000
M010
0000
0010
M001
0000
0000
0000
0001
0000
10M0
0000
1000
,
00M1
0000
0000
0000
0001
0000
100M
0100
0010
M001
0000
0000
0000
0010
0000
010M
0000
0100
11M0
0000
0000
0000
1000
0000
,
0M01
0000
0001
1M00
0000
0000
0000
1000
0000
010M
0000
0100
100M
0000
0000
0000
1000
0000
001M
0000
0010
M100
0000
0000
,
0000
0100
0000
00M1
0000
0001
10M1
0000
0000
0000
0000
0000
M00M
0000
0000
0000
0000
0000
M00M
0000
0000
0000
0000
0000
,
M00M
M00M
0000
0000
;

//---------------dance-single - ----------------
#NOTES:
     dance-single:
     :
     Medium:
     7:
     0.447,0.462,0.371,0.102,0.102: // measure 1
0000
0000
0000
0000
,  // measure 2
0000
0000
0000
0000
,  // measure 3
0000
1000
1100
0001
,  // measure 4
0101
1000
1010
0001
,  // measure 5
0011
1000
0110
0010
,  // measure 6
1001
0000
0000
0000
0001
0000
0000
0000
0010
0000
010M
001M
0000
0000
0000
0000
,  // measure 7
1000
0000
1000
0000
0001
0001
0101
0000
,  // measure 8
1000
1000
1100
0000
0001
0000
0010
0010
,  // measure 9
0011
0000
1000
0000
0001
0001
0011
0000
,  // measure 10
0100
0000
1000
1000
1010
0000
1000
0000
,  // measure 11
0001
0000
0010
0010
0110
0000
0010
0000
,  // measure 12
M002
0000
0003
200M
0000
3000
M002
0000
,  // measure 13
0000
0000
0000
0000
0000
0000
0M13
0M10
,  // measure 14
100M
100M
1100
0000
1100
0000
0101
0000
,  // measure 15
M101
0000
0000
0000
1M01
0000
1000
0010
,  // measure 16
1000
0010
1000
0100
1000
0000
0001
0010
,  // measure 17
0001
0010
M001
0000
0100
0000
M001
0000
,  // measure 18
0100
0010
0100
0010
0100
0001
0100
0000
,  // measure 19
1000
0100
1000
0100
1000
0010
M200
0000
,  // measure 20
0300
0000
M101
0001
0100
0001
0100
0010
,  // measure 21
0100
0000
1000
0001
1000
0001
100M
0000
,  // measure 22
0010
0000
100M
0000
0100
0010
0100
0010
,  // measure 23
0100
1000
0100
0000
0001
0100
0001
0100
,  // measure 24
M002
0000
M013
1000
,  // measure 25
0001
0001
1001
0000
0010
0010
0110
0000
,  // measure 26
0001
0100
1000
0100
,  // measure 27
0001
0001
0101
0000
1000
0000
1000
1000
,  // measure 28
1100
0000
0100
0000
0011
0000
1000
1000
,  // measure 29
1010
0000
0100
0100
M002
0000
0003
02M0
,  // measure 30
0000
0300
M002
0000
0000
0000
0000
0000
,  // measure 31
0000
0000
01M3
01M0
M001
M001
0011
0000
,  // measure 32
0011
1010
101M
0000
,  // measure 33
10M1
0000
0001
0100
0001
0100
0001
0010
,  // measure 34
0001
0000
1000
0100
1000
0100
100M
0000
,  // measure 35
0010
0000
100M
0000
0010
0100
0010
0100
,  // measure 36
0010
1000
0010
0000
0001
0010
0001
0010
,  // measure 37
0001
0100
002M
0000
0030
0000
101M
1000
,  // measure 38
0010
1000
0010
0100
0010
0000
0001
1000
,  // measure 39
0001
1000
M001
0000
0100
0000
M001
0000
,  // measure 40
0010
0100
0010
0100
0010
0001
0010
0000
,  // measure 41
1000
0010
1000
0010
1000
0100
M22M
0330
,  // measure 42
M00M
0000
001M
M000
0000
010M
M000
0000
001M
M000
0000
0001
0000
M001
M010
0000
,  // measure 43
0100
0100
0010
0100
M00M
0000
1M01
M001
,  // measure 44
0M10
01M0
100M
0M10
01M0
M001
0M11
0000
,  // measure 45
10M1
0000
0000
0000
10M0
0001
10M0
0000
,  // measure 46
0000
0000
100M
1000
000M
0000
0000
0000
,  // measure 47
M001
0001
M000
0000
0000
0000
110M
0000
,  // measure 48
1100
0000
0011
0000
0011
0000
1M01
0001
,  // measure 49
0010
0000
0000
0100
0000
0000
11M0
0000
0000
0000
0001
0000
10M0
0000
0000
00M1
0000
0000
0000
0100
0000
M010
0000
0000
,  // measure 50
M100
0000
0000
0000
0010
0000
100M
0000
0000
001M
0000
0000
0000
0100
0000
M001
0000
0000
M100
0000
0000
0000
0001
0000
,  // measure 51
10M0
0000
0000
00M1
0000
0000
0000
0010
0000
M100
0000
0000
M010
0000
0000
0000
0100
0000
100M
0000
0000
010M
0000
0000
,  // measure 52
0000
0010
0000
M001
0000
0000
M010
0000
0000
0000
1000
0000
0M01
0000
0000
1M00
0000
0000
0000
0010
0000
010M
0000
0000
,  // measure 53
001M
0000
0000
0000
0100
0000
M001
0000
0000
M100
0000
0000
0000
0010
0000
100M
0000
0000
001M
0000
0000
0000
1000
0000
,  // measure 54
0M01
0000
0000
1M00
0000
0000
0000
0100
0000
001M
0000
0000
010M
0000
0000
0000
0010
0000
M001
0000
0000
M010
0000
0000
,  // measure 55
0000
0100
0000
100M
0000
0000
010M
0000
0000
0000
0000
0000
0M00
0000
0000
0000
0000
0000
0M00
0000
0000
0000
0000
0000
,  // measure 56
0M00
0M00
0000
0000
;

//---------------dance-single - ----------------
#NOTES:
     dance-single:
     :
     Easy:
     5:
     0.328,0.462,0.343,0.102,0.046:
0000
0000
0000
0000
,
0000
0000
0000
0000
,
0000
0001
0001
1000
,
1000
0010
0010
0100
,
0100
0010
0010
1000
,
1000
0000
0000
0000
0001
0000
0000
0000
0001
0000
M000
M010
0000
0000
0000
0000
,
0001
0001
1000
0010
,
0001
0010
1000
0001
,
1000
1000
0001
0100
,
0010
1000
0100
0010
,
0001
0010
0100
1000
,
20M0
0000
3000
00M2
0000
0003
20M0
0000
,
0000
0000
0000
0000
0000
0000
301M
001M
,
001M
001M
1000
0000
0100
0000
0001
0000
,
M100
0000
M11M
0001
,
1000
0001
0011
1000
,
0001
M010
0010
M010
,
0100
0010
0100
1100
,
1000
0001
1000
002M
,
0030
1010
1000
0010
,
0110
0010
1000
010M
,
0100
010M
0010
0001
,
1000
0100
0010
0001
,
200M
0000
300M
1000
,
0001
0010
1000
0010
,
0001
1000
0001
0001
,
1000
0100
0010
0001
,
0100
0010
1000
0010
,
0100
0000
0001
0000
00M2
0000
0003
20M0
,
0000
3000
00M2
0000
0000
0000
0000
0000
,
0000
0000
M013
M010
M010
M010
0001
0000
,
0100
1000
010M
0000
,
M11M
0001
1000
0001
,
0011
1000
0001
M010
,
0010
M010
0100
0010
,
0100
1100
1000
0001
,
1000
002M
0030
1010
,
1000
0010
0110
0010
,
1000
010M
0100
010M
,
0010
0001
1000
0100
,
0010
0001
0101
1001
,
00M0
0M00
00M0
0M00
00M0
0M00
00M0
0M00
00M0
M000
000M
M000
0000
M000
000M
M000
,
0M00
00M0
0M00
0000
00M0
0000
0M00
0000
0000
0000
0000
0000
M001
0000
M001
0000
,
100M
100M
0M10
0M10
01M0
01M0
M11M
0000
,
100M
0000
1001
M001
,
0000
M011
M010
0000
,
011M
010M
0000
1M01
,
1001
1001
1001
2M02
,
3003
0000
M001
0000
M011
M010
0000
011M
,
010M
0000
11M0
10M0
0000
1M01
1M00
0000
,
101M
001M
0000
M110
M100
0000
01M1
00M1
,
0000
1M01
0M01
0000
M101
M100
0000
011M
,
001M
0000
1M10
1M00
0000
10M1
10M0
0000
,
110M
010M
0000
M110
M010
0000
0M11
0M01
,
0000
10M1
00M1
0000
000M
0000
000M
0000
,
000M
000M
0000
0000
;
