#TITLE:Let Me Hit It;
#SUBTITLE:;
#ARTIST:Sporty-O;
#TITLETRANSLIT:;
#SUBTITLETRANSLIT:;
#ARTISTTRANSLIT:;
#GENRE:;
#CREDIT:;
#BANNER:[Gimmick Week] - Let Me Hit It.png;
#BACKGROUND:[Gimmick Week] - Let Me Hit It-bg.png;
#LYRICSPATH:;
#CDTITLE:cdtitle.png;
#MUSIC:[Gimmick Week] - Let Me Hit It.ogg;
#OFFSET:-0.010000;
#SAMPLESTART:45.009003;
#SAMPLELENGTH:15.000000;
#SELECTABLE:YES;
#DISPLAYBPM:128.000000:256.000000;
#BPMS:0.000000=128.000000
,94.000000=96.000000
,94.500000=512.000000
,96.000000=1024.000000
,98.000000=512.000000
,99.000000=256.000000
,100.000000=1024.000000
,102.000000=512.000000
,103.000000=256.000000
,104.000000=1024.000000
,106.000000=512.000000
,107.000000=256.000000
,108.000000=1024.000000
,110.000000=512.000000
,111.000000=256.000000
,116.000000=1024.000000
,118.000000=512.000000
,119.000000=256.000000
,120.000000=1024.000000
,122.000000=512.000000
,123.000000=256.000000
,124.000000=1024.000000
,126.000000=512.000000
,127.000000=256.000000
,128.000000=1024.000000
,130.000000=512.000000
,131.000000=256.000000
,140.000000=1024.000000
,142.000000=512.000000
,143.000000=256.000000
,144.000000=1024.000000
,146.000000=512.000000
,147.000000=256.000000
,148.000000=1024.000000
,150.000000=512.000000
,151.000000=256.000000
,152.000000=1024.000000
,154.000000=512.000000
,155.000000=256.000000
,160.000000=1024.000000
,162.000000=512.000000
,163.000000=256.000000
,164.000000=1024.000000
,166.000000=512.000000
,167.000000=256.000000
,168.000000=1024.000000
,170.000000=512.000000
,171.000000=256.000000
,172.000000=1024.000000
,174.000000=512.000000
,175.000000=256.000000
,180.000000=128.000000
,180.500000=751.799988
,183.500000=512.000000
,184.000000=1024.000000
,186.000000=512.000000
,187.000000=256.000000
,188.000000=1024.000000
,190.000000=512.000000
,191.000000=256.000000
,192.000000=1024.000000
,194.000000=512.000000
,195.000000=256.000000
,196.000000=1024.000000
,198.000000=512.000000
,199.000000=256.000000
,200.000000=512.000000
,208.000000=1024.000000
,210.000000=512.000000
,211.000000=256.000000
,212.000000=1024.000000
,214.000000=512.000000
,215.000000=256.000000
,216.000000=1024.000000
,218.000000=512.000000
,219.000000=256.000000
,220.000000=1024.000000
,222.000000=512.000000
,223.000000=256.000000
,232.000000=1024.000000
,234.000000=512.000000
,235.000000=256.000000
,236.000000=1024.000000
,238.000000=512.000000
,239.000000=256.000000
,240.000000=1024.000000
,242.000000=512.000000
,243.000000=256.000000
,244.000000=1024.000000
,246.000000=512.000000
,247.000000=256.000000
,248.000000=512.000000
,256.000000=1024.000000
,258.000000=512.000000
,259.000000=256.000000
,260.000000=1024.000000
,262.000000=512.000000
,263.000000=256.000000
,264.000000=1024.000000
,266.000000=512.000000
,267.000000=256.000000
,268.000000=1024.000000
,270.000000=512.000000
,271.000000=256.000000
,272.000000=384.000000
,275.000000=256.000000
,277.000000=128.000000
,278.000000=64.000000
,278.500000=128.000000
,303.000000=256.000000
,305.000000=192.000000
,308.000000=128.000000
,309.000000=256.000000
,370.000000=64.000000
,370.500000=512.000000
,371.000000=1024.000000
,373.000000=512.000000
,374.000000=256.000000
,375.000000=1024.000000
,377.000000=512.000000
,378.000000=256.000000
,379.000000=1024.000000
,381.000000=512.000000
,382.000000=256.000000
,383.000000=1024.000000
,385.000000=512.000000
,386.000000=256.000000
,391.000000=1024.000000
,393.000000=512.000000
,394.000000=256.000000
,395.000000=1024.000000
,397.000000=512.000000
,398.000000=256.000000
,399.000000=1024.000000
,401.000000=512.000000
,402.000000=256.000000
,403.000000=1024.000000
,405.000000=512.000000
,406.000000=256.000000
,415.000000=1024.000000
,417.000000=512.000000
,418.000000=256.000000
,419.000000=1024.000000
,421.000000=512.000000
,422.000000=256.000000
,423.000000=1024.000000
,425.000000=512.000000
,426.000000=256.000000
,427.000000=1024.000000
,429.000000=512.000000
,430.000000=256.000000
,431.000000=512.000000
,439.000000=1024.000000
,441.000000=512.000000
,442.000000=256.000000
,443.000000=1024.000000
,445.000000=512.000000
,446.000000=256.000000
,447.000000=1024.000000
,449.000000=512.000000
,450.000000=256.000000
,451.000000=1024.000000
,453.000000=512.000000
,454.000000=256.000000
,459.000000=128.000000
,460.000000=64.000000
;
#STOPS:95.500000=0.468000,
112.000000=0.117000,
112.500000=0.117000,
113.000000=0.117000,
113.500000=0.117000,
114.000000=0.117000,
114.500000=0.117000,
115.000000=0.117000,
115.500000=0.117000,
156.000000=0.117000,
156.500000=0.117000,
157.000000=0.117000,
157.500000=0.117000,
158.000000=0.117000,
158.500000=0.117000,
159.000000=0.117000,
159.500000=0.117000,
183.500000=0.400000,
200.000000=0.117000,
201.000000=0.117000,
202.000000=0.117000,
203.000000=0.117000,
204.000000=0.117000,
205.000000=0.117000,
206.000000=0.117000,
207.000000=0.117000,
248.000000=0.117000,
249.000000=0.117000,
250.000000=0.117000,
251.000000=0.117000,
252.000000=0.117000,
253.000000=0.117000,
254.000000=0.117000,
255.000000=0.117000,
303.000000=0.082000,
303.333344=0.082000,
303.666656=0.082000,
304.000000=0.082000,
304.333344=0.082000,
304.666656=0.082000,
308.000000=0.900000,
309.000000=0.233000,
370.500000=0.400000,
387.000000=0.117000,
387.500000=0.117000,
388.000000=0.117000,
388.500000=0.117000,
389.000000=0.117000,
389.500000=0.117000,
390.000000=0.117000,
390.500000=0.117000,
431.000000=0.117000,
432.000000=0.117000,
433.000000=0.117000,
434.000000=0.117000,
435.000000=0.117000,
436.000000=0.117000,
437.000000=0.117000,
438.000000=0.117000,
455.000000=0.083000,
455.333344=0.083000,
455.666656=0.083000,
456.000000=0.083000,
456.333344=0.083000,
456.666656=0.083000
;
#BGCHANGES:;
#KEYSOUNDS:;
#ATTACKS:;

//---------------dance-single - ----------------
#NOTES:
     dance-single:
     :
     Hard:
     9:
     0.648958,1.379775,0.661961,0.901922,0.252373,549.000000,469.000000,80.000000,109.000000,80.000000,0.000000,0.648958,1.379775,0.661961,0.901922,0.252373,549.000000,469.000000,80.000000,109.000000,80.000000,0.000000:
// measure 0
0000
0000
0000
0000
,  // measure 1
0000
0000
0000
0000
,  // measure 2
0000
0000
0000
0000
,  // measure 3
0000
0000
0000
0000
,  // measure 4
0000
0001
0100
0001
0010
0100
1000
0000
,  // measure 5
1001
0000
1000
0100
0010
0001
0100
0000
,  // measure 6
0001
0100
1000
0100
0010
1000
0100
0100
,  // measure 7
0010
0100
1000
0001
0100
0100
0010
0000
,  // measure 8
0000
1000
0100
1000
0010
0100
0001
0000
,  // measure 9
1001
0001
0100
0001
0010
0100
1000
0000
,  // measure 10
0000
0001
0100
0001
0010
0100
1000
0000
,  // measure 11
1001
1000
0001
0100
0010
1000
0001
0000
,  // measure 12
1000
0000
0100
1000
0010
0000
0100
0001
0010
0000
0001
0000
1000
0000
0001
0000
,  // measure 13
0000
0000
0100
0001
0010
0000
0100
1000
0010
0000
1000
0000
0002
0000
0000
0000
,  // measure 14
0003
0000
1000
0010
0100
0000
0001
0010
0100
0000
1000
0000
0001
0000
0100
0000
,  // measure 15
0000
0000
0001
0010
0100
0000
1000
0010
0100
0000
0001
0000
1000
0000
0000
0000
,  // measure 16
1100
0000
0011
0000
0002
0103
0220
0300
,  // measure 17
0130
0001
0010
1000
0010
0001
2002
0003
,  // measure 18
3010
1000
2010
0000
3100
0000
0012
0000
,  // measure 19
0103
0000
0001
0001
0010
0100
1000
0000
,  // measure 20
0001
0100
0001
0100
1000
0100
1000
0100
,  // measure 21
0001
0010
0001
0010
1000
0010
1000
0010
,  // measure 22
0001
0100
0001
0100
0010
0100
0010
0100
0010
1000
0010
1000
0001
1000
0001
1000
,  // measure 23
0001
0010
0100
1000
0001
0100
0010
1000
0M02
0000
0000
0000
0000
0000
0M03
0000
,  // measure 24
2020
0000
0000
3030
,  // measure 25
0202
0000
0000
0303
,  // measure 26
2200
0000
0000
3300
,  // measure 27
0022
0000
0000
0033
,  // measure 28
M001
M001
01M0
01M0
100M
100M
0M10
0M10
,  // measure 29
M022
0000
0000
0033
,  // measure 30
2200
0000
0000
3300
,  // measure 31
0202
0000
0000
0303
,  // measure 32
2020
0000
0000
3030
,  // measure 33
M001
0010
0001
0010
1000
0010
1000
0010
,  // measure 34
0001
0100
0001
0100
1000
0100
1000
0100
,  // measure 35
022M
0000
0000
0330
,  // measure 36
2002
0000
0000
3003
,  // measure 37
2200
0000
0000
3300
,  // measure 38
0022
0000
0000
0033
,  // measure 39
10M0
10M0
010M
010M
M001
M001
0M10
0M10
,  // measure 40
022M
0000
0000
0330
,  // measure 41
2002
0000
0000
3003
,  // measure 42
0202
0000
0000
0303
,  // measure 43
2020
0000
0000
3030
,  // measure 44
001M
0100
0010
0100
0001
1000
0001
1000
,  // measure 45
020M
0000
0000
0000
0000
0000
0000
M310
,  // measure 46
0022
0000
0000
0033
,  // measure 47
0202
0000
0000
0303
,  // measure 48
2200
0000
0000
3300
,  // measure 49
2020
0000
0000
3030
,  // measure 50
101M
M101
11M0
0M11
,  // measure 51
11M0
M101
101M
0M11
,  // measure 52
202M
0000
0000
3030
,  // measure 53
2200
0000
0000
3300
,  // measure 54
0202
0000
0000
0303
,  // measure 55
0022
0000
0000
0033
,  // measure 56
M001
0100
0001
0100
0010
1000
0010
1000
,  // measure 57
0100
1000
0100
1000
0001
0010
0001
0010
,  // measure 58
M220
0000
0000
0330
,  // measure 59
2200
0000
0000
3300
,  // measure 60
0202
0000
0000
0303
,  // measure 61
2002
0000
0000
3003
,  // measure 62
0M11
M110
110M
1M01
,  // measure 63
01M1
M110
101M
0M11
,  // measure 64
20M2
0000
0000
3003
,  // measure 65
0022
0000
0000
0033
,  // measure 66
2020
0000
0000
3030
,  // measure 67
0220
0000
0000
0330
,  // measure 68
100M
0000
0000
1000
0000
0000
1000
0000
0000
001M
0000
0010
,  // measure 69
0000
0000
0000
0000
0010
0000
0000
0000
0000
0000
0000
0000
M100
0000
0000
0000
0100
0000
0000
0000
0100
0000
0000
0000
00M1
0000
0001
0000
0001
0000
0000
0000
0000
0000
0000
0000
1M00
0000
0000
0000
0000
0000
0000
0000
0000
0010
0000
0000
,  // measure 70
1000
0000
0100
0000
1000
0000
0001
0000
0000
0000
0020
0000
0031
0000
0000
0001
,  // measure 71
1000
0000
0000
0000
0000
0000
0100
0000
0000
0000
0000
0000
0001
0000
0000
0000
0000
0000
0100
0000
0000
0000
0000
0000
0010
0000
0000
0000
0001
0000
0000
0000
0010
0000
0000
0000
0001
0000
0000
0000
0000
0000
0000
0000
0000
1000
0000
0000
,  // measure 72
0001
0000
0000
0100
0000
0000
0001
0000
0000
1000
0000
0000
0010
0000
0000
0000
0000
0000
1000
0000
0010
0000
1000
0000
,  // measure 73
0001
0000
0000
0000
0010
0000
0000
0000
0001
0000
0000
0000
1000
0000
0000
0000
0100
0000
0000
0000
1000
0000
0000
0000
0002
0000
0000
0000
0000
0000
0000
0000
0000
0000
0000
0000
1003
0000
0000
0000
0000
0000
0000
0000
0000
0100
0000
0000
,  // measure 74
1000
0000
0010
0000
1000
0000
0001
0000
0000
0000
0200
0000
0301
0000
0000
1000
,  // measure 75
0001
0000
0000
0100
0000
0000
1000
0000
0000
0100
0000
0000
0020
0000
0000
0000
0000
0000
103M
0000
0010
0000
1000
0000
,  // measure 76
0001
0010
0001
2M00
0000
0000
3020
0000
0000
0230
0000
0000
,  // measure 77
M301
0000
10M1
0000
1000
0100
0000
1000
,  // measure 78
0001
0100
0001
1000
,  // measure 79
1002
0000
0013
0000
0001
0100
0000
0001
,  // measure 80
1000
1000
0001
0001
,  // measure 81
0010
0000
0000
0000
0100
0000
0000
0000
1000
0000
0000
0000
1002
0000
0000
0000
0000
0000
0000
0000
0000
1003
0000
0000
,  // measure 82
0100
1000
0001
0201
,  // measure 83
0310
0000
0000
0000
0000
0000
1000
0000
0010
0000
1000
0000
,  // measure 84
0001
0000
0010
0000
0001
0000
1000
0000
0100
0000
1000
0000
,  // measure 85
2002
0000
3000
0000
0103
0010
0000
0010
,  // measure 86
1000
0100
1000
0001
,  // measure 87
2001
0000
3010
0000
1000
0000
0000
1000
,  // measure 88
0100
0010
0001
1000
,  // measure 89
0010
0000
0000
0000
0100
0000
0000
0000
0010
0000
0000
0000
2000
0000
0000
0000
0000
0000
0000
0000
0000
3010
0000
0000
,  // measure 90
0200
0301
2001
3200
,  // measure 91
0310
0000
0000
0000
0000
0000
0M01
0000
0010
0000
0001
0000
,  // measure 92
1000
0000
0000
0000
0010
0000
0000
0000
1000
0000
0000
0000
0002
0000
0000
10M3
0000
0000
2000
0000
0000
0000
0000
0000
,  // measure 93
0000
0000
3010
2000
,  // measure 94
0000
0000
3001
0002
,  // measure 95
0000
0000
0103
0002
,  // measure 96
0000
0000
0000
0000
1003
0000
1M10
1M10
,  // measure 97
01M1
01M1
110M
110M
M011
M011
0M02
0000
,  // measure 98
0000
0000
0013
0002
,  // measure 99
0000
0000
1003
2000
,  // measure 100
0000
0000
3100
2000
,  // measure 101
0000
0000
0000
0000
3001
0000
1M00
0010
,  // measure 102
0100
0001
1000
0100
0010
0001
1000
0010
,  // measure 103
0100
0001
1000
0100
0010
0001
2M00
0000
,  // measure 104
0000
0000
3001
0002
,  // measure 105
0000
0000
0103
0200
,  // measure 106
0000
0000
0310
0020
,  // measure 107
0000
0000
1030
1M10
,  // measure 108
110M
01M1
M011
01M1
,  // measure 109
110M
1M10
M011
0M02
,  // measure 110
0000
0000
1003
2000
,  // measure 111
0000
0000
3100
0200
,  // measure 112
0000
0000
0310
0020
,  // measure 113
0000
0000
0000
0000
0000
0000
0031
0000
0000
M001
0100
0010
,  // measure 114
1000
0100
0010
M002
0000
0000
0000
0000
0000
1M03
0000
0000
,  // measure 115
00M0
0000
0000
0000
;

//---------------dance-single - ----------------
#NOTES:
     dance-single:
     :
     Easy:
     4:
     0.276605,0.475785,0.049647,0.099294,0.000000,234.000000,228.000000,6.000000,12.000000,80.000000,0.000000,0.276605,0.475785,0.049647,0.099294,0.000000,234.000000,228.000000,6.000000,12.000000,80.000000,0.000000:
0000
0000
0000
0000
,
0000
0000
0000
0000
,
0000
0000
0000
0000
,
0000
0000
0000
0000
,
1000
0100
1000
1000
,
0001
0100
0001
0001
,
1000
0010
1000
1000
,
0001
0010
0001
2001
,
3010
1000
0010
0010
,
0100
0001
0100
0100
,
0010
0001
0010
0100
,
1000
0100
0002
1003
,
1000
0100
0010
0001
,
0001
0100
0010
1000
,
1000
0010
0100
0001
,
0001
0010
0100
1000
,
0001
0100
1000
0100
,
0001
0010
1000
0010
,
0001
1000
0010
0100
,
0001
0010
0100
1000
,
0001
0001
1000
1000
,
0100
0100
0010
0010
,
0002
0203
0320
2030
,
0002
0000
0000
0000
3M03
0000
0000
00M0
,
1000
0000
0000
0000
,
0100
0000
0000
0000
,
0001
0000
0000
0000
,
0010
0000
0000
0000
,
1M00
0M00
1M00
0M00
0M01
0M00
0M10
0M00
,
0M01
0000
0000
0000
,
0100
0000
0000
0000
,
1000
0000
0000
0000
,
0010
0000
0000
0000
,
0M01
0000
1000
0000
,
1000
0000
0001
0000
,
10M0
0000
0000
0000
,
0100
0000
0000
0000
,
0001
0000
0000
0000
,
0010
0000
0000
0000
,
1M00
0M00
1M00
0M00
0M01
0M00
0M10
0M00
,
0M01
0000
0000
0000
,
0100
0000
0000
0000
,
1000
0000
0000
0000
,
0010
0000
0000
0000
,
0001
0000
1000
0000
,
1M01
0000
0000
0000
0000
0000
0000
0M00
,
0001
0000
0000
0000
,
0100
0000
0000
0000
,
1000
0000
0000
0000
,
0010
0000
0000
0000
,
0M01
0M00
0M01
0M00
,
1M00
0M00
0M10
0M00
,
1M00
0000
0000
0000
,
0100
0000
0000
0000
,
0001
0000
0000
0000
,
0010
0000
0000
0000
,
1M00
0000
0001
0000
,
0001
0000
1000
0000
,
00M1
0000
0000
0000
,
0100
0000
0000
0000
,
1000
0000
0000
0000
,
0010
0000
0000
0000
,
0M01
0M00
0M01
0M00
,
1M00
0M00
0M10
0M00
,
1M00
0000
0000
0000
,
0100
0000
0000
0000
,
0001
0000
0000
0000
,
0010
0000
0000
0000
,
100M
0000
0000
01M0
,
0000
M010
0M01
10M0
,
0001
0100
0100
0001
,
1000
0010
0010
0100
,
0010
1000
1000
0010
,
0100
0001
0001
1000
,
0100
0010
0010
0001
,
0010
0100
0100
20M0
,
0000
30M2
0000
0000
,
1M03
00M0
1000
0000
,
0100
0000
1000
0000
,
0010
0000
0100
0000
,
0001
0000
1000
0000
,
1001
0000
0001
0000
,
0100
0000
0001
0000
,
0010
0000
0100
0000
,
1000
0000
0010
0000
,
0100
0000
0001
0000
,
0100
0000
0001
0000
,
0010
0000
0100
0000
,
1000
0000
0001
0000
,
0110
0000
2001
0000
,
3100
0000
1000
0000
,
0010
0000
M200
0000
,
0000
0000
0000
0000
03M1
00M0
1000
0000
,
0000
0000
0000
0100
,
0000
0000
0000
0001
,
0000
0000
0000
0010
,
0000
0000
0000
0000
0000
0000
1M00
0M00
,
1M00
0M00
0M01
0M00
0M10
0M00
0M01
0000
,
0000
0000
0000
0100
,
0000
0000
0000
1000
,
0000
0000
0000
0010
,
0000
0000
0000
0M01
,
0000
1000
0000
1000
,
0000
0001
0000
10M0
,
0000
0000
0000
0100
,
0000
0000
0000
0001
,
0000
0000
0000
0010
,
0000
0000
0000
1M00
,
0M00
1M00
0M00
0M01
,
0M00
0M10
0M00
0M01
,
0000
0000
0000
0100
,
0000
0000
0000
1000
,
0000
0000
0000
0010
,
0000
0000
0000
0M02
,
0000
10M3
0000
1M01
,
00M0
0000
0000
0000
;

//---------------dance-single - ----------------
#NOTES:
     dance-single:
     :
     Medium:
     6:
     0.431457,0.808834,0.223412,0.744706,0.049647,365.000000,338.000000,27.000000,90.000000,80.000000,0.000000,0.431457,0.808834,0.223412,0.744706,0.049647,365.000000,338.000000,27.000000,90.000000,80.000000,0.000000:
0000
0000
0000
0000
,
0000
0000
0000
0000
,
0000
0000
0000
0000
,
0000
0000
0000
0000
,
0000
1000
0100
1000
0010
0100
0001
0000
,
1001
0000
0001
0100
0010
1000
0100
0000
,
1000
0001
0100
0001
0010
0100
1000
0000
,
0001
0100
1000
0100
0001
0001
0010
0000
,
0000
0001
0100
0001
0010
0100
1000
0000
,
1001
0000
1000
0100
0010
0001
0100
0000
,
0001
1000
0100
1000
0010
0100
0001
0000
,
1000
0010
0001
0010
1000
1000
0001
0000
,
0000
1000
0100
0010
0001
0100
0010
1000
,
0000
0001
1000
0001
0100
0000
0110
0000
,
1001
0000
1000
0100
2000
0000
3002
0000
,
0003
1000
0001
1000
0100
0100
0010
0000
,
0011
0000
0101
0000
0100
0010
0100
0000
,
1010
0000
1100
0000
0100
0010
0100
0000
,
0100
1000
2100
0000
3010
0000
0102
0000
,
0013
0000
0010
0001
1000
0100
1000
0000
,
0002
0203
2300
3200
,
0302
0023
2030
3020
,
0032
0203
0320
2030
,
3002
0000
0023
0000
0M00
0030
0000
0M00
,
0022
0000
0000
0003
,
0200
0000
0000
0030
,
2000
0000
0000
0300
,
0020
0000
0000
3030
,
001M
M100
00M1
1M00
010M
10M0
0M10
100M
,
2M20
0000
0000
3000
,
0200
0000
0000
0030
,
0002
0000
0000
0300
,
0020
0000
0000
0033
,
M010
0100
1000
0100
,
0001
0100
0010
0001
,
0M22
0000
0000
0030
,
2000
0000
0000
0003
,
0002
0000
0000
3000
,
0020
0000
0000
0033
,
M001
1M00
010M
1M00
00M1
M100
001M
M100
,
202M
0000
0000
0030
,
0002
0000
0000
3000
,
2000
0000
0000
0003
,
0020
0000
0000
3030
,
0M10
1000
0001
0100
,
00M2
0000
0000
0000
0000
0000
0000
00M3
,
2200
0000
0000
0300
,
0002
0000
0000
3000
,
0200
0000
0000
0003
,
0020
0000
0000
0330
,
M010
001M
M100
00M1
,
1M00
010M
M010
0M01
,
02M2
0000
0000
0300
,
2000
0000
0000
0003
,
0200
0000
0000
3000
,
0020
0000
0000
0330
,
M001
0010
1000
0010
,
0001
0100
1000
0100
,
022M
0000
0000
0300
,
2000
0000
0000
0030
,
0002
0000
0000
3000
,
0020
0000
0000
0033
,
0M10
M010
010M
10M0
,
0M01
M100
001M
M100
,
022M
0000
0000
0030
,
0002
0000
0000
0300
,
2000
0000
0000
0003
,
0020
0000
0000
3030
,
0M20
0000
0000
203M
,
0000
0000
30M2
0000
M023
0000
013M
1000
,
0100
0010
0001
0000
1001
0000
0001
0000
,
0100
0001
0100
0010
1000
0000
1002
0000
,
0103
0010
0100
0001
0010
0000
0110
0000
,
0010
0100
1000
0001
0100
0000
0110
0000
,
0100
0010
1000
0001
0100
0000
0101
0000
,
0100
0000
0000
0001
0000
0000
0010
0000
0000
0100
0000
0000
1000
0000
0000
0000
0000
0000
10M0
0000
0100
0000
1000
0000
,
0001
0100
0001
20M0
0000
0000
0000
0000
0000
0000
0000
0000
,
3M10
000M
1000
0000
,
0100
1000
0001
0100
,
0000
0010
1000
0000
,
0001
0010
1000
0010
,
0001
0000
0001
0000
,
0100
0001
1000
0100
,
0010
0000
0002
0000
,
0203
0000
2300
0000
,
3020
0000
0031
0000
,
0001
0100
0001
1000
,
0000
0010
1000
0000
,
0100
1000
0001
0100
,
0010
0000
1000
0000
,
0001
0100
1000
0100
,
0010
0000
0000
0000
0000
0000
1M00
0000
0010
0000
1000
0000
,
0001
0000
0000
0000
0010
0000
0000
0000
0001
0000
0000
0000
1000
0000
0000
0M00
0000
0000
2020
0000
0000
0000
0000
0000
,
0000
0000
3000
0200
,
0000
0000
0030
0002
,
0000
0000
0300
0020
,
0000
0000
0000
0000
0033
0000
M001
0M10
,
010M
10M0
0M01
M100
001M
1M00
M022
0000
,
0000
0000
0003
0200
,
0000
0000
0030
2000
,
0000
0000
0300
0020
,
0000
0000
3030
1M00
,
0010
0001
0010
1000
,
0100
0001
0100
22M0
,
0000
0000
3000
0002
,
0000
0000
0003
2000
,
0000
0000
0300
3020
,
0000
0000
0030
001M
,
M100
00M1
1M00
010M
,
10M0
001M
M100
02M2
,
0000
0000
0003
2000
,
0000
0000
3000
0002
,
0000
0000
0300
0020
,
0000
0000
0000
0000
0000
0000
0033
0000
0000
M001
0100
0001
,
1000
0100
1000
002M
0000
0000
0000
0000
0000
M130
0000
0000
,
000M
0000
0000
0000
;
