#TITLE:Hej Sokoly;
#SUBTITLE:(This Is The Rainbowdragoneyes Remix);
#ARTIST:Initial P presents "Half Polish";
#TITLETRANSLIT:;
#SUBTITLETRANSLIT:;
#ARTISTTRANSLIT:;
#CREDIT:;
#BANNER:;
#BACKGROUND:;
#LYRICSPATH:;
#CDTITLE:;
#MUSIC:Hej Sokoly (This Is The Rainbowdragoneyes Remix).mp3;
#OFFSET:-0.080;
#SAMPLESTART:70.804;
#SAMPLELENGTH:15.780;
#SELECTABLE:YES;
#DISPLAYBPM:*;
#BPMS:0.000=190.000,3.000=90.000,4.000=190.000,7.000=90.000,8.000=190.000,11.000=90.000,12.000=95.000,16.000=190.000,20.000=95.000,22.000=190.000,26.000=95.000,28.000=190.000,31.000=95.000,37.000=190.000,40.000=95.000,41.000=190.000,44.000=95.000,45.000=190.000,56.000=379.999,64.000=190.000,68.000=379.999,76.000=190.000,80.000=379.999,88.000=190.000,100.000=379.998,108.000=95.000,110.000=379.998,118.000=94.999,120.000=379.998,128.000=190.000,156.000=379.998,164.000=190.000,192.000=95.000,192.500=190.000,193.000=379.998,195.000=190.000,195.500=94.999,196.500=190.000,197.000=379.998,199.000=189.999,199.500=94.999,200.500=189.999,201.000=379.998,203.000=189.999,203.500=94.999,204.500=189.999,205.000=379.997,207.000=189.999,207.500=94.998,208.500=189.998,209.000=379.997,211.000=189.998,211.500=94.998,212.500=189.998,213.000=379.996,215.000=189.998,215.500=94.998,216.500=189.998,217.000=379.996,219.000=189.998,219.500=94.998,220.000=189.998,232.000=94.998,232.500=189.998,233.000=379.996,238.000=189.997,250.000=94.997,250.500=189.997,251.000=379.996,256.000=189.997,260.000=94.997,261.000=379.996,321.000=189.997;
#STOPS:0.000=0.190
,0.500=0.150
,1.000=0.150
,1.500=0.150
,2.000=0.310
,4.000=0.150
,4.500=0.150
,5.000=0.150
,5.500=0.150
,6.000=0.310
,8.000=0.150
,8.500=0.150
,9.000=0.150
,9.500=0.150
,10.000=0.310
,28.000=0.150
,28.500=0.150
,29.000=0.150
,29.500=0.150
,30.000=0.310
,36.000=0.160
,36.250=0.160
,36.500=0.160
,36.750=0.160
,37.000=0.320
,40.000=0.160
,40.250=0.160
,40.500=0.160
,40.750=0.160
,41.000=0.320
,44.000=0.160
,44.250=0.160
,44.500=0.160
,44.750=0.160
,45.000=0.320
,317.000=0.170
,318.000=0.150
,319.000=0.150
,320.000=0.150
,353.000=0.150
,353.500=0.150
,354.000=0.080
;
#BGCHANGES:;

//---------------dance-single - ----------------
#NOTES:
     dance-single:
     :
     Hard:
     10:
     0.950,1.000,1.000,0.412,0.336:
0110
0000
1100
0000
0110
0000
0011
0000
1001
0000
0100
0010
0100
0000
1000
0000
,
0011
0110
1100
1010
1001
0001
0101
0100
,
1010
0000
0101
0000
1001
0000
0110
0000
1001
0000
0001
1000
0001
0000
0110
0000
,
0100
0000
0000
0000
0001
0000
0000
0000
0000
0000
1000
0000
0100
0000
0000
0000
0010
0000
0001
0000
0000
0000
0010
0000
0100
0000
0000
0000
0000
0000
0101
0000
0000
0000
0000
0000
0022
0000
0000
0033
0000
0000
0000
0000
0000
0000
0000
0000
,
1000
0100
1000
0100
1000
0000
0000
0000
0001
0100
0001
0100
0001
0000
0000
0000
,
0100
0000
1000
0100
0010
0000
0001
0000
0100
0010
0100
0010
0100
0000
0000
0000
,
0001
0000
0000
1000
0000
0000
0001
0000
0000
1000
0000
0000
0001
0000
0000
0000
0000
0000
0000
0000
0000
0000
0000
0000
1000
0000
0000
0000
0100
0000
0010
0000
0000
0000
0001
0000
0010
0000
0000
0000
0100
0000
1000
0000
0000
0000
0000
0000
,
0101
0000
1001
0000
1100
0000
0110
0000
0011
0000
0001
0010
0001
0000
0100
0000
,
0001
0000
0000
0000
0010
0000
0000
0000
0000
0000
1000
0000
0100
0000
0000
0000
0010
0000
0001
0000
0000
0000
1000
0000
0100
0000
0000
0000
0000
0000
0100
0000
0000
0000
0000
0000
0022
0000
0000
0033
0000
0000
0000
0000
0000
0000
0000
0000
,
1100
0110
0011
0110
1001
0000
0001
1000
0001
0000
0000
0000
1001
0000
0000
0000
,
1001
0110
0011
0110
1100
0000
1000
0000
1010
0000
0000
0000
0101
0000
0000
0000
,
0101
1010
1100
0011
0110
0000
0010
0001
0010
0000
0000
0000
0110
0000
0000
0000
,
1000
0100
0000
0000
0000
0001
0100
0000
0010
0100
0000
1000
,
0001
1010
0202
0303
,
0010
1000
0010
0001
,
0010
1000
0010
0001
,
1010
1100
0101
0011
,
0001
0100
1000
0100
,
0001
0100
1000
0001
,
0101
1100
1010
0011
,
0001
0010
1000
0010
,
0001
0010
1000
0001
,
1001
0101
0110
1010
,
1000
0001
0000
0000
0000
0001
0100
0000
0010
1000
0000
1000
,
0100
0110
2002
3003
,
0001
0100
0001
0100
0001
0100
0001
0100
,
0010
1000
0010
1000
0010
1000
0010
0000
,
1000
0100
0010
0001
1000
0000
1001
0000
1000
0000
0100
0000
1000
0000
0100
0000
,
1000
0100
1000
0100
0010
0001
0010
0001
,
0010
0000
0001
0000
0010
0000
0000
0000
1000
0100
0010
0001
0010
0000
1001
0000
,
0001
0010
0100
1000
0100
0010
0001
1000
,
0001
1000
0001
0100
0001
1000
0001
0000
,
0110
0000
1000
0100
0001
0000
1001
0000
,
0100
0001
1000
0001
0100
0001
0010
0100
,
1000
0101
1100
1001
,
1000
0100
0001
0100
1000
0100
0001
0001
,
0010
1000
0010
0001
0010
1000
0010
0001
,
1000
1000
0100
0100
0001
0001
0100
0100
,
1000
0100
0010
0001
0010
0100
1000
0000
,
1000
0001
1000
0001
0100
0010
0100
0010
,
1000
0100
0010
0001
0010
0100
0010
0100
,
1000
0000
0001
0100
1000
0001
1001
0000
,
0100
0010
0001
0010
0100
1000
0100
1000
,
0001
0101
1100
0110
,
MMM1
M1MM
1MMM
MM1M
,
MM11
1M1M
11MM
M1M1
,
MMM1
M1MM
1MMM
MM1M
,
MM11
1M1M
11MM
M11M
,
2002
0000
0000
3003
0202
0000
0000
0303
,
0001
0000
0000
1000
0000
0000
0000
0000
0100
0000
0000
0000
0000
0000
0000
0000
0022
0000
0000
0000
0000
0000
0000
0000
0000
0000
0000
0000
0033
0000
0000
0000
,
2200
0000
0000
3300
2020
0000
0000
3030
,
0001
0000
0000
0100
0000
0000
0000
0000
2000
0000
0000
0000
3000
0000
0000
0000
2002
0000
0000
0000
0000
0000
0000
0000
0000
0000
0000
0000
3003
0000
0000
0000
,
0110
0000
0000
1000
0000
0000
0000
0000
0100
0000
0000
0000
0000
0000
0000
0000
0101
0000
0000
0000
0000
0000
0000
0000
0000
0000
0000
1010
0000
0000
0000
0000
,
1001
0000
0000
0001
0000
0000
0000
0000
1000
0000
0000
0000
0000
0000
0000
0000
1010
0000
0000
0000
0000
0000
0000
0000
0000
0000
0000
0101
0000
0000
0000
0000
,
0110
0000
0000
0010
0000
0000
0000
0000
0001
0000
0000
0000
0000
0000
0000
0000
0011
0000
0000
0000
0000
0000
0000
0000
0000
0000
0000
1100
0000
0000
0000
0000
,
1000
0100
0001
1000
0001
0100
1000
0001
,
1000
0100
0001
0001
0010
1000
0010
0001
,
MMMM
0000
M11M
MM1M
M11M
0000
1MM1
0000
,
0001
0000
0000
0100
0000
0000
0000
0000
1000
0000
0000
0000
0000
0000
0000
0000
0020
0000
0000
0000
0000
0000
0000
0000
0030
0000
0000
0000
0000
0000
0000
0000
,
0022
0000
0000
0000
0000
0033
0000
0000
1000
0000
0010
0000
0001
0000
0010
0000
,
0010
1000
0100
0001
MMMM
0000
1MM1
1MMM
,
1MM1
MMMM
M11M
0000
0100
0001
0100
1000
,
1000
0000
0000
0000
0010
0000
0000
0000
0001
0000
0000
0000
0010
0000
0000
0000
1000
0000
0000
0100
0000
0000
0000
0000
0001
0000
0000
0000
0000
0000
0000
0000
,
0202
0303
2200
3300
,
1000
0100
0010
0001
0010
0010
0100
0100
,
0220
0330
1000
0000
0001
0100
0001
1000
,
0001
0010
0001
1000
0001
1000
0020
0000
,
0030
0000
1001
0000
0100
0000
2002
3003
,
0000
0110
0100
0220
,
0330
0000
1000
0100
0010
0001
1000
0001
,
1000
0010
0100
0001
1000
0001
2000
0000
,
3000
0000
0101
0000
0100
0000
0220
0330
,
0000
0000
1010
0000
0010
0000
0220
0330
,
0000
0000
0010
1000
0100
0010
0001
0010
,
0100
1000
0001
0100
0001
1000
0020
0030
,
0000
0000
0101
0000
0001
0000
2002
3003
,
0000
0000
1010
0000
0010
0000
0220
0330
,
0000
0000
0001
0100
0001
1000
0010
1000
,
0010
1000
0001
0010
0100
1000
0100
0010
,
0001
1001
0101
1001
,
1010
0000
0100
0001
1000
0001
1000
0100
,
0010
0001
1000
0100
0100
0010
0001
1000
,
0001
0000
0001
0000
1000
0100
0010
0001
1000
0010
0100
0001
1000
0001
0100
0001
,
0200
0000
0300
0000
1000
0000
0001
0100
0001
0000
1000
0100
1000
0000
0001
0000
,
1001
0000
0000
0000
0001
0010
0100
1000
0100
0010
0001
0010
0100
1000
0100
0010
,
0001
0000
0000
0000
0010
1000
0010
1000
0100
0000
0000
0000
0001
0100
0001
1000
,
0100
0000
0000
0000
0001
0000
0010
0000
0100
0000
1000
0000
0100
0000
1000
0001
,
1000
0000
0001
1000
0001
0000
0000
0000
0110
0000
0000
0000
1100
0000
0000
0000
,
0101
0000
0000
0000
1100
0000
0101
0000
1001
0000
1000
0100
0001
0000
0001
0100
,
1000
0000
0000
0000
;

//---------------dance-single - ----------------
#NOTES:
     dance-single:
     :
     Medium:
     7:
     0.558,0.798,0.439,0.197,0.027: // measure 1
1000
0010
0001
0100
1000
0001
1000
1100
,  // measure 2
0001
0100
1000
0010
0001
1000
0101
0001
,  // measure 3
1000
0100
0001
0010
1000
1000
1010
0100
,  // measure 4
1000
0100
0010
0001
1000
0001
1001
0000
,  // measure 5
1000
0100
0001
0000
0001
0100
1000
0000
,  // measure 6
0001
0001
1000
1000
0010
0010
0100
0000
,  // measure 7
0100
0100
0010
0000
1000
0010
0001
0010
,  // measure 8
1100
0110
0011
0110
1100
0000
0001
1000
,  // measure 9
0100
0001
0100
1000
0010
0001
1000
0000
,  // measure 10
0001
0010
0001
0100
0001
0000
0000
0000
1000
0000
0000
0000
0100
0000
0000
0000
,  // measure 11
0010
1000
0010
0001
0010
0000
0000
0000
0100
0000
0000
0000
0001
0000
0000
0000
,  // measure 12
1000
0010
1000
0001
1000
0000
0000
0000
0001
0000
0000
0000
0100
0000
0000
0000
,  // measure 13
1000
0100
0001
0100
,  // measure 14
0010
1000
0001
0000
,  // measure 15
1001
0000
0100
0000
,  // measure 16
1000
0000
0100
0000
,  // measure 17
0001
0010
0100
1000
,  // measure 18
1010
0000
0001
0000
,  // measure 19
0100
0000
1000
0000
,  // measure 20
1000
0100
0001
0100
,  // measure 21
0101
0000
1000
0000
,  // measure 22
0010
0000
0001
0000
,  // measure 23
1000
0100
0001
0100
,  // measure 24
1000
0010
0001
0010
,  // measure 25
1000
0100
0001
0000
,  // measure 26
1000
0100
0001
0100
,  // measure 27
1000
0100
0001
0000
,  // measure 28
1100
1001
0101
1001
0001
0000
0100
0000
,  // measure 29
1000
0100
0001
0100
,  // measure 30
1000
0000
0000
0000
1010
1001
0011
1001
,  // measure 31
0001
0010
1000
0010
,  // measure 32
0001
0010
1000
0000
,  // measure 33
1010
0011
1001
1010
,  // measure 34
0100
1000
0100
0010
0001
0000
0100
0000
,  // measure 35
1100
0101
2002
3003
,  // measure 36
0100
1000
0100
1000
0100
0000
0000
0000
,  // measure 37
0001
0100
0001
0100
0001
0000
0000
0000
,  // measure 38
0010
0001
0010
0001
0010
0000
0000
0000
,  // measure 39
0010
1000
0010
1000
0010
0000
0000
0000
,  // measure 40
0001
0100
1000
0100
,  // measure 41
0001
0100
1000
0000
,  // measure 42
0001
0100
1000
0010
,  // measure 43
1000
0100
0100
0000
0001
0100
0100
0000
,  // measure 44
0001
0010
0100
1001
,  // measure 45
1000
1100
0001
0101
,  // measure 46
0010
0011
1000
1010
,  // measure 47
1000
0100
0001
0000
0001
0100
1000
0000
,  // measure 48
0010
0010
0100
0000
0100
0100
0010
0000
,  // measure 49
2000
0000
0000
3000
0002
0000
0000
0000
,  // measure 50
0203
0000
0000
0300
0020
0000
0000
0000
,  // measure 51
2030
0000
0000
3000
0200
0000
0000
0000
,  // measure 52
0302
0000
0000
0003
0020
0000
0000
0000
,  // measure 53
2030
0000
0000
3000
0200
0000
0000
0000
,  // measure 54
0302
0000
0000
0003
0020
0000
0000
0000
,  // measure 55
2030
0000
0000
3000
0020
0000
0000
0000
,  // measure 56
1030
1000
0010
0000
0001
0001
0100
0000
,  // measure 57
0001
0100
1000
0100
0001
0100
1000
1001
,  // measure 58
0000
0000
0000
0000
,  // measure 59
2000
0000
0000
3000
0002
0000
0000
0000
,  // measure 60
0000
0000
0003
0000
0010
0100
0010
0100
,  // measure 61
0010
0100
2002
0000
,  // measure 62
0000
0000
3003
0000
0100
1000
0100
0010
,  // measure 63
0001
0010
0100
0000
2000
0000
0000
3000
,  // measure 64
0002
0000
0000
0003
,  // measure 65
1000
0100
0010
0001
0010
0100
1000
0000
,  // measure 66
1001
0100
0000
1100
,  // measure 67
0000
0100
0000
0101
,  // measure 68
0000
0001
0000
0100
,  // measure 69
0000
1000
1000
0010
,  // measure 70
0000
0001
0000
0011
,  // measure 71
0000
1000
0000
1010
,  // measure 72
0000
0001
0000
0010
,  // measure 73
0000
0100
0100
1000
,  // measure 74
0000
1000
0000
1001
,  // measure 75
0000
0010
0000
0110
,  // measure 76
0000
1000
0000
0100
,  // measure 77
0000
0010
0010
0001
,  // measure 78
0000
1000
0000
0100
,  // measure 79
0000
0001
0000
0100
,  // measure 80
0000
0110
1010
0101
,  // measure 81
1001
0001
0100
0010
,  // measure 82
1000
0000
0001
0100
1000
0000
1000
0100
,  // measure 83
0001
0000
1000
0100
0010
0001
0010
0100
,  // measure 84
1000
0001
0010
0100
0010
0001
1000
0001
,  // measure 85
0100
1000
0100
0001
,  // measure 86
0100
0000
1000
1000
0001
0000
0001
0001
,  // measure 87
1000
0000
0010
1000
0010
0001
0010
0000
,  // measure 88
1000
1100
0101
0011
,  // measure 89
0000
0000
1000
0100
0001
0000
0100
0000
,  // measure 90
1001
0000
0000
0000
;

//---------------dance-single - ----------------
#NOTES:
     dance-single:
     :
     Easy:
     5:
     0.387,0.519,0.090,0.224,0.000: // measure 1
1000
1000
1000
1000
1000
0000
0100
0000
,  // measure 2
0001
0001
0001
0001
0001
0000
0010
0000
,  // measure 3
1000
1000
1000
1000
1000
0000
0010
0000
,  // measure 4
0001
0000
0001
0000
0100
0100
0100
0000
,  // measure 5
2000
3000
0002
0003
,  // measure 6
0100
0001
0100
0000
2000
0000
3000
0000
,  // measure 7
0020
0000
0030
0000
0001
0001
1000
1000
,  // measure 8
0100
0001
0100
1000
0001
0000
0100
0000
,  // measure 9
1000
0000
0001
0000
0010
0010
0010
0000
,  // measure 10
0001
1000
0001
0000
0100
0000
1000
0000
,  // measure 11
0001
0010
0100
0000
1000
0000
0100
0000
,  // measure 12
1000
0001
1000
0000
0001
0000
0100
0000
,  // measure 13
1000
0000
0001
1000
,  // measure 14
0100
0001
1000
0000
,  // measure 15
0100
0000
0100
0000
,  // measure 16
0100
0000
0100
0000
,  // measure 17
0001
0100
1000
0010
,  // measure 18
0001
0000
0001
0000
,  // measure 19
0001
0000
0001
0000
,  // measure 20
1000
0010
0001
0100
,  // measure 21
0010
0000
0010
0000
,  // measure 22
0010
0000
0010
0000
,  // measure 23
1000
0001
0100
0001
,  // measure 24
0100
0100
0100
0010
,  // measure 25
1000
0100
0001
0000
,  // measure 26
1000
0000
0100
0000
,  // measure 27
0001
0000
0100
0000
,  // measure 28
1001
0110
0001
0000
,  // measure 29
0010
0000
1000
0000
,  // measure 30
0010
0000
0110
0110
,  // measure 31
1000
0000
0100
0000
,  // measure 32
0001
0000
0100
0000
,  // measure 33
1001
0000
0110
0000
,  // measure 34
1000
0100
0001
0100
,  // measure 35
1000
0010
0001
0000
,  // measure 36
1000
1000
0100
0100
,  // measure 37
0001
0001
0100
0100
,  // measure 38
0010
0010
1000
1000
,  // measure 39
0100
0100
0010
0010
,  // measure 40
1000
0000
0100
0000
,  // measure 41
0001
0000
0100
0000
,  // measure 42
0002
0000
1000
0003
,  // measure 43
0010
0100
0100
0010
,  // measure 44
0010
1000
0001
0000
,  // measure 45
1000
0000
0100
0000
,  // measure 46
0001
0000
0100
0000
,  // measure 47
1000
0000
0010
0000
,  // measure 48
0001
0000
0010
0000
,  // measure 49
2000
0000
0000
3000
0002
0000
0000
0000
,  // measure 50
2003
0000
0000
3000
0020
0000
0000
0000
,  // measure 51
0230
0000
0000
0300
0002
0000
0000
0000
,  // measure 52
0203
0000
0000
0300
2000
0000
0000
0000
,  // measure 53
3200
0000
0000
0300
0020
0000
0000
0000
,  // measure 54
0230
0000
0000
0300
0020
0000
0000
0000
,  // measure 55
2030
0000
0000
3000
0002
0000
0000
0000
,  // measure 56
2003
0000
3002
0000
,  // measure 57
0103
1000
0100
0001
,  // measure 58
0000
0010
0100
0000
,  // measure 59
0002
0000
0000
0003
2000
0000
0000
0000
,  // measure 60
0000
3000
0100
0001
,  // measure 61
0100
1000
0000
0001
,  // measure 62
1000
0000
0010
0100
,  // measure 63
0001
0000
0100
0000
2000
0000
0000
3000
,  // measure 64
0020
0000
0000
0030
,  // measure 65
1000
0100
0001
0100
,  // measure 66
1001
0001
0000
0100
,  // measure 67
0000
1000
0000
0100
,  // measure 68
0000
0001
0000
0001
,  // measure 69
0000
0001
0000
0001
,  // measure 70
0000
1000
0000
0010
,  // measure 71
0000
0001
0000
0010
,  // measure 72
0000
1000
0000
1000
,  // measure 73
0000
1000
0000
1000
,  // measure 74
0000
0100
0000
0001
,  // measure 75
0000
0100
0000
1000
,  // measure 76
0000
0100
0000
0100
,  // measure 77
0000
0100
0000
0100
,  // measure 78
0000
0010
0000
0001
,  // measure 79
0000
0010
0000
1000
,  // measure 80
0000
0010
0010
0010
,  // measure 81
0010
0001
0100
0100
,  // measure 82
0100
1000
0010
0010
,  // measure 83
0010
0001
0100
0001
,  // measure 84
0100
1000
0010
1000
,  // measure 85
0010
0100
0001
0010
,  // measure 86
1000
0100
1000
0010
,  // measure 87
0001
1000
1100
0001
,  // measure 88
0101
0010
0100
0010
,  // measure 89
0100
1000
0001
0000
,  // measure 90
1001
0000
0000
0000
;
