#TITLE:HYPER BURST;
#SUBTITLE:;
#ARTIST:dakimaki;
#TITLETRANSLIT:;
#SUBTITLETRANSLIT:;
#ARTISTTRANSLIT:;
#GENRE:EDM;
#CREDIT:;
#BANNER:8bit_Banner.png;
#BACKGROUND:8bit_Background.png;
#LYRICSPATH:;
#CDTITLE:;
#MUSIC:HYPER_BURST.ogg;
#OFFSET:0.365000;
#SAMPLESTART:19.284966;
#SAMPLELENGTH:12.000000;
#SELECTABLE:YES;
#DISPLAYBPM:150.000000:160.000000;
#BPMS:0.000000=150.000000
,20.500000=225.000000
,21.000000=112.500000
,21.500000=150.000000
,24.500000=225.000000
,25.000000=112.500000
,25.500000=150.000000
,32.000000=225.000000
,32.750000=75.000000
,33.000000=150.000000
,36.500000=225.000000
,37.000000=112.500000
,37.500000=150.000000
,40.500000=225.000000
,41.000000=112.500000
,41.500000=150.000000
,52.500000=225.000000
,52.875000=75.000000
,53.000000=150.000000
,53.500000=225.000000
,53.875000=75.000000
,54.000000=150.000000
,56.500000=225.000000
,56.875000=75.000000
,57.000000=150.000000
,57.500000=225.000000
,57.875000=75.000000
,58.000000=150.000000
,68.500000=225.000000
,68.875000=75.000000
,69.000000=150.000000
,69.500000=225.000000
,69.875000=75.000000
,70.000000=150.000000
,72.500000=225.000000
,72.875000=75.000000
,73.000000=150.000000
,73.500000=225.000000
,73.875000=75.000000
,74.000000=150.000000
,81.000000=225.000000
,81.500000=112.500000
,82.000000=150.000000
,85.000000=225.000000
,85.500000=112.500000
,86.000000=150.000000
,89.000000=225.000000
,89.500000=112.500000
,90.000000=150.000000
,93.000000=225.000000
,93.500000=112.500000
,94.000000=150.000000
,97.000000=225.000000
,97.500000=112.500000
,98.000000=150.000000
,99.000000=187.500000
,101.000000=225.000000
,101.500000=112.500000
,102.000000=150.000000
,103.000000=187.500000
,105.000000=225.000000
,105.500000=112.500000
,106.000000=150.000000
,107.000000=187.500000
,109.000000=225.000000
,109.500000=112.500000
,110.000000=150.000000
,111.000000=187.500000
,113.000000=150.000000
,129.000000=225.000000
,129.750000=75.000000
,130.000000=150.000000
,131.000000=225.000000
,131.750000=75.000000
,132.000000=150.000000
,132.500000=187.500000
,134.500000=150.000000
,137.000000=187.500000
,139.000000=150.000000
,140.500000=187.500000
,143.000000=150.000000
,146.000000=187.500000
,146.500000=150.000000
,147.000000=225.000000
,147.750000=75.000000
,148.000000=150.000000
,148.500000=187.500000
,150.500000=150.000000
,153.000000=187.500000
,155.000000=150.000000
,156.500000=187.500000
,158.500000=150.000000
,159.000000=187.500000
,161.000000=225.000000
,161.375000=75.000000
,161.500000=150.000000
,163.000000=225.000000
,163.750000=75.000000
,164.000000=150.000000
,164.500000=187.500000
,166.500000=150.000000
,169.000000=187.500000
,177.000000=150.000000
,178.000000=187.500000
,178.500000=150.000000
,179.000000=225.000000
,179.750000=75.000000
,180.000000=150.000000
,180.500000=187.500000
,182.500000=225.000000
,182.875000=75.000000
,183.000000=150.000000
,183.500000=225.000000
,183.875000=75.000000
,184.000000=150.000000
,188.500000=187.500000
,190.500000=150.000000
,193.000000=152.000000
,194.500000=150.000000
,208.000000=150.100006
,209.000000=150.300003
,210.000000=150.500000
,211.000000=150.699997
,212.000000=151.000000
,213.000000=151.399994
,214.000000=151.899994
,215.000000=152.300003
,216.000000=152.699997
,217.000000=153.000000
,218.000000=153.399994
,219.000000=153.800003
,220.000000=154.100006
,221.000000=154.500000
,222.000000=154.899994
,223.000000=155.199997
,224.000000=155.600006
,225.000000=155.899994
,226.000000=156.199997
,227.000000=156.500000
,228.000000=156.699997
,229.000000=157.199997
,230.000000=157.600006
,231.000000=157.899994
,232.000000=158.199997
,233.000000=158.500000
,234.000000=158.899994
,235.000000=159.300003
,236.000000=159.600006
,237.000000=159.899994
,238.000000=160.000000
,273.000000=240.000000
,273.750000=80.000000
,274.000000=160.000000
,303.000000=240.000000
,303.375000=80.000000
,303.500000=160.000000
,304.000000=240.000000
,304.375000=80.000000
,304.500000=160.000000
,322.500000=240.000000
,322.875000=80.000000
,323.000000=160.000000
,323.500000=240.000000
,323.875000=80.000000
,324.000000=160.000000
,324.500000=240.000000
,324.875000=80.000000
,325.000000=160.000000
,350.500000=240.000000
,350.875000=80.000000
,351.000000=160.000000
,351.500000=240.000000
,351.875000=80.000000
,352.000000=160.000000
,352.500000=240.000000
,352.875000=80.000000
,353.000000=160.000000
;
#STOPS:99.000000=0.040000,
99.500000=0.040000,
100.000000=0.040000,
100.500000=0.040000,
103.000000=0.040000,
103.500000=0.040000,
104.000000=0.040000,
104.500000=0.040000,
107.000000=0.040000,
107.500000=0.040000,
108.000000=0.040000,
108.500000=0.040000,
111.000000=0.040000,
111.500000=0.040000,
112.000000=0.040000,
112.500000=0.040000,
132.500000=0.040000,
133.000000=0.040000,
133.500000=0.040000,
134.000000=0.040000,
137.000000=0.040000,
137.500000=0.040000,
138.000000=0.040000,
138.500000=0.040000,
140.500000=0.040000,
141.000000=0.040000,
141.500000=0.040000,
142.000000=0.040000,
142.500000=0.040000,
146.000000=0.040000,
148.500000=0.040000,
149.000000=0.040000,
149.500000=0.040000,
150.000000=0.040000,
153.000000=0.040000,
153.500000=0.040000,
154.000000=0.040000,
154.500000=0.040000,
156.500000=0.040000,
157.000000=0.040000,
157.500000=0.040000,
158.000000=0.040000,
159.000000=0.040000,
159.500000=0.040000,
160.000000=0.040000,
160.500000=0.040000,
164.500000=0.040000,
165.000000=0.040000,
165.500000=0.040000,
166.000000=0.040000,
169.000000=0.040000,
169.500000=0.040000,
170.000000=0.040000,
170.500000=0.040000,
171.000000=0.040000,
171.500000=0.040000,
172.000000=0.040000,
172.500000=0.040000,
173.000000=0.040000,
173.500000=0.040000,
174.000000=0.040000,
174.500000=0.040000,
175.000000=0.040000,
175.500000=0.040000,
176.000000=0.040000,
176.500000=0.040000,
178.000000=0.040000,
180.500000=0.040000,
181.000000=0.040000,
181.500000=0.040000,
182.000000=0.040000,
188.500000=0.040000,
189.000000=0.040000,
189.500000=0.040000,
190.000000=0.040000,
304.500000=0.750000,
318.500000=0.750000,
332.500000=0.750000,
346.500000=0.750000
;
#BGCHANGES:;
#KEYSOUNDS:;
#ATTACKS:;

//---------------dance-single - ----------------
#NOTES:
     dance-single:
     :
     Challenge:
     11:
     0.702935,1.005899,0.354333,0.467986,0.544870,736.000000,683.000000,53.000000,70.000000,62.000000,0.000000,0.702935,1.005899,0.354333,0.467986,0.544870,736.000000,683.000000,53.000000,70.000000,62.000000,0.000000:
0000
0000
0000
0000
,
0000
0000
0000
0000
,
0000
0000
0000
0000
,
0000
0000
0000
0000
,
0000
0000
0000
0000
2001
0000
0000
3000
0001
0000
0010
0000
0100
0000
0010
0000
,
0001
0000
0101
0000
0000
0000
1002
0000
0000
0003
1000
0000
0100
0000
0001
0000
,
0100
0000
0110
0000
0000
0000
0012
0000
0000
0003
0100
0000
0010
0000
1000
0000
,
0001
0400
0000
0000
0000
0000
0340
0000
,
1030
000M
1200
0300
1000
0010
0001
0010
,
1000
0000
1010
0000
0000
0000
0120
0000
0000
0030
0100
0000
0001
0000
0010
0000
,
0100
0000
0110
0000
0000
0000
2100
0000
0000
3000
0010
0000
0100
0000
0001
0000
,
0010
1200
0000
0000
0000
0300
2001
0000
,
3010
0000
0100
0001
0010
0000
0100
0000
0010
0000
0001
0000
0100
0000
0010
0000
,
0100
0002
0013
0002
0103
0010
0001
0010
,
0100
0002
1003
0200
0310
1000
0010
0001
,
0100
0020
1000
0000
0100
0030
2000
0000
,
3100
0010
0001
0100
0101
0100
0010
1000
,
1010
0020
1030
0002
0103
0001
0010
0100
,
1100
2000
3010
0200
0301
0010
0100
0010
,
0001
0400
0310
1000
0000
0010
2000
0000
,
0000
0000
3000
0000
0021
0000
0000
0000
0000
0000
0030
0000
MM04
0000
0000
0003
,
M4M0
0000
0000
0300
1020
0000
0000
0000
0000
0000
0030
0000
4M0M
0000
0000
3000
,
04MM
0000
0000
0300
0102
0000
0000
0000
0000
0000
0003
0000
04M0
0000
0000
0300
,
M04M
0000
0000
0030
1200
0000
0000
0000
0000
0000
0300
0000
00M4
0000
0000
0003
,
M4M0
0000
0000
0300
1002
0000
0000
0003
1000
0000
0001
0000
0010
0000
0010
0000
,
0100
0000
0100
0000
2001
0000
0000
3000
0001
0000
1000
0000
0010
0000
0010
0000
,
0100
0000
0100
0000
0120
0000
0000
0030
1000
0000
0100
0000
0010
0000
0010
0000
,
0001
0000
0001
0000
0201
0000
0000
0300
0010
0000
0100
0000
0001
0000
0001
0000
,
1000
0000
0000
1000
0000
0000
0010
0000
1000
0000
0001
0000
0010
0000
0100
0000
1000
0000
0010
0000
0100
0000
0001
0000
,
0010
0001
1000
0100
1000
0100
0010
0001
1000
0010
1000
0001
,
0010
0000
0001
0000
1000
0000
0004
0040
0000
0000
0000
0000
0000
0000
0000
0000
0000
0003
0430
4000
0000
0000
0000
0000
,
0000
0000
0000
0000
0000
0300
3002
0000
0000
0000
1003
0000
0100
0000
0010
0000
0100
0000
0010
0000
0001
0000
0100
0000
,
0010
0000
2000
0000
3020
0000
0M30
0000
000M
0000
0M00
0000
100M
0000
0000
0100
0000
0000
2100
0000
0000
0000
0000
0000
,
3001
0000
M104
0000
M000
0000
M000
0000
M003
0000
0010
0001
0010
0000
0100
0000
,
0010
0001
M400
M000
M000
M301
0120
0000
,
1030
0104
M000
M000
M000
M003
0010
0001
,
4000
0000
0000
3000
0000
0000
0000
0000
M1M1
0000
0000
0000
0002
0000
0000
0003
,
0010
0000
M140
0000
M000
0000
M000
0000
M030
0000
0001
1000
0001
0000
0100
0000
,
1000
0100
00M4
00M0
00M0
00M3
1001
1000
,
0100
M040
M000
M000
M030
0001
M014
0M00
,
M000
0000
0M03
0000
0000
0000
0001
0010
0000
0000
0100
0000
2100
0000
0000
0000
,
3010
0000
0410
0000
0000
0000
0000
0000
0300
0000
0001
0100
0001
0000
1000
0000
,
0001
0000
0010
0100
0040
0000
0000
0000
0000
0000
0031
0000
4000
0000
0000
0000
,
0000
3400
0000
0000
0000
0300
2002
0000
,
0000
0000
0000
3003
0000
0000
0000
0000
0010
0000
0000
0000
0201
0000
0000
0000
,
0310
0000
4010
0000
0000
0000
0000
0000
0000
3000
0002
0000
0013
0000
0001
0000
,
2001
0000
3000
0000
0001
0010
0100
1000
0100
0010
0001
0100
0010
1000
0100
0010
,
0100
1000
0400
0000
0000
0000
0000
0000
0300
0000
1000
0000
1001
0000
0000
0000
,
0000
0000
0004
0000
0000
0203
0320
2030
,
3002
0103
0100
0010
0010
2000
3200
2300
,
3020
1030
1000
0010
0010
0200
0302
0023
,
0230
0000
1300
0000
0000
0001
0000
0000
1000
0000
0000
0000
0010
0000
0000
0000
,
1010
0000
1000
0100
1000
0000
0100
0000
1000
0000
0010
0000
0100
0000
0001
0000
,
0010
0100
1000
0010
0100
0010
1000
0100
,
0010
0001
0010
0100
0010
0001
0100
0010
,
1000
0100
0010
0100
1000
0010
0100
0010
,
0100
0000
0001
0000
1000
0100
0010
0001
0010
0100
1000
0010
0100
0001
0010
0100
,
0010
0001
0100
0010
0100
0001
0010
0001
1000
0010
1000
0001
0100
0001
0010
0100
,
0010
0100
1000
0100
0010
0100
1000
0001
0010
0001
1000
0100
0010
0001
1000
0100
,
1000
0010
0100
0001
0100
0001
0010
0100
1000
0010
1000
0001
0010
0001
1000
0010
,
1000
0100
0010
0100
1000
0000
0100
0000
0010
0000
0001
0000
1000
0100
0010
0100
,
0010
0001
0010
0001
0100
0010
0100
0001
0010
0100
0010
0100
1000
0010
0100
0010
,
1000
0100
0010
0100
1000
0000
0100
0000
M001
0000
0100
0000
1000
0000
0010
0000
,
M001
0000
20M0
0000
0000
0000
3100
0000
0010
0100
0000
0001
0100
0000
0001
1000
,
0001
0000
0100
0000
0010
0000
1000
0000
0100
1000
0100
0010
0001
0100
0010
1000
,
0001
0100
0001
0010
0100
0010
0001
0100
0010
0000
0100
0000
0001
0000
1000
0000
,
0100
1000
0001
0100
0001
0010
0001
1000
,
0100
0000
0010
0000
0000
0001
0010
0000
0001
0000
1000
0100
0010
0001
1000
0000
,
1010
0000
1000
0000
0200
0000
0000
0300
0010
0000
0001
0000
0001
0100
0001
0010
,
0100
1000
0100
0010
0001
0100
0010
0100
0001
0010
0001
1000
0100
1000
0010
0100
,
0001
0010
0100
0010
0001
0000
0010
0000
0110
0000
1000
0000
0010
0000
0100
0000
,
0101
0000
0002
0000
0003
0000
0100
0000
1000
0100
0000
0010
0100
0000
0001
0010
,
0100
0000
1000
0000
0001
0000
0010
0000
0100
0010
0001
0010
0100
1000
0010
0100
,
0001
0010
0001
0100
0010
1000
0100
1000
0001
0000
0100
0000
0010
0000
0100
0000
,
0001
0010
0401
0000
0000
0300
0010
1000
,
0010
0000
1001
0000
0000
0100
0000
0000
0100
0000
0000
0000
0220
0000
0330
0000
,
2002
0000
3MM3
0000
1000
0100
0010
0100
1000
0100
0010
0001
0100
0010
1000
0001
,
0010
0100
0010
0001
0100
0010
1000
0010
0100
0010
1000
0001
0010
0000
0100
0000
,
0010
0001
0011
1000
0010
2010
0000
3100
,
0010
0000
0001
0000
1000
0000
0010
0000
0100
0000
MMM1
0000
0100
0010
0100
0001
,
0010
0001
0100
0010
1000
0100
0010
0001
1000
0000
0002
0000
0103
0000
0020
0000
,
1030
0200
0310
0100
1000
0001
1001
1000
,
0100
0000
0020
0000
0030
0000
0001
0000
0010
0000
0000
0010
0001
0000
1000
0010
,
2000
0000
3MMM
0000
1000
0100
0010
0100
1000
0001
0100
0001
0010
0001
1000
0010
,
0100
0001
1000
0001
0010
0100
0010
0001
0010
0100
1000
0010
0100
0000
0001
0000
,
0100
0010
0110
0100
0001
0101
0000
0100
,
0010
0000
1000
0000
0100
0000
1000
0100
0010
0000
M11M
0000
0100
1000
0100
0010
,
0100
0010
0001
1000
0010
0100
0001
0010
0100
0000
2000
0000
3100
0000
0020
0000
,
0031
0000
2000
0000
3400
0000
0000
0000
0000
0000
0000
0000
0000
0000
0000
0300
,
1000
0000
0040
0000
0000
0000
0000
0000
0000
0030
0100
0000
0002
0000
0000
0000
,
0000
0003
2002
0000
0000
0000
0000
0000
,
0000
0000
0000
3003
0000
0000
0000
0000
0000
0000
0000
0000
0000
0000
0000
0000
;

//---------------dance-single - ----------------
#NOTES:
     dance-single:
     :
     Hard:
     9:
     0.539617,0.853490,0.300848,0.722036,0.310877,565.000000,520.000000,45.000000,108.000000,81.000000,0.000000,0.539617,0.853490,0.300848,0.722036,0.310877,565.000000,520.000000,45.000000,108.000000,81.000000,0.000000:
0000
0000
0000
0000
,
0000
0000
0000
0000
,
0000
0000
0000
0000
,
0000
0000
0000
0000
,
0000
0000
2001
0000
3000
0001
1000
0100
,
0010
M002
0003
M020
0030
0100
0001
0100
,
1000
0000
0020
0000
0030
0000
0200
0000
0000
0300
0010
0000
0001
0000
0010
0000
,
1000
0200
0000
0000
0000
0000
2300
0000
,
3000
000M
0210
0000
0300
0001
0010
0001
,
0100
0000
0020
0000
0030
0000
0200
0000
0000
0300
1000
0000
0100
0000
0010
0000
,
0100
0000
0002
0000
0003
0000
2000
0000
0000
3000
0010
0000
0100
0000
0001
0000
,
0010
0012
0000
0000
0000
0003
2001
0000
,
3010
0100
0001
0010
0100
1000
0100
0010
,
0001
2000
3010
0200
0301
0010
0001
0010
,
0100
2000
3001
0200
0310
1000
0010
0100
,
0001
0020
0000
0000
0000
0030
0200
0000
,
0000
0300
1000
0000
0101
0000
0001
2000
,
3000
0002
0003
0020
0030
0000
0100
0020
,
0030
0002
0003
2000
3000
0000
0100
0010
,
0000
0200
0000
0000
0000
0300
0020
0000
,
0000
0030
0022
0000
0033
0000
0001
00M0
,
0100
M000
0102
0000
0000
0003
0100
000M
,
0010
000M
0120
0000
0000
0030
1000
000M
,
0100
00M0
1200
0000
0000
0300
00M1
0000
,
M1M0
0000
0000
0000
0020
0000
0000
0030
1000
0000
0001
0000
0040
0000
0000
0030
,
0400
0000
0000
0300
2000
0000
0000
3000
0001
0000
1000
0000
0040
0000
0000
0030
,
0400
0000
0000
0300
0002
0000
0000
0003
1000
0000
0100
0000
4000
0000
0000
3000
,
0004
0000
0000
0003
0200
0000
0000
0300
0010
0000
0100
0000
0004
0000
0000
0003
,
4000
0000
0000
0000
0000
0000
0000
0000
0000
3000
0000
0000
0100
0000
0000
0000
1000
0000
0000
0000
0001
0000
0000
0000
0010
0000
0000
0000
0100
0000
0000
0000
1000
0000
0000
0000
0010
0000
0000
0000
0100
0000
0000
0000
0001
0000
0000
0000
,
0010
0001
1000
0100
1000
0100
0010
0001
1000
0010
1000
0001
,
0010
0000
0001
0000
1000
0000
0002
00M0
0M00
00M0
0M00
00M0
0M00
00M0
0M00
00M0
0M00
00M0
2M03
00M0
0M00
00M0
0M00
00M0
,
0M00
00M0
0M00
00M0
0M00
00M0
3200
0000
0000
0000
0310
0000
0001
0000
1000
0000
0010
0000
1000
0000
0001
0000
0010
0000
,
0001
0000
0020
0000
0230
0000
0300
0000
000M
0000
M000
0000
001M
0000
0000
0001
0000
0000
0201
0000
0000
0000
0000
0000
,
0301
0000
M020
0000
M000
0000
M000
0000
M030
0000
0001
1000
0001
0000
0100
0000
,
0010
0100
M002
M000
M000
M013
0200
0000
,
1300
0002
M000
M000
M000
M003
0200
0000
,
0000
0000
0300
0000
0000
0000
0000
0000
1MM1
0000
0000
0000
0002
0000
0000
0003
,
0100
0000
M020
0000
M000
0000
M000
0000
M030
0000
0100
0010
0100
0000
0001
0000
,
0010
0001
20M0
00M0
00M0
30M0
1100
0100
,
0010
M200
M000
M000
M300
0010
M012
0M00
,
M000
0000
0M03
0000
0000
0000
0001
0010
0000
0000
0100
0000
0120
0000
0000
0000
,
0030
0000
1002
0000
0000
0000
0000
0000
0003
0000
1000
0100
1000
0000
0001
0000
,
0100
0000
0001
0100
0020
0000
0000
0000
0000
0000
0030
0000
2000
0000
0000
0000
,
0000
0000
3200
0000
0000
0000
0000
0000
0000
0000
0000
0300
0022
0000
0000
0000
,
0000
0000
0000
0033
0000
0000
0000
0000
0010
0000
0000
0000
0201
0000
0000
0000
,
0300
0000
2010
0000
0000
0000
0000
0000
0000
3000
0002
0000
0013
0000
0002
0000
,
1003
0000
0000
0000
0001
0100
0010
1000
0100
0010
0001
1000
0010
0100
0010
0100
,
0001
1000
0200
0000
0000
0000
0000
0000
0300
0000
0010
0000
0110
0000
0000
0000
,
0000
0000
0002
0000
0000
0203
0320
2030
,
3002
0000
0043
0000
0000
0030
0400
0000
0000
0300
2000
0000
3002
0000
0203
0000
,
0302
0000
0043
0000
0000
0030
0400
0000
0000
0300
0020
0000
0032
0000
0203
0000
,
0320
0000
1030
0000
0000
0001
0000
0000
1000
0000
0000
0000
0010
0000
0000
0000
,
1010
0000
0001
0010
0001
1000
0010
1000
,
0100
0010
0001
0010
0100
1000
0001
0100
,
0001
1000
0100
1000
0010
0100
0001
0010
,
0001
0100
0010
0100
0001
0010
0100
0010
,
0100
0000
1000
0000
0001
0100
0001
0000
0010
0100
1000
0000
0100
0010
0001
0000
,
0100
0010
1000
0000
0001
1000
0001
0000
0010
0100
0010
0000
0100
1000
0100
0000
,
0010
0001
0010
0000
0001
0100
0010
0000
1000
0010
0100
0000
0010
1000
0100
0000
,
0010
0001
0100
0000
0001
0100
0001
1000
0100
1000
0010
0100
0001
0010
0001
1000
,
0010
0100
0110
0000
0010
1000
0001
0000
,
0100
0000
0110
0000
0000
0000
1000
0000
0001
1000
0000
0100
0010
0000
0001
0000
,
0010
0000
0000
0000
0400
0000
0000
0300
M010
0000
0001
0000
1000
0000
0010
0000
,
M100
0000
00M2
0000
0000
0000
0103
0000
0010
0100
0000
0001
0100
0000
0001
1000
,
0001
0000
0010
0000
0200
0000
0000
0300
1000
0000
0001
0000
0001
0000
0000
0000
,
0100
0000
0110
0000
0000
0010
0100
0000
0001
0000
0001
0000
1000
0100
0000
0000
,
1000
0010
0100
0010
1000
0100
0010
0100
,
1000
0000
0010
0000
0000
0100
0010
0000
1000
0000
0100
0000
1000
0001
1000
0000
,
0001
0000
0100
0000
0020
0000
0000
0030
1000
0000
0001
0000
1000
0000
0000
0000
,
1001
0000
1000
0000
0000
0001
0100
0000
0010
1000
0000
0001
0010
0000
0100
0000
,
0010
0001
1000
0100
0001
0100
1000
0010
,
0001
0000
0020
0000
0030
0000
0100
0000
0001
0100
0000
0010
0100
0000
0001
0010
,
0100
1000
0004
0000
0103
0010
0100
0000
,
0001
0000
0011
0000
0000
0000
1000
0010
0000
0100
0010
0000
1000
0000
1000
0000
,
0001
0010
0002
0000
0000
0003
0010
0100
,
0010
0000
0001
0000
0000
0100
0000
0000
0100
0000
0000
0000
0220
0000
0330
0000
,
2002
3MM3
1100
0000
0100
0210
0000
0000
,
0300
0012
0000
1003
1001
0001
1000
0100
,
0010
0100
1100
1000
0010
2010
0000
3100
,
0010
0001
1000
0010
0100
MMM1
0021
0000
,
0030
1002
0000
0003
1000
0002
0103
0020
,
1030
0200
0310
0000
0000
0001
1001
0000
,
1000
0000
0020
0000
0030
0000
0100
0000
0010
0000
0000
0010
0100
0000
0001
0010
,
0002
MMM3
1010
0000
1000
1200
0000
0000
,
0300
2001
0000
3010
0110
0000
1000
0001
,
0100
0010
0110
0100
0001
0011
0000
0010
,
0001
0000
1000
0000
0010
0000
0100
0010
0100
0000
M11M
0000
1002
0000
0003
0000
,
1000
0002
0000
0003
0010
0002
0103
0020
,
1030
0100
0020
0000
0000
0000
0000
0000
,
0031
0200
0000
0000
0000
0310
2000
0000
,
0000
3000
2002
0000
0000
0000
0000
0000
,
0000
0000
0000
3003
0000
0000
0000
0000
0000
0000
0000
0000
0000
0000
0000
0000
;

//---------------dance-single - ----------------
#NOTES:
     dance-single:
     :
     Medium:
     6:
     0.394446,0.518191,0.247364,0.755464,0.036770,413.000000,376.000000,37.000000,113.000000,51.000000,0.000000,0.394446,0.518191,0.247364,0.755464,0.036770,413.000000,376.000000,37.000000,113.000000,51.000000,0.000000:
0000
0000
0000
0000
,
0000
0000
0000
0000
,
0000
0000
0000
0000
,
0000
0000
0000
0000
,
0000
0000
1001
0000
0000
0110
0000
0000
,
0000
0000
M002
0000
0003
0000
M020
0000
0000
0000
0000
0030
0000
0000
0100
0000
,
1000
0000
0020
0000
0030
0000
0200
0000
0000
0000
0000
0300
0002
0000
0000
0000
,
0003
0020
0000
0000
0000
0000
0230
0000
,
0300
0000
000M
0000
0210
0000
0000
0000
0300
0000
1002
0000
0000
0003
0000
0000
,
0000
0000
0002
0000
0003
0000
2000
0000
0000
0000
0000
3000
0000
0000
0010
0000
,
0100
0000
0002
0000
0003
0000
2000
0000
0000
0000
0000
3000
0200
0000
0000
0000
,
0300
0012
0000
0000
0000
0003
2001
0000
,
3000
0010
1000
0000
0001
1000
0100
0000
,
0010
M002
0003
M200
0302
0000
0003
0010
,
0100
2000
3000
0200
0000
0310
0001
0000
,
1000
0020
0000
0000
0000
0030
0200
0000
,
0000
0300
0001
0000
1001
0001
2000
0000
,
3000
0002
0003
0020
0030
0000
0100
0020
,
0030
0002
0003
2000
3000
0000
0010
0100
,
0000
0020
0000
0000
0000
0030
2000
0000
,
0000
3000
2002
0000
3003
0000
0001
0000
,
1000
1100
0000
0001
,
0100
0101
0000
0100
,
0010
0110
0000
0001
,
0010
0000
0000
0000
0200
0000
0000
0000
1300
0000
0001
0000
0020
0000
0000
0030
,
0200
0000
0000
0300
0020
0000
0000
0030
0001
0000
1000
0000
0020
0000
0000
0030
,
0200
0000
0000
0300
0020
0000
0000
0030
1000
0000
0100
0000
0020
0000
0000
0030
,
0002
0000
0000
0003
0200
0000
0000
0300
0010
0000
0100
0000
0002
0000
0000
0003
,
2000
0000
0000
3000
0100
0000
0000
0000
1000
0000
0000
0000
0001
0000
0000
0000
,
0100
0001
0010
0100
,
1000
0002
0000
2003
,
0000
3100
1000
0001
,
0200
0000
0000
0000
0000
0300
0000
0000
000M
0000
M000
0000
001M
0000
0000
1000
0000
0000
0200
0000
0000
0000
0000
0000
,
0300
M020
M000
M000
M030
0001
0010
0100
,
0010
0001
M200
M000
M000
M310
2000
0000
,
3001
0200
M000
M000
M000
M300
1002
0000
,
0000
0000
0000
0003
0000
0000
0000
0000
1MM1
0000
0000
0000
0002
0000
0000
0003
,
0100
M020
M000
M000
M030
1000
0001
0100
,
1000
0100
00M2
00M0
00M0
00M3
0010
0100
,
0010
M200
M000
M000
M300
0010
M012
0M00
,
M000
0M03
0000
0002
0003
0100
0120
0000
,
0030
1002
0000
0000
0003
1000
0010
0100
,
0010
1000
0002
0000
0000
0003
0020
0000
,
0000
0000
0230
0000
0000
0000
0000
0000
0000
0000
0000
0300
2000
0000
0000
0000
,
0000
0000
0000
3000
0000
0000
0000
0000
0010
0000
0000
0000
1020
0000
0000
0000
,
0030
0000
0102
0000
0000
0000
0000
0000
0000
0003
0200
0000
0310
0000
2000
0000
,
3100
0010
0001
0010
,
0100
2000
0000
0000
3000
0010
0110
0000
,
0000
0000
0002
0000
0000
0013
0100
1000
,
0100
0010
0000
0001
0000
0100
0010
0100
,
0001
0010
0000
0100
0000
1000
0001
0100
,
0001
0000
1000
0000
0000
0100
0000
0000
1000
0000
0000
0000
0010
0000
0000
0000
,
0110
0001
0010
0001
,
0100
0010
0100
0001
,
0010
0100
1000
0010
,
0100
0001
1000
0100
,
0010
0000
0100
1000
0100
1000
0010
0100
,
0010
0100
0001
0010
0001
0010
0100
1000
,
0100
0010
0001
0100
0010
1000
0100
1000
,
0001
0100
0001
0010
0100
0010
0001
1000
,
0001
0100
0020
0030
0100
0002
0003
0000
,
0010
0000
0200
0000
0300
0000
1000
0000
0000
0001
0000
0000
0010
0000
0000
0000
,
0100
1000
0100
0000
M010
0001
1000
0010
,
M100
0000
00M2
0000
0000
0000
0103
0000
0000
0010
0000
0000
1000
0000
0000
0000
,
0100
0000
0010
0000
0200
0000
0000
0300
1000
0000
0001
0000
0001
0000
0000
0000
,
0100
0000
0010
0000
0000
0000
0100
0000
0000
0001
0000
0000
0010
0000
0000
0000
,
0100
0000
0010
0000
0001
0100
0010
1000
,
0001
0000
0010
0000
0000
0100
0000
0000
0010
0000
0000
0000
0001
0000
0000
0000
,
1001
0000
0000
0000
0002
0000
0000
0003
1000
0000
0100
0000
1000
0000
0000
0000
,
0001
0000
0100
0000
0000
0000
0001
0000
0000
0010
0000
0000
0001
0000
0100
0000
,
0010
1000
0002
0000
0013
0100
1000
0010
,
0100
0000
0002
0000
0003
0000
0010
0000
0000
0100
0000
0000
1000
0000
0000
0000
,
1010
0000
0002
0000
0103
0010
0100
0000
,
0001
0000
0020
0000
0000
0030
0001
0000
0000
0100
0000
0000
0010
0000
1000
0000
,
0001
0010
0002
0000
0000
0003
0100
0010
,
1000
0000
0100
0000
0000
0100
0000
0000
0100
0000
0000
0000
0220
0000
0330
0000
,
2002
3MM3
2200
0000
3300
0210
0000
0000
,
0300
0012
0000
0003
1001
0000
1000
0000
,
0010
0100
0001
1000
0000
2100
0000
3010
,
0100
0001
2000
0000
0000
3MMM
0022
0000
,
0033
1002
0000
0003
2000
3100
0000
0020
,
0031
0100
0001
0000
0000
1000
0001
0000
,
1000
0020
0030
0100
0010
0000
0100
0001
,
2000
3MMM
2200
0000
3300
0210
0000
0000
,
0300
2001
0000
3000
0120
0000
1030
0000
,
0100
0010
0001
0100
0001
0010
0000
0001
,
0010
0100
1000
0010
0100
M11M
1002
0003
,
1000
0002
0000
0003
0020
0031
0000
0200
,
0310
1000
0002
0000
0000
0000
0000
0000
,
0000
0023
0000
0000
0000
0000
0230
0000
,
0000
2300
0000
0000
,
0000
0000
0000
3000
0000
0000
0000
0000
0000
0000
0000
0000
0000
0000
0000
0000
;

//---------------dance-single - ----------------
#NOTES:
     dance-single:
     :
     Easy:
     4:
     0.267421,0.335300,0.040113,0.508099,0.000000,280.000000,274.000000,6.000000,76.000000,44.000000,0.000000,0.267421,0.335300,0.040113,0.508099,0.000000,280.000000,274.000000,6.000000,76.000000,44.000000,0.000000:
0000
0000
0000
0000
,
0000
0000
0000
0000
,
0000
0000
0000
0000
,
0000
0000
0000
0000
,
0000
0000
0001
0000
0000
1000
0000
0000
,
0000
0100
0000
0010
0000
0000
0000
0000
,
0000
0001
0000
0100
0000
0000
0010
0000
,
0000
1000
0000
0000
0000
0000
0200
0000
,
0300
000M
0010
0000
0000
0001
0000
0000
,
0000
0100
0000
0010
0000
0000
0000
0000
,
0000
1000
0000
0001
0000
0000
0010
0000
,
0000
0000
0002
0000
0000
0000
0000
0000
0000
0000
0000
0003
2000
0000
0000
0000
,
3000
0010
1000
0000
0001
0000
0010
0000
,
0100
0010
0001
0100
,
0010
1000
0100
0010
,
0100
1000
0010
1000
,
0001
0100
0001
0010
,
0100
0010
0001
0100
,
0010
1000
0100
0010
,
0001
1000
0001
2000
,
0000
3000
2002
0000
3003
0000
0001
0000
,
0010
0001
0000
1000
,
0010
1000
0000
0001
,
0100
0001
0000
1000
,
0100
2000
3001
0010
,
0100
0010
0001
0100
,
0010
1000
0100
1000
,
0001
0010
0001
1000
,
0010
0200
0300
0020
,
0030
2000
3000
0002
,
0003
0010
0100
0010
,
0001
2000
3000
0002
,
0000
0003
0000
0000
0010
0000
0200
0000
,
0300
M020
M000
M000
M030
0001
0010
0000
,
0001
0000
M200
M000
M000
M300
0020
0000
,
0030
0200
M000
M000
M000
M300
0002
0000
,
0000
0000
0000
0003
0000
0000
0000
0000
1MM0
0000
0000
0000
0002
0000
0000
0000
,
0003
M020
M000
M000
M030
0100
1000
0000
,
0001
0000
20M0
00M0
00M0
30M0
0010
0000
,
0000
M200
M000
M000
M300
0001
M020
0M00
,
M000
0M30
0000
0000
0000
0000
0220
0000
,
0330
2002
0000
0000
3003
1000
0010
0000
,
1000
0000
0002
0000
0000
0003
0020
0000
,
0000
0000
0230
0000
0000
0000
0000
0000
0000
0000
0000
0300
2000
0000
0000
0000
,
0000
0000
0000
3000
0000
0000
0000
0000
0010
0000
0000
0000
2000
0000
0000
0000
,
0000
3000
0002
0000
0000
0000
0000
0000
0000
0003
0200
0000
0000
0000
0300
0000
,
0020
2030
0000
3001
,
0100
0020
0000
0000
0030
0000
1001
0000
,
0000
0000
0002
0000
0000
0003
0100
0000
,
0010
0100
0000
0001
0000
1000
0100
0000
,
0010
0001
0000
0100
0000
0010
1000
0000
,
0100
0020
0000
0000
0000
0000
0031
0000
,
1001
0001
0000
1000
,
0000
0100
0000
0010
,
0000
0100
0000
0010
,
0000
0001
0000
0100
,
0000
0010
1000
0010
,
0100
0001
0010
0100
,
1000
0010
0100
0001
,
0010
0001
1000
0010
,
1000
0100
0010
0001
,
0100
0010
1000
0100
,
0010
0100
M010
0001
,
M100
00M2
0003
0000
0010
0000
0001
0000
,
0100
0002
0103
0010
,
1000
0200
0300
0000
0010
0000
0001
0000
,
1000
0010
0100
0010
,
1000
0002
0003
0000
0010
0000
0100
0000
,
0110
1000
0010
0100
,
0001
0200
0000
0300
0010
0000
1000
0000
,
0100
1000
0010
0100
,
0001
0200
0300
0000
0001
0000
1000
0000
,
0100
0010
0001
0100
,
0001
0020
0030
0000
0001
0000
0100
0000
,
0010
0000
2000
0000
0000
3000
0100
0000
,
1000
0200
0000
0300
1000
0000
0002
0003
,
2000
3MM0
0002
0000
0003
0200
0000
0000
,
0300
0002
0000
0003
0010
0000
0100
0000
,
0010
0000
0001
1000
0000
0200
0000
0300
,
0010
0000
0002
0000
0000
MMM3
0020
0000
,
0030
0002
0000
0003
0000
2000
0000
3000
,
0020
0130
0001
0010
,
0001
0020
0030
0000
0100
0000
1000
0000
,
2000
3MMM
0200
0000
0300
0020
0000
0000
,
0030
0002
0000
0003
0200
0000
0310
0000
,
1000
0000
0100
0000
1000
0020
0000
0030
,
0100
0001
0020
0000
0000
MM30
0002
0000
,
0003
2000
0000
3000
0000
0020
0000
0030
,
0200
0302
0000
0000
,
0000
0023
0000
0000
0000
0000
0230
0000
,
0000
2300
0000
0000
,
0000
0000
0000
3000
0000
0000
0000
0000
0000
0000
0000
0000
0000
0000
0000
0000
;

//---------------dance-single - ----------------
#NOTES:
     dance-single:
     :
     Beginner:
     2:
     0.176689,0.213519,0.026742,0.180509,0.000000,185.000000,181.000000,4.000000,27.000000,39.000000,0.000000,0.176689,0.213519,0.026742,0.180509,0.000000,185.000000,181.000000,4.000000,27.000000,39.000000,0.000000:
// measure 0
0000
0000
0000
0000
,  // measure 1
0000
0000
0000
0000
,  // measure 2
0000
0000
0000
0000
,  // measure 3
0000
0000
0000
0000
,  // measure 4
0000
0000
0001
0000
0000
1000
0000
0000
,  // measure 5
0000
0100
0000
0000
0000
0000
0000
0000
,  // measure 6
0000
0010
0000
0000
0000
0000
0000
0000
,  // measure 7
0000
1000
0000
0000
0000
0000
0200
0000
,  // measure 8
0300
000M
0010
0000
0000
0000
0000
0000
,  // measure 9
0000
0001
0000
0000
0000
0000
0000
0000
,  // measure 10
0000
1000
0000
0000
0000
0000
0010
0000
,  // measure 11
0000
0200
0000
0000
0000
0300
0010
0000
,  // measure 12
0000
1000
0000
0100
,  // measure 13
0000
0010
0000
0000
0000
0000
0001
0000
,  // measure 14
0000
1000
0000
0000
0000
0000
0010
0000
,  // measure 15
0000
0100
0000
0001
,  // measure 16
0000
0100
0000
0010
,  // measure 17
0000
1000
0000
0000
0000
0000
0100
0000
,  // measure 18
0000
1000
0000
0000
0000
0000
0001
0000
,  // measure 19
0000
0010
0000
0001
,  // measure 20
0000
1001
0000
1000
,  // measure 21
0000
0001
0000
0010
,  // measure 22
0000
0100
0000
0010
,  // measure 23
0000
0001
0000
1000
,  // measure 24
0000
0010
0000
1000
,  // measure 25
0000
0100
0000
1000
,  // measure 26
0000
0010
0000
0100
,  // measure 27
0000
0001
0000
1000
,  // measure 28
0000
0100
0000
0010
,  // measure 29
0000
0001
0000
1000
,  // measure 30
0000
0010
0000
0010
,  // measure 31
0000
0100
0000
0001
,  // measure 32
0000
0000
0000
0100
,  // measure 33
0000
M010
M000
M000
M000
0000
0100
0000
,  // measure 34
0000
0000
M001
M000
M000
M000
0010
0000
,  // measure 35
0000
0100
M000
M000
M000
M000
0010
0000
,  // measure 36
0000
0000
0001
0010
,  // measure 37
0000
M100
M000
M000
M000
0000
0010
0000
,  // measure 38
0000
0000
00M1
00M0
00M0
00M0
0100
0000
,  // measure 39
0000
M010
M000
M000
M000
0000
M100
M000
,  // measure 40
M000
M000
0001
0000
0000
0000
0110
0000
,  // measure 41
0000
0110
0000
0000
0000
0000
0001
0000
,  // measure 42
0000
1000
0000
0100
,  // measure 43
0000
1000
0000
0000
0000
0000
0001
0000
,  // measure 44
0000
0000
0100
0010
,  // measure 45
0000
1000
0000
0000
0000
0000
0100
0000
,  // measure 46
0010
0001
0000
1000
,  // measure 47
0000
0010
0000
0000
0000
0000
0100
0000
,  // measure 48
0000
0001
0000
0100
,  // measure 49
0000
0010
0000
0000
0000
0000
0100
0000
,  // measure 50
0000
0001
0000
0000
0000
0000
0010
0000
,  // measure 51
0000
0100
0000
0000
0000
0000
1000
0000
,  // measure 52
0001
1000
0000
0000
,  // measure 53
0000
0100
0000
0000
,  // measure 54
0000
0010
0000
0001
,  // measure 55
0000
1000
0000
0001
,  // measure 56
0000
0100
0000
0010
,  // measure 57
0000
1000
0000
0100
,  // measure 58
0000
1000
0000
0001
,  // measure 59
0000
0010
0000
0001
,  // measure 60
0000
0100
0000
0010
,  // measure 61
0000
1000
0000
0100
,  // measure 62
0000
0010
0000
0001
,  // measure 63
0000
1000
0000
0000
0000
0000
0100
0000
,  // measure 64
0010
0002
0003
0100
,  // measure 65
0000
0000
0010
1000
,  // measure 66
0100
0010
0000
0100
,  // measure 67
1000
0000
0010
0000
,  // measure 68
0110
0000
0010
0000
,  // measure 69
1000
0000
0100
0000
,  // measure 70
1000
0000
0001
0000
,  // measure 71
0100
0000
0001
0000
,  // measure 72
0010
0000
0001
0000
,  // measure 73
0100
0000
0001
0100
,  // measure 74
0010
0000
2000
0000
0000
3000
0100
0000
,  // measure 75
0000
1000
0000
0000
1000
0000
0002
0003
,  // measure 76
2000
3MM0
0002
0000
0003
0200
0000
0000
,  // measure 77
0300
0002
0000
0003
0010
0000
0100
0000
,  // measure 78
0000
0000
1000
0000
0000
0200
0000
0300
,  // measure 79
0010
0000
0002
0000
0000
MMM3
0020
0000
,  // measure 80
0030
0002
0000
0003
0000
2000
0000
3000
,  // measure 81
0020
0130
0000
0010
,  // measure 82
0000
1000
0000
0000
0100
0000
1000
0000
,  // measure 83
2000
3MMM
0200
0000
0300
0020
0000
0000
,  // measure 84
0030
0002
0000
0003
0200
0000
0310
0000
,  // measure 85
0000
0000
0100
0000
0000
0020
0000
0030
,  // measure 86
0100
0000
0002
0000
0000
MM03
0020
0000
,  // measure 87
0030
0200
0000
0000
0300
0020
0000
0030
,  // measure 88
0200
1300
0000
0000
,  // measure 89
0000
0010
0000
0000
0000
0000
0100
0000
,  // measure 90
0000
0002
0000
0000
,  // measure 91
0000
0003
0000
0000
;
