#VERSION:0.83;
#TITLE:Boulafacet;
#SUBTITLE:;
#ARTIST:Nightmare;
#TITLETRANSLIT:;
#SUBTITLETRANSLIT:;
#ARTISTTRANSLIT:;
#GENRE:Roxorcore;
#ORIGIN:;
#CREDIT:D. Nelson;
#BANNER:Boulafacet-bn.png;
#BACKGROUND:Boulafacet-bg.png;
#PREVIEWVID:;
#JACKET:;
#CDIMAGE:;
#DISCIMAGE:;
#LYRICSPATH:;
#CDTITLE:;
#MUSIC:boulafacet.ogg;
#OFFSET:0.698000;
#SAMPLESTART:23.275166;
#SAMPLELENGTH:22.584999;
#SELECTABLE:YES;
#DISPLAYBPM:170.000000:340.000000;
#BPMS:0.000=170.000,
12.000=340.000,
20.000=170.000,
28.000=340.000,
36.000=170.000,
52.000=340.000,
76.000=170.000,
80.000=340.000,
155.000=339.999,
156.000=340.000,
171.000=680.000,
173.000=340.000,
197.000=170.001,
200.000=340.000,
202.000=170.001,
205.000=340.000,
207.000=170.000,
209.000=340.000,
213.000=170.000,
235.000=340.000,
237.000=170.000,
257.000=340.000,
258.000=170.000,
275.000=340.000,
277.000=170.000,
285.000=340.000,
293.000=170.000,
301.000=340.000,
365.000=680.000,
373.000=340.000,
389.000=680.000,
397.000=340.000,
421.000=170.000,
423.000=340.000,
425.000=170.000,
427.000=340.000,
501.000=170.000;
#STOPS:12.000=0.088,
12.500=0.044,
12.750=0.044,
13.000=0.088,
13.500=0.044,
13.750=0.088,
14.250=0.044,
14.500=0.044,
14.750=0.044,
15.000=0.022,
15.125=0.022,
15.250=0.044,
15.500=0.044,
15.750=0.044,
16.000=0.088,
16.500=0.088,
17.000=0.022,
17.125=0.022,
17.250=0.044,
17.500=0.044,
17.750=0.088,
18.250=0.044,
18.500=0.044,
18.750=0.022,
18.875=0.022,
19.000=0.088,
19.500=0.088,
28.000=0.088,
28.500=0.029,
28.667=0.029,
28.833=0.029,
29.000=0.044,
29.250=0.044,
29.500=0.044,
29.750=0.088,
30.250=0.022,
30.375=0.022,
30.500=0.088,
31.000=0.044,
31.250=0.088,
31.750=0.088,
32.250=0.044,
32.500=0.029,
32.667=0.029,
32.833=0.029,
33.000=0.088,
33.500=0.088,
34.000=0.044,
34.250=0.044,
34.500=0.044,
34.750=0.044,
35.000=0.044,
35.250=0.044,
35.500=0.044,
35.750=0.044,
155.000=0.353,
170.000=0.176,
171.000=0.059,
171.667=0.059,
172.333=0.059,
235.000=0.044,
235.250=0.044,
235.500=0.044,
235.750=0.044,
236.000=0.044,
236.250=0.044,
236.500=0.044,
236.750=0.044,
257.000=0.044,
257.250=0.044,
257.500=0.044,
257.750=0.044,
275.000=0.044,
275.250=0.044,
275.500=0.044,
275.750=0.044,
276.000=0.044,
276.250=0.044,
276.500=0.044,
276.750=0.044,
285.000=0.088,
285.500=0.044,
285.750=0.088,
286.250=0.044,
286.500=0.132,
287.250=0.044,
287.500=0.044,
287.750=0.044,
288.000=0.022,
288.125=0.022,
288.250=0.044,
288.500=0.044,
288.750=0.044,
289.000=0.088,
289.500=0.088,
290.000=0.022,
290.125=0.022,
290.250=0.044,
290.500=0.044,
290.750=0.088,
291.250=0.044,
291.500=0.044,
291.750=0.022,
291.875=0.022,
292.000=0.088,
292.500=0.088,
301.000=0.088,
301.500=0.022,
301.625=0.022,
301.750=0.044,
302.000=0.044,
302.250=0.044,
302.500=0.044,
302.750=0.088,
303.250=0.022,
303.375=0.022,
303.500=0.088,
304.000=0.044,
304.250=0.088,
304.750=0.088,
305.250=0.044,
305.500=0.022,
305.625=0.022,
305.750=0.044,
306.000=0.088,
306.500=0.088,
307.000=0.044,
307.250=0.044,
307.500=0.044,
307.750=0.044,
308.000=0.044,
308.250=0.044,
308.500=0.044,
308.750=0.044,
365.000=0.059,
365.667=0.059,
366.333=0.059,
367.000=0.059,
367.667=0.059,
368.333=0.059,
369.000=0.059,
369.667=0.059,
370.333=0.059,
371.000=0.059,
371.667=0.059,
372.333=0.059,
389.000=0.044,
389.500=0.044,
390.000=0.044,
390.500=0.044,
391.000=0.044,
391.500=0.044,
392.000=0.044,
392.500=0.044,
393.000=0.044,
393.500=0.044,
394.000=0.044,
394.500=0.044,
395.000=0.044,
395.500=0.044,
396.000=0.044,
396.500=0.044;
#DELAYS:;
#WARPS:;
#TIMESIGNATURES:0.000=4=4;
#TICKCOUNTS:0.000=4;
#COMBOS:0.000=1;
#SPEEDS:0.000=1.000=0.000=0;
#SCROLLS:0.000=1.000;
#FAKES:;
#LABELS:0.000=Song Start;
#LASTSECONDHINT:118.611794;
#BGCHANGES:;
#KEYSOUNDS:;
#ATTACKS:
;

//---------------dance-single - ----------------
#NOTEDATA:;
#CHARTNAME:;
#STEPSTYPE:dance-single;
#DESCRIPTION:;
#CHARTSTYLE:;
#DIFFICULTY:Challenge;
#METER:14;
#RADARVALUES:1.144176,1.741569,0.401298,0.434739,0.836037,958.000000,910.000000,48.000000,52.000000,138.000000,0.000000,3.000000,0.000000,0.000000,1.144176,1.741569,0.401298,0.434739,0.836037,958.000000,910.000000,48.000000,52.000000,138.000000,0.000000,3.000000,0.000000,0.000000;
#CREDIT:;
#DISPLAYBPM:170.000000:340.000000;
#NOTES:
// measure 0
0000
0000
0000
0000
,  // measure 1
2002
3003
0000
0000
0M00
0000
00M0
0000
M000
0000
000M
0000
0000
0000
0M00
0000
,  // measure 2
0000
0000
0000
0000
000M
0000
0000
0000
00M0
0M00
00M0
0M00
00M0
0000
0000
0000
MMMM
0000
0000
0000
0000
0000
MMMM
0000
0000
0000
0000
0000
0000
0000
0000
0000
,  // measure 3
2200
0000
3300
0000
1000
0000
0001
0000
0100
0000
0000
0000
0010
0000
0100
0000
0000
0000
0001
0000
0100
0000
0010
0000
1000
0001
1000
0000
0001
0000
0100
0000
,  // measure 4
0010
0000
0000
0000
0100
0000
0000
0000
0010
0100
0010
0000
0100
0000
0001
0000
0000
0000
1000
0000
0010
0000
0100
0001
0100
0000
0000
0000
0010
0000
0000
0000
,  // measure 5
2020
0000
3030
0000
0000
0000
0000
0000
M000
0000
0000
0000
000M
M000
000M
M000
000M
0000
0000
0000
00M0
0000
0000
0000
0000
0000
0000
0000
0M00
0000
0000
0000
,  // measure 6
M000
000M
0M00
0000
MMMM
0000
MMMM
0000
,  // measure 7
0202
0000
0000
0000
0000
0000
0000
0000
0000
0000
0000
0000
0303
0000
0000
0000
0000
0000
0000
0000
0000
0000
0000
0000
0001
0000
0000
0000
0000
0000
0000
0000
1000
0000
0000
0000
0000
0000
0000
0000
0100
0000
0000
0000
0000
0000
0000
0000
1000
0000
0000
0000
0000
0000
0000
0000
0000
0000
0000
0000
0100
0000
0000
0000
0000
0000
0000
0000
0000
0000
0000
0000
0010
0000
0000
0000
0000
0000
0000
0000
0000
0000
0000
0000
0001
0000
0000
0000
0000
0000
0000
0000
0000
0000
0000
0000
0000
0000
0000
0000
0000
0000
0000
0000
0000
0000
0000
0000
0010
0000
0000
0000
0000
0000
0001
0000
0000
0000
0000
0000
0010
0000
0000
0000
0000
0000
0000
0000
0000
0000
0000
0000
0000
0000
0000
0000
0000
0000
0000
0000
0000
0000
0000
0000
0001
0000
0000
0000
0000
0000
0000
0000
0000
0000
0000
0000
1000
0000
0000
0000
0000
0000
0000
0000
0000
0000
0000
0000
0000
0000
0000
0000
0000
0000
0000
0000
0000
0000
0000
0000
0100
0000
0000
0000
0000
0000
0000
0000
0000
0000
0000
0000
,  // measure 8
0000
0000
0000
1000
0000
0000
0001
0000
0010
0000
0001
0000
0100
0000
0000
0000
0000
0000
0010
0000
0000
0000
0000
0000
1000
0000
0000
0010
0000
0000
1000
0000
0000
0001
0000
0000
0010
0000
0000
0100
0000
0000
1000
0000
0000
0001
0000
0000
,  // measure 9
1000
0000
0010
0100
0001
0100
0010
0000
1000
0100
1000
0100
0010
0000
0001
0010
,  // measure 10
0100
0000
0010
0000
0000
0000
0100
0000
0010
0000
0000
0000
0100
0000
0010
0000
0001
0000
0010
0000
0000
0000
0100
0000
0000
0000
1000
0000
0001
0010
0001
0000
,  // measure 11
0100
0001
0010
0100
1000
0100
0010
0001
0010
0001
0100
0010
1000
0100
1000
0100
,  // measure 12
0010
0000
0001
0000
0010
0000
0100
0000
1000
0000
0010
0000
0100
0000
0001
0000
0010
0000
0100
0000
1000
0000
0010
0000
0200
0000
0000
0000
0000
0000
0000
0300
,  // measure 13
1001
0000
0001
0000
1010
0000
0010
0100
,  // measure 14
0001
1000
0010
0000
1010
0000
1000
0100
,  // measure 15
0010
0001
0010
0000
1001
0000
0100
0010
,  // measure 16
1000
0100
0010
0100
1000
0001
1000
0010
,  // measure 17
0100
0001
0010
0000
1001
0000
0100
1000
,  // measure 18
0001
0000
0000
0100
0000
0000
0010
0000
0000
0000
0000
0000
0110
0000
0000
0000
0000
0000
0001
0000
1000
0000
0010
0000
,  // measure 19
0200
0000
0010
0010
0310
1000
0001
0100
,  // measure 20
0220
0000
0330
0000
0101
0000
0000
1010
,  // measure 21
0000
0101
0000
0000
0011
0000
0001
0010
,  // measure 22
0100
0000
1000
0100
1000
0001
0000
1001
,  // measure 23
0000
0000
0001
0010
0001
0000
0000
0000
0010
0000
0001
0000
1000
0000
0010
0000
,  // measure 24
0100
0000
0000
0000
0000
0000
0010
0000
0000
0100
0000
0000
0000
0000
0000
0010
0000
0000
1000
0000
0010
0000
0100
0000
,  // measure 25
M002
M003
MM22
MM33
,  // measure 26
1000
2MM2
3MM3
0100
,  // measure 27
0120
0000
0000
MM0M
0000
0000
0130
0010
1000
0001
0100
0010
,  // measure 28
1000
0000
0010
0100
0000
0001
0010
0000
,  // measure 29
0100
1000
0000
0010
1000
0000
0001
0100
,  // measure 30
0000
0010
0100
0000
0001
1000
0000
0100
,  // measure 31
0010
0000
0001
0010
0000
0100
1000
0000
,  // measure 32
0001
0100
0000
0010
1M00
0000
0001
10M0
,  // measure 33
0000
0100
M010
0000
0001
M010
0000
0100
,  // measure 34
1000
0100
1000
0001
1000
0010
0100
0001
,  // measure 35
0100
0000
0000
0010
0000
0000
1000
0000
0000
0001
0000
0000
2M01
0000
00M0
0000
0M00
0000
000M
00M0
0M00
0000
000M
0000
,  // measure 36
3010
0000
1000
0100
0010
0000
0001
0100
,  // measure 37
0010
0000
2000
0000
0000
3010
0000
0100
,  // measure 38
0101
0000
0000
0000
0000
0000
0110
0000
0000
0000
0000
0000
1M2M
0000
MM3M
00M0
,  // measure 39
1000
0010
0100
0001
0010
0000
0001
0000
,  // measure 40
0011
0000
0000
0010
0100
0000
0010
0000
,  // measure 41
0001
0010
0000
0001
1000
0000
0010
1000
,  // measure 42
0000
0000
0000
0001
0000
0000
1000
0000
0000
0000
0000
0000
1MM2
0000
0000
0003
0000
0000
M1MM
0000
0000
0000
MM1M
0000
,  // measure 43
0000
0000
1MMM
0000
0000
0000
MMM1
0000
0000
0000
0000
0000
1000
0000
0000
0001
0000
0000
0100
0000
0000
0000
0000
0000
,  // measure 44
0010
1000
0001
0010
0100
1000
0010
0100
,  // measure 45
0001
0010
0100
M010
0000
0001
M010
0000
,  // measure 46
0001
0000
0000
M010
0000
0000
0100
0000
0000
0000
0000
0000
0010
0000
0000
0000
0000
0000
0001
0000
0010
0000
0001
0000
,  // measure 47
1000
0010
0100
0001
0000
0000
0010
0000
0000
0001
0010
0001
,  // measure 48
1000
0010
0000
0100
0001
0100
0010
0000
,  // measure 49
1000
0000
2002
0M00
00M0
0M00
00M0
3M03
,  // measure 50
01M0
0000
0010
1000
0002
0M00
00M0
M000
,  // measure 51
00M0
0000
0M00
0000
10M3
0000
0001
1000
0001
0000
0100
0000
0020
0000
000M
0000
,  // measure 52
0M00
000M
M130
0000
0010
0100
0000
0001
,  // measure 53
1000
0010
2000
0000
3001
0000
0001
0010
,  // measure 54
0100
1000
1001
0000
1010
0000
0101
0010
,  // measure 55
0100
0010
2000
0000
3010
1000
0001
1000
,  // measure 56
0010
0000
1000
0000
0100
0000
0010
0000
0001
0000
1000
0000
0001
0100
0010
1000
,  // measure 57
0010
0100
0001
1000
0200
0000
0000
0000
1300
0000
0000
0000
1000
0000
0010
0000
,  // measure 58
1000
0000
0000
0000
0000
0000
0100
0000
1000
0000
0100
0000
1000
0000
0000
0000
0000
0000
0100
0000
0000
0000
0000
0000
0010
0000
0000
0000
0000
0000
0001
0000
0000
0000
0000
0000
0100
0000
0000
0010
0000
0000
1000
0000
0000
0001
0000
0000
,  // measure 59
1000
0010
0100
0001
0020
0000
0000
0000
0000
0000
0100
0000
0100
0000
0000
0000
,  // measure 60
0000
0100
0031
0000
0011
0000
0101
0000
,  // measure 61
1001
0000
0002
0023
0230
2300
3020
0230
,  // measure 62
0302
0000
0023
0000
0230
0000
1300
0000
0100
0000
0010
0001
0010
0100
1000
0000
,  // measure 63
0001
0010
0110
0110
0110
0110
0010
1002
,  // measure 64
M000
0000
1003
0000
0001
0100
0010
1000
0100
0000
0010
0000
0001
0000
0100
0000
,  // measure 65
0010
0000
1000
0000
0001
0000
0100
0000
0000
0000
0001
0100
0010
0000
0100
0000
,  // measure 66
0010
0000
0100
0000
0001
0000
1000
0000
0010
0000
0000
0000
0100
0000
0000
0000
0001
0000
0000
0000
1000
0000
0000
0000
0004
4000
0000
0000
0000
0000
0000
0000
,  // measure 67
0000
0000
0000
0000
0000
0000
0003
3000
0001
0000
1000
0000
0010
0000
0100
0000
0001
0000
0100
0000
0010
0000
1000
0000
0100
0000
1000
0000
0001
0000
0010
0000
,  // measure 68
0001
1000
0100
0010
0001
0000
0000
0000
1000
0000
0000
0000
0001
0100
0010
1000
,  // measure 69
0100
0010
0100
1000
0002
0000
0010
0000
0100
0000
1000
0000
0023
0000
0100
0000
,  // measure 70
0001
0100
0230
1000
0001
0010
2300
0010
,  // measure 71
0001
0000
0100
0000
3010
0000
0100
0010
0000
1000
0001
0000
0000
0100
0010
1000
,  // measure 72
0010
1000
0010
0000
0100
0000
0010
0000
1000
0000
0000
0000
0001
0000
0000
0000
0100
0010
0100
0000
0010
0000
1000
0000
0000
0000
0100
0000
0010
0000
0001
0010
,  // measure 73
0001
0010
2100
0010
0001
3100
0012
0010
,  // measure 74
1000
0103
0120
1000
0001
0130
0102
1000
,  // measure 75
0010
0000
0000
0000
0103
0000
0000
0000
1000
0000
0000
0000
0010
1000
0010
0000
1000
0000
0001
0000
0100
0000
0001
0000
0000
0000
0010
0001
0010
0000
0000
0000
,  // measure 76
0100
0000
0010
0000
0000
0000
0001
0000
0000
0000
1000
0000
0100
1000
0100
0000
1000
0000
0000
0000
0001
0000
0000
0000
1000
0000
0010
0000
0100
0000
0001
0000
,  // measure 77
0100
0010
1000
0001
0010
0000
0000
0000
0110
0000
0000
0000
0011
0000
0000
0000
,  // measure 78
0010
0100
1000
0001
0000
0100
0010
0000
,  // measure 79
1000
0000
0000
0100
0000
0000
0010
0000
0000
0000
0000
0000
0001
0000
0010
0000
0100
0000
1000
0000
0000
0000
0000
0000
,  // measure 80
0002
0000
0000
1003
0000
0000
0100
1000
0010
0100
0001
1000
,  // measure 81
0100
0000
0010
0000
0001
0000
1000
0000
0000
0100
0000
0000
0010
0000
0000
0100
0000
0000
0010
0000
0000
0000
0001
0000
,  // measure 82
0000
0000
0000
0000
1000
0000
0000
0000
0000
0000
0000
0000
0010
0000
0000
0000
0000
0000
0000
0000
0000
0000
0000
0000
0100
0000
0000
0000
0000
0000
0000
0000
0000
0000
0000
0000
0000
0000
0000
0000
0000
0000
0001
0000
0000
1000
0000
0000
,  // measure 83
0001
1000
0010
1000
0010
0000
0000
0000
0100
0000
0001
0000
0010
0000
0000
0000
,  // measure 84
0100
0000
4000
0000
0000
0000
3001
0000
0010
0001
0010
0000
0001
0000
0010
0000
,  // measure 85
0100
0000
1000
0100
0010
0001
0100
0010
,  // measure 86
1000
0001
0010
0100
1000
0000
MMMM
0000
,  // measure 87
1001
MMMM
0101
1010
,  // measure 88
MMMM
0000
0000
0000
1100
0000
0000
MMMM
0000
0000
0011
0000
0000
MMMM
0000
0000
,  // measure 89
0100
0000
0000
1000
0000
0000
0100
0000
0000
1000
0000
0000
0010
0000
0000
0000
0100
0000
0000
0000
0001
0000
0000
0000
0100
0000
0000
0000
0000
0000
0010
0000
0000
0000
0000
0000
1000
0000
0000
0000
0000
0000
0001
0000
0000
0000
0000
0000
,  // measure 90
1000
0000
0000
0100
0000
0000
0010
0000
0000
0001
0000
0000
1000
0000
0000
0100
0000
0000
1000
0000
0100
0000
0010
0000
,  // measure 91
0100
0000
0000
1000
0000
0000
0100
0000
0000
0000
0010
0000
0000
0000
0001
0000
0000
0000
0100
0000
0000
0000
0010
0000
,  // measure 92
0000
1000
0000
0001
0000
1000
0000
0100
0000
0010
0000
0001
,  // measure 93
0000
0100
0000
0010
0000
0000
1000
0000
0000
0001
0010
0100
,  // measure 94
0010
0000
0001
0000
0100
0000
0010
0000
0000
1000
0000
0000
0200
0000
0000
0000
0000
0000
0310
0000
0000
0001
0000
0000
,  // measure 95
0200
0000
0000
0000
0000
0000
0310
0000
0000
1000
0000
0000
0100
0000
0000
0010
0000
0000
0001
0000
0010
0000
0100
0000
,  // measure 96
1000
0000
0000
0000
0000
0000
0000
0000
0000
0000
0000
0000
0001
0000
0000
0000
0000
0000
0000
0000
0000
0000
0000
0000
1M00
0000
0000
000M
0010
0000
0M00
0000
1000
000M
0000
0000
0M10
0000
0000
000M
1000
0000
0M00
0000
0010
000M
0000
0000
,  // measure 97
1000
0000
1000
0010
0100
0001
0010
0100
,  // measure 98
1000
0001
1000
0010
0100
0001
0100
0010
,  // measure 99
1000
0001
0010
0000
0100
1000
0010
0000
,  // measure 100
0100
0001
1000
0010
0100
0001
1000
0100
,  // measure 101
1000
0010
0100
0000
0010
1000
0000
0100
,  // measure 102
0010
0000
0001
0000
0010
0100
0000
1000
,  // measure 103
0100
0010
0001
0000
0100
0010
0000
1000
,  // measure 104
0100
0000
1000
0000
0100
0000
0010
0000
0000
0000
0000
0000
0001
0000
0000
0010
0000
0000
0000
0000
0000
0100
0000
0000
,  // measure 105
1000
0000
0001
0000
0100
0000
M001
0000
0010
0000
0100
0000
1000
0000
0001
0000
0100
0000
M010
0000
0000
0100
0000
0000
,  // measure 106
0001
0000
0000
1000
0000
0000
001M
0000
0100
0000
0001
0000
1000
0000
0010
0000
1000
0000
010M
0000
0000
1000
0000
0000
,  // measure 107
0001
1000
0010
0100
0001
0100
0010
1000
,  // measure 108
0001
1000
010M
0010
0001
0010
0100
1000
,  // measure 109
0010
1000
0010
0100
0001
0100
0010
1000
,  // measure 110
0100
1000
010M
0010
0001
0010
0100
1000
,  // measure 111
0010
1000
0001
0100
0010
1000
0010
0100
,  // measure 112
0001
1000
0100
0010
0001
1000
0010
1000
,  // measure 113
0100
1000
0010
0100
0001
1000
0010
0100
,  // measure 114
0010
1000
010M
0010
0001
0010
0100
1000
,  // measure 115
0100
0010
0001
0100
0010
1000
0010
0100
,  // measure 116
0001
1000
010M
0010
0001
0010
0100
1000
,  // measure 117
0001
1000
0010
0100
0001
0100
0010
1000
,  // measure 118
0100
0010
0100
1000
0001
0010
0100
1000
,  // measure 119
0001
1000
0010
1000
0100
0010
0001
0100
,  // measure 120
0010
0100
0001
1000
0010
1000
0100
1000
,  // measure 121
0001
0010
0100
1000
0001
0100
0010
1000
,  // measure 122
0001
1000
0010
0100
0001
1000
0010
0100
,  // measure 123
0010
1000
0001
1000
0010
0100
0001
0100
,  // measure 124
0010
1000
0100
1000
0001
0010
0100
1000
,  // measure 125
0001
1000
0020
0000
0000
0000
0000
0000
,  // measure 126
0000
0030
0000
0000
;

//---------------dance-single - ----------------
#NOTEDATA:;
#CHARTNAME:;
#STEPSTYPE:dance-single;
#DESCRIPTION:;
#CHARTSTYLE:;
#DIFFICULTY:Easy;
#METER:7;
#RADARVALUES:0.380994,0.575925,0.100324,0.250811,0.000000,319.000000,307.000000,12.000000,30.000000,0.000000,0.000000,0.000000,0.000000,0.000000,0.380994,0.575925,0.100324,0.250811,0.000000,319.000000,307.000000,12.000000,30.000000,0.000000,0.000000,0.000000,0.000000,0.000000;
#CREDIT:;
#DISPLAYBPM:170.000000:340.000000;
#NOTES:
// measure 0
0000
0000
0000
0000
,  // measure 1
1010
0000
0000
0000
,  // measure 2
0000
0000
0000
0000
,  // measure 3
0202
0000
0000
0000
,  // measure 4
0000
0000
0000
0000
0000
0000
0000
0303
,  // measure 5
1001
0000
0000
0000
,  // measure 6
0000
0000
0000
0000
,  // measure 7
2200
0000
0000
0000
,  // measure 8
0000
0000
0000
0000
0000
0000
0000
3300
,  // measure 9
0010
0000
0000
0001
0000
0000
1000
0000
,  // measure 10
0000
0010
1000
0001
,  // measure 11
0100
0000
0000
0001
0000
0000
0010
0000
,  // measure 12
0000
0100
0010
0110
,  // measure 13
0100
0000
0010
0000
,  // measure 14
0001
1000
0010
0000
,  // measure 15
0100
0000
0010
1000
,  // measure 16
0001
1000
0001
1000
,  // measure 17
0001
0000
0100
0000
,  // measure 18
0010
1000
0010
0100
,  // measure 19
0002
0000
0000
1000
0000
0000
1003
0000
,  // measure 20
1000
0000
0001
0000
,  // measure 21
0100
0001
1000
0000
,  // measure 22
0100
0000
0000
0000
0010
0000
0000
0100
,  // measure 23
0000
0010
0001
0000
,  // measure 24
1000
0000
0000
0010
0000
0000
0100
0000
,  // measure 25
0010
0000
1000
0000
,  // measure 26
0001
0001
0000
1000
,  // measure 27
1000
0000
2002
3003
,  // measure 28
0001
0000
0000
1000
0000
0000
0010
0000
,  // measure 29
0000
0100
0000
0000
0001
0000
0000
1000
,  // measure 30
0000
0000
0100
0000
0000
0010
0000
0000
,  // measure 31
0001
0000
0000
1000
0000
0000
0020
0000
,  // measure 32
0000
0030
0200
0000
,  // measure 33
0300
0002
0000
0003
,  // measure 34
1000
0100
1000
0100
,  // measure 35
1000
0100
0010
0000
,  // measure 36
0001
0000
0011
0000
,  // measure 37
0010
0001
0000
1000
,  // measure 38
0001
0000
0000
1000
0000
0000
2002
0000
,  // measure 39
3003
0000
0100
0000
,  // measure 40
0010
0000
1000
0001
,  // measure 41
0100
0000
0001
0000
0010
0000
0000
0100
,  // measure 42
0000
0010
0200
0000
,  // measure 43
0000
0300
0010
0000
0000
0000
0001
0000
,  // measure 44
0000
1000
0010
0100
,  // measure 45
0010
0000
0000
1000
0000
0000
0001
0000
,  // measure 46
0000
0100
0000
0000
0001
0000
1000
0000
,  // measure 47
0000
0100
0000
1000
,  // measure 48
0010
0100
0010
1000
,  // measure 49
0001
0200
0000
0000
,  // measure 50
0301
0000
0002
0000
,  // measure 51
0000
1003
0000
2000
,  // measure 52
0000
3200
0000
0000
,  // measure 53
0000
0310
0000
0001
,  // measure 54
0000
1000
0010
0100
,  // measure 55
0001
1000
0000
0100
,  // measure 56
0000
0000
0010
0000
0001
0000
0100
0001
,  // measure 57
0100
0001
0100
0000
0000
0000
0010
0000
,  // measure 58
0000
0000
1000
0100
0000
0000
2000
0000
,  // measure 59
0000
3100
0000
1000
,  // measure 60
0000
0100
1000
0010
,  // measure 61
0100
0000
0001
0000
0000
0010
0000
0000
,  // measure 62
0001
0000
0000
1000
0000
0000
0010
0000
,  // measure 63
0100
0000
0001
0000
1000
0001
0000
0100
,  // measure 64
0000
0000
0020
0000
0000
0030
1000
0000
,  // measure 65
0001
0100
0001
0010
,  // measure 66
0100
1000
0100
0020
,  // measure 67
0000
0000
0031
0010
0001
0010
0001
0000
,  // measure 68
0010
0100
1000
2002
,  // measure 69
0000
3003
1000
0000
0000
0000
0010
0000
,  // measure 70
0000
0100
0000
0001
,  // measure 71
0000
2002
0000
0000
,  // measure 72
0000
0000
0000
0000
,  // measure 73
0000
3003
0100
0000
0000
0000
0010
0000
,  // measure 74
0000
1000
0000
0100
,  // measure 75
0000
0220
0000
0000
,  // measure 76
0000
0000
0000
0000
,  // measure 77
0000
0330
0010
0000
0000
0000
0001
0000
,  // measure 78
0000
1000
0000
0010
,  // measure 79
0000
0100
0000
0010
,  // measure 80
0000
1000
0001
0000
,  // measure 81
0100
0001
0000
1000
,  // measure 82
0000
0100
0100
0000
,  // measure 83
1000
0100
0000
0010
,  // measure 84
0000
0001
1000
0010
,  // measure 85
0000
1000
0000
0010
,  // measure 86
0000
0100
0010
0000
,  // measure 87
1000
0000
0001
0100
,  // measure 88
0000
0000
0001
0000
0000
1000
0000
0000
,  // measure 89
0001
1000
0010
0100
,  // measure 90
0010
1000
0001
0010
,  // measure 91
0100
0220
0000
0000
,  // measure 92
0000
0000
0000
0000
,  // measure 93
0000
0030
0310
0000
0000
0000
0001
0000
,  // measure 94
0000
1000
0010
0100
,  // measure 95
0010
1000
0001
0100
,  // measure 96
0001
1000
0002
0000
,  // measure 97
1003
0001
0001
0001
,  // measure 98
0001
0001
0001
0001
,  // measure 99
0001
1000
0010
0100
,  // measure 100
0000
0010
1000
0001
,  // measure 101
0100
0000
0001
0000
0000
0010
0000
0000
,  // measure 102
0100
0000
1000
0000
0000
0100
0000
0000
,  // measure 103
0010
0000
0001
0000
0000
1000
0000
0000
,  // measure 104
0010
0000
0100
0000
0000
0001
0000
0000
,  // measure 105
1000
0100
0010
0002
,  // measure 106
0000
1003
0010
0100
,  // measure 107
0010
1000
0001
0100
,  // measure 108
0001
1000
0000
0010
,  // measure 109
0000
0100
0000
0001
,  // measure 110
0000
0010
0000
0100
,  // measure 111
0000
0010
0000
0001
,  // measure 112
0000
1000
0000
0010
,  // measure 113
0000
0100
0000
0001
,  // measure 114
0000
1000
0000
0100
,  // measure 115
0000
0010
0000
0001
,  // measure 116
0000
1000
0000
0010
,  // measure 117
0000
0100
0000
0001
,  // measure 118
0000
1000
0000
0100
,  // measure 119
0000
0010
0000
0001
,  // measure 120
0000
0100
0000
0010
,  // measure 121
0000
1000
0000
0100
,  // measure 122
0000
1000
0000
0001
,  // measure 123
0000
0100
0000
0010
,  // measure 124
0000
1000
0000
0001
,  // measure 125
0000
1000
0000
0000
;

//---------------dance-single - ----------------
#NOTEDATA:;
#CHARTNAME:;
#STEPSTYPE:dance-single;
#DESCRIPTION:;
#CHARTSTYLE:;
#DIFFICULTY:Medium;
#METER:9;
#RADARVALUES:0.630610,0.890065,0.351135,0.234090,0.075243,528.000000,486.000000,42.000000,28.000000,0.000000,0.000000,4.000000,0.000000,0.000000,0.630610,0.890065,0.351135,0.234090,0.075243,528.000000,486.000000,42.000000,28.000000,0.000000,0.000000,4.000000,0.000000,0.000000;
#CREDIT:;
#DISPLAYBPM:170.000000:340.000000;
#NOTES:
// measure 0
0000
0000
0000
0000
,  // measure 1
0110
0000
0000
0000
,  // measure 2
0000
0000
0000
0000
,  // measure 3
4200
0000
0000
0000
,  // measure 4
0000
0000
0000
3300
,  // measure 5
1001
0000
0000
0000
,  // measure 6
0000
0000
0000
0000
,  // measure 7
0204
0000
0000
0000
,  // measure 8
0000
0000
0000
0000
0000
0000
0000
0303
,  // measure 9
1000
0000
0010
0100
0000
0001
1000
0000
,  // measure 10
0100
0010
0001
1000
0010
0100
0001
1000
,  // measure 11
0100
0000
1000
0100
0000
0010
0001
0000
,  // measure 12
0010
0001
1000
0010
0100
0010
0200
0000
,  // measure 13
0310
0000
1000
0000
0010
0000
0100
0001
,  // measure 14
0100
0001
1000
0000
,  // measure 15
0100
0000
0010
0000
0001
0000
1000
0001
,  // measure 16
1000
0001
1000
0001
1000
0001
1000
0001
,  // measure 17
0100
0000
0010
0000
1000
0000
0010
1000
,  // measure 18
0010
0100
0001
0000
,  // measure 19
1002
0000
1000
1000
1000
1000
1000
1003
,  // measure 20
1000
0000
0000
0000
0010
0000
0000
0100
,  // measure 21
0000
0010
0000
0000
1000
0000
0001
0100
,  // measure 22
0001
0000
1000
0000
0100
0010
0000
0100
,  // measure 23
0000
0010
0001
0000
,  // measure 24
1000
0000
0000
0001
0000
0000
0100
0000
,  // measure 25
0010
0000
1010
0000
,  // measure 26
1000
1001
0000
0001
,  // measure 27
0101
0000
0000
0000
1000
0001
1000
0001
,  // measure 28
1000
0000
0000
0101
0000
0000
0010
0000
,  // measure 29
0000
1010
0000
0000
1000
0000
0000
1001
,  // measure 30
0000
0000
0001
0000
0000
0101
0000
0000
,  // measure 31
1000
0000
0000
1010
0000
0000
0100
0000
,  // measure 32
0000
0001
0000
0000
1000
0000
0000
0100
,  // measure 33
0000
0000
0010
0000
0000
0001
0000
0000
,  // measure 34
1000
0001
1000
0000
0001
1000
0001
0000
,  // measure 35
0100
0001
0100
0000
0020
0000
0000
0000
,  // measure 36
0130
0000
0000
0000
1010
0000
0000
1000
,  // measure 37
0001
0000
0100
0000
0000
0001
0000
0010
,  // measure 38
0100
0000
0000
0010
0000
0000
0110
0000
,  // measure 39
0020
0000
0031
0000
,  // measure 40
1000
0000
0000
0010
0100
0000
0010
0000
,  // measure 41
1000
0001
0000
0100
0001
0000
0000
1000
,  // measure 42
0000
0100
0110
0020
,  // measure 43
0000
0130
0000
1000
,  // measure 44
0001
0100
0010
1000
,  // measure 45
0010
0000
0000
0110
0000
0000
1001
0000
,  // measure 46
0000
0101
0000
0000
0010
0000
0100
0010
,  // measure 47
0100
0010
0100
0000
0010
0000
0001
1000
,  // measure 48
0001
1000
0000
0001
0100
0010
1000
0000
,  // measure 49
0010
2000
0000
0000
,  // measure 50
3001
0000
2002
0000
,  // measure 51
0000
3003
0100
0000
0010
0000
0200
0000
,  // measure 52
0000
0000
0310
0000
0000
1000
0000
0000
,  // measure 53
0001
0000
0200
0000
0301
0000
1000
0001
,  // measure 54
0010
0100
1000
0000
1100
0000
0100
1000
,  // measure 55
0010
0100
0010
0000
0110
0000
0010
1000
,  // measure 56
0001
0100
0001
0010
0100
1000
0001
0001
,  // measure 57
0001
0001
1000
0000
0010
0000
0100
0010
,  // measure 58
1000
0001
0100
0001
0000
1000
2002
0000
,  // measure 59
0000
3003
0100
0000
0000
0010
1000
0000
,  // measure 60
0000
0100
0010
0000
0011
0000
0101
0000
,  // measure 61
0110
0000
0010
1000
0100
0010
0100
1000
,  // measure 62
0010
1000
0100
0010
0100
1000
0010
1000
,  // measure 63
0001
0100
0001
0001
0001
0100
0000
0001
,  // measure 64
0000
1000
0001
1000
0001
0100
0010
0000
,  // measure 65
1000
0000
0100
0010
0000
0001
1000
0010
,  // measure 66
0100
0010
1000
0001
0000
0100
0202
0000
,  // measure 67
0000
0003
0301
0100
0001
1000
0001
0010
,  // measure 68
0100
1000
0010
0000
1010
0000
0010
1000
,  // measure 69
0001
0100
0002
0000
0000
0000
2003
0000
,  // measure 70
0000
3200
0000
0320
,  // measure 71
0000
0030
0024
0000
0000
0000
0000
0000
,  // measure 72
0000
0000
0000
0000
,  // measure 73
0000
0033
2000
0000
0000
0000
3020
0000
,  // measure 74
0000
0230
0000
0302
,  // measure 75
0000
0003
4002
0000
0000
0000
0000
0000
,  // measure 76
0000
0000
0000
0000
,  // measure 77
0000
0000
0000
3003
0100
0000
0000
0000
0010
0000
0000
0000
1000
0000
0000
0000
,  // measure 78
0100
0000
0010
0000
0000
0001
0000
0000
,  // measure 79
1000
0000
0010
0000
0100
0010
0100
0000
,  // measure 80
0010
1000
0002
0000
,  // measure 81
1003
0000
0000
0001
0000
0000
1000
0000
0000
0001
0000
0100
,  // measure 82
0000
0000
0001
0000
0000
0000
0100
0000
0000
0000
0000
0000
0010
0000
0000
0000
0000
0000
0000
0000
0000
1000
0000
0000
,  // measure 83
0010
1000
0010
0000
0100
0000
0001
0000
,  // measure 84
1000
0001
0010
0100
,  // measure 85
1000
1100
0000
0011
,  // measure 86
0000
0100
0101
0000
,  // measure 87
1000
0000
0010
1010
,  // measure 88
0000
0000
1001
0000
0000
0101
0000
0000
,  // measure 89
0110
0000
1000
0000
0010
0000
1000
0010
,  // measure 90
1000
0001
0100
0001
,  // measure 91
0010
0000
0000
0100
0000
1000
0000
0100
0000
1000
0000
0100
,  // measure 92
0000
1000
0000
0100
0000
1000
0000
0100
0000
1000
0000
0100
,  // measure 93
0000
1000
0000
0001
0000
0000
1000
0000
0000
0010
0000
0000
,  // measure 94
0100
0010
1000
0001
,  // measure 95
0100
0001
0010
0100
,  // measure 96
1000
0100
1100
0000
,  // measure 97
1000
0000
0001
1000
0001
1000
0001
1000
,  // measure 98
0001
1000
0001
1000
0001
1000
0001
1000
,  // measure 99
0001
1000
0001
0000
1000
0000
0010
0000
,  // measure 100
0100
0010
1000
0001
,  // measure 101
0100
0000
0001
0000
0000
0011
0000
0000
,  // measure 102
0010
0000
0100
0000
0000
1100
0000
0000
,  // measure 103
1000
0000
0010
0000
0000
1010
0000
0000
,  // measure 104
0010
0000
0100
0000
0000
0101
0000
0000
,  // measure 105
0000
0000
0000
1000
0010
1000
0010
1000
0010
2000
0000
0000
,  // measure 106
0000
0000
0000
3001
0100
0001
0100
0001
0100
0001
0000
0000
,  // measure 107
1000
0010
0100
0001
,  // measure 108
0010
0001
0100
0010
,  // measure 109
1000
0100
0010
0001
,  // measure 110
0010
0100
1000
0001
,  // measure 111
0100
0010
0100
0001
,  // measure 112
1000
0010
1000
0100
,  // measure 113
0010
0001
0010
0100
,  // measure 114
1000
0010
0100
0001
,  // measure 115
0010
0100
0010
0001
,  // measure 116
0100
0001
1000
0010
,  // measure 117
1000
0100
0010
0001
,  // measure 118
0010
0100
1000
0001
,  // measure 119
0100
0010
0100
0001
,  // measure 120
1000
0010
1000
0100
,  // measure 121
0010
0001
0010
0100
,  // measure 122
1000
0001
0100
0010
,  // measure 123
1000
0001
1000
0100
,  // measure 124
0010
0001
1000
0010
,  // measure 125
0100
0001
0000
0000
;

//---------------dance-single - ----------------
#NOTEDATA:;
#CHARTNAME:;
#STEPSTYPE:dance-single;
#DESCRIPTION:;
#CHARTSTYLE:;
#DIFFICULTY:Hard;
#METER:12;
#RADARVALUES:0.901725,1.527439,0.192288,0.217369,0.464000,755.000000,732.000000,23.000000,26.000000,53.000000,0.000000,0.000000,0.000000,0.000000,0.901725,1.527439,0.192288,0.217369,0.464000,755.000000,732.000000,23.000000,26.000000,53.000000,0.000000,0.000000,0.000000,0.000000;
#CREDIT:;
#DISPLAYBPM:170.000000:340.000000;
#NOTES:
// measure 0
0000
0000
0000
0000
,  // measure 1
0022
0033
0000
0000
,  // measure 2
0000
0000
0000
0000
,  // measure 3
1100
0000
0000
0000
00M0
0000
0M00
0000
000M
0000
0000
0000
M000
0000
000M
0000
0000
0000
0M00
0000
000M
0000
M000
0000
00M0
0M00
00M0
0000
0M00
0000
000M
0000
,  // measure 4
M000
0000
0000
0000
000M
0000
0000
0000
M000
000M
M000
0000
000M
0000
0M00
0000
0000
0000
00M0
0000
M000
0000
000M
0M00
000M
0000
0000
0000
M000
0000
0000
0000
,  // measure 5
0220
0330
0000
0000
,  // measure 6
0000
0000
0000
0000
,  // measure 7
1001
0000
0000
0000
0000
0000
0000
0000
0000
0000
0000
0000
0000
0000
0000
0000
0000
0000
0000
0000
0000
0000
0000
0000
0M00
0000
0000
0000
0000
0000
0000
0000
00M0
0000
0000
0000
0000
0000
0000
0000
000M
0000
0000
0000
0000
0000
0000
0000
00M0
0000
0000
0000
0000
0000
0000
0000
0000
0000
0000
0000
000M
0000
0000
0000
0000
0000
0000
0000
0000
0000
0000
0000
M000
0000
0000
0000
0000
0000
0000
0000
0000
0000
0000
0000
0M00
0000
0000
0000
0000
0000
0000
0000
0000
0000
0000
0000
0000
0000
0000
0000
0000
0000
0000
0000
0000
0000
0000
0000
M000
0000
0000
0000
0000
0000
0M00
0000
0000
0000
0000
0000
M000
0000
0000
0000
0000
0000
0000
0000
0000
0000
0000
0000
0000
0000
0000
0000
0000
0000
0000
0000
0000
0000
0000
0000
0M00
0000
0000
0000
0000
0000
0000
0000
0000
0000
0000
0000
00M0
0000
0000
0000
0000
0000
0000
0000
0000
0000
0000
0000
0000
0000
0000
0000
0000
0000
0000
0000
0000
0000
0000
0000
000M
0000
0000
0000
0000
0000
0000
0000
0000
0000
0000
0000
,  // measure 8
0000
0000
0000
00M0
0000
0000
0M00
0000
M000
0000
0M00
0000
000M
0000
0000
0000
0000
0000
M000
0000
0000
0000
0000
0000
00M0
0000
0000
M000
0000
0000
00M0
0000
0000
0M00
0000
0000
M000
0000
0000
000M
0000
0000
00M0
0000
0000
0M00
0000
0000
,  // measure 9
1000
0000
0000
0100
1000
0000
0010
0000
0000
0100
0001
0000
0010
0000
0000
0000
,  // measure 10
0100
0010
0000
0001
1000
0000
0010
0100
0000
0010
0000
1000
0000
0010
1000
0010
,  // measure 11
0100
0000
0000
0001
0100
0000
0001
0000
0000
0010
0100
0000
1000
0000
0000
0100
,  // measure 12
0010
0100
0010
0001
1000
0001
1000
0001
0100
0010
0100
0010
2000
0000
0000
0000
,  // measure 13
3001
0000
0100
0000
0010
0000
1000
0010
,  // measure 14
0100
0010
1000
0000
0001
0000
0100
0001
,  // measure 15
0010
0001
1000
0000
0100
0000
0010
0100
,  // measure 16
0010
0001
0010
0001
1000
0001
0100
0010
,  // measure 17
1000
0010
0100
0000
0010
0000
1000
0001
,  // measure 18
0100
0001
0010
0000
0100
0000
1000
0100
,  // measure 19
0020
0000
0031
0001
1000
1000
0010
0100
,  // measure 20
0101
0000
0000
0000
0001
0000
0000
1000
,  // measure 21
0000
0001
0000
0000
0110
0000
1000
0100
,  // measure 22
0010
0000
0100
1000
0100
0010
0000
0001
,  // measure 23
0000
1000
0001
0000
1000
0010
0100
0010
,  // measure 24
1000
0000
0001
0100
0000
0001
1000
0100
,  // measure 25
0010
0000
0110
0000
,  // measure 26
0010
0011
0000
0001
,  // measure 27
1001
0000
0000
0000
1000
0001
1000
0001
,  // measure 28
1000
0000
0010
1000
0000
0001
0100
0000
,  // measure 29
0010
0100
0000
0010
1000
0000
0001
1000
,  // measure 30
0000
0100
0010
0000
0001
0010
0000
0100
,  // measure 31
1000
0000
0001
1000
0000
0010
0100
0000
,  // measure 32
0001
0100
0000
0001
1000
0000
0010
1000
,  // measure 33
0000
0100
0010
0000
0001
0010
0000
0100
,  // measure 34
1000
0001
1000
0010
0100
0001
0100
0010
,  // measure 35
1000
0001
1000
0100
0020
0000
0000
0000
,  // measure 36
0130
0000
0000
0000
0110
0000
0000
0100
,  // measure 37
1000
0000
0001
0000
0000
0100
0000
0010
,  // measure 38
0100
0000
0000
0101
0000
0000
1001
0000
,  // measure 39
0010
1000
0010
0100
0001
0000
0010
0000
,  // measure 40
0110
0000
0000
1000
0100
0000
0010
0000
,  // measure 41
0001
1000
0000
0001
0100
0000
0010
1000
,  // measure 42
0000
0000
0000
0010
0000
0000
1000
0000
0000
0000
0000
0000
0002
0000
0000
0000
0000
0000
1003
0000
0000
0000
0010
0000
,  // measure 43
0000
0000
0100
0000
0000
0000
0001
0000
0000
0000
0000
0000
1000
0000
0000
0010
0000
0000
0100
0000
0000
0000
0000
0000
,  // measure 44
0010
1000
0010
0100
0001
1000
0001
0010
,  // measure 45
0100
1000
0100
0010
0000
0010
0001
0000
,  // measure 46
0001
1000
0001
0000
0100
0000
0010
1000
,  // measure 47
0010
0100
0001
0000
1000
0000
0001
0010
,  // measure 48
0100
1000
0000
0100
0010
0001
1000
0000
,  // measure 49
0001
0000
2002
0000
0000
0000
0000
3003
,  // measure 50
1000
0000
0001
0100
0020
0000
0000
0000
,  // measure 51
0000
0030
1000
0010
1000
0010
2000
0000
,  // measure 52
0000
0000
3001
0000
0100
0001
0000
1000
,  // measure 53
0001
0000
0020
0000
0230
0000
1300
0100
,  // measure 54
0010
0001
1000
0000
0010
0000
1000
0010
,  // measure 55
0100
0001
0020
0000
0130
0000
0010
0100
,  // measure 56
1000
0000
0001
0000
0100
0000
0100
0000
0100
0000
0100
0000
0001
1000
0001
1000
,  // measure 57
0010
1000
0010
1000
0001
0000
0000
0000
0100
0000
0000
0000
0001
0000
1000
0000
,  // measure 58
0100
0000
0010
0001
0010
0000
0001
0000
0000
0000
1000
0000
0010
1000
0010
1000
,  // measure 59
0010
1000
0010
1000
0020
0000
0000
0000
0030
0000
1000
0000
1001
0000
0000
0000
,  // measure 60
0000
0001
0101
0000
0110
0000
1010
0000
,  // measure 61
1001
0000
0010
1000
0100
0010
0001
0100
,  // measure 62
0010
1000
0010
0100
0001
1000
0001
0010
,  // measure 63
0100
1000
0100
0100
0100
0010
0000
0001
,  // measure 64
0000
0000
1000
0000
0001
0100
0001
0100
0010
0000
1000
0000
0010
0000
0100
0000
,  // measure 65
0001
0000
0010
0000
0100
0000
1000
0000
0000
0000
0100
1000
0100
0000
0010
0000
,  // measure 66
0001
1000
0001
0000
0100
0000
0010
0000
0100
0000
0001
0000
1000
0010
1000
0010
,  // measure 67
1000
0010
1000
0010
1000
0001
1000
0001
0100
0010
0100
0001
1000
0100
1000
0001
,  // measure 68
0010
0100
1000
0001
1000
0000
0000
0000
0001
0000
0000
0000
0100
0001
0100
0010
,  // measure 69
1000
0001
1000
0100
2000
0000
0000
0000
0000
0000
0000
0000
3100
0000
0010
0000
,  // measure 70
0001
0010
0100
1000
0001
0100
0010
0100
,  // measure 71
0001
0000
0100
0000
0010
0000
0100
0001
0000
1000
0010
0000
0000
0000
1000
0000
,  // measure 72
0001
0000
1000
0000
0100
0000
0010
0000
0001
0010
0000
0100
0000
1000
0001
1000
,  // measure 73
0010
0100
0001
0000
0101
0000
0100
0010
,  // measure 74
1000
0000
0100
0000
1100
0000
0100
0010
,  // measure 75
0001
0000
0000
0000
1000
0000
0010
1000
0010
1000
0010
1000
0000
0001
0000
0000
,  // measure 76
0100
0010
0000
0010
0000
0000
0100
0000
0001
0000
1000
0000
0010
0100
0010
0100
,  // measure 77
0001
1000
0001
1000
0010
0000
0000
0000
0100
0000
0000
0000
0001
0000
0000
0000
,  // measure 78
0010
0100
0010
0001
0000
1000
0100
0000
,  // measure 79
1000
0001
1000
0000
0010
0100
0001
0000
,  // measure 80
0100
0000
0010
0000
1000
0001
1000
0001
,  // measure 81
1000
0000
0000
0100
0000
0000
0010
0000
0000
0001
0000
0000
0010
0000
0000
0100
0000
0000
0010
0000
0000
0000
0001
0000
,  // measure 82
0000
0000
1000
0000
0000
0000
0010
0000
0000
0000
0000
0000
0100
0000
0000
0000
0000
0000
0000
0000
0000
0001
0000
0000
,  // measure 83
0100
0001
0100
0000
0010
1000
0010
0000
,  // measure 84
1000
0001
1000
0000
0001
0000
0010
0000
,  // measure 85
0100
0110
0000
2100
,  // measure 86
0000
3002
2003
0000
,  // measure 87
3020
0000
0230
0302
,  // measure 88
0000
0000
0013
0000
0000
0100
0000
0000
,  // measure 89
1000
0000
0100
1000
0100
1000
0001
0100
,  // measure 90
0010
0100
0001
1000
0010
1000
0100
1000
,  // measure 91
0001
0000
0000
0010
0000
0000
0100
0000
0000
0000
1000
0000
0000
0000
0001
0000
0000
0000
0100
0000
0000
0000
0010
0000
,  // measure 92
0000
0100
0000
0001
0000
1000
0000
0010
0000
1000
0000
0100
,  // measure 93
0000
0000
0010
0000
0000
0000
0001
0000
0000
0000
0000
0000
0010
0000
0000
0000
0000
0000
0001
0000
0000
0100
0000
0000
,  // measure 94
0010
0000
0100
0001
1000
0000
0010
1000
,  // measure 95
0100
0000
0010
0001
0010
0001
0010
0100
,  // measure 96
1000
0100
2000
0000
,  // measure 97
3001
0000
1000
0001
1000
0010
1000
0010
,  // measure 98
1000
0001
0100
0010
0100
0001
1000
0100
,  // measure 99
1000
0001
0010
0000
0100
0010
0001
0000
,  // measure 100
0010
0100
1000
0001
1000
0010
1000
0010
,  // measure 101
0100
0000
0001
0000
0100
0001
0000
0100
,  // measure 102
0010
0000
1000
0000
0100
0010
0000
0001
,  // measure 103
0010
0100
1000
0000
0001
1000
0000
0010
,  // measure 104
0100
0001
0100
0000
0001
0100
0000
0010
,  // measure 105
1000
0000
0000
0010
1000
0001
0100
0010
1000
0002
0000
0000
,  // measure 106
0000
0000
0000
0000
0000
0000
0013
0000
0100
0000
1000
0000
0001
0000
1000
0000
0010
0000
0100
0000
0000
0001
0000
0000
,  // measure 107
0100
0010
1000
0001
1000
0100
0010
0001
,  // measure 108
0010
0100
1000
0000
0001
0000
0100
0000
,  // measure 109
0010
0000
0100
0001
1000
0010
1000
0001
,  // measure 110
1000
0100
0010
0000
0001
0000
0010
0000
,  // measure 111
0100
0000
1000
0010
1000
0100
0010
0001
,  // measure 112
0100
0010
0100
0000
0001
0000
1000
0000
,  // measure 113
0010
0000
1000
0001
0010
0100
0010
0001
,  // measure 114
1000
0010
1000
0000
0001
0000
0100
0000
,  // measure 115
0010
0000
0100
0001
0100
0010
1000
0001
,  // measure 116
1000
0100
0010
0000
0001
0000
0010
0000
,  // measure 117
0100
0000
1000
0010
1000
0001
0100
0010
,  // measure 118
0100
0001
1000
0000
0010
0000
1000
0000
,  // measure 119
0001
0000
0010
0100
0010
0001
0100
0010
,  // measure 120
0100
0001
1000
0000
0010
0000
1000
0000
,  // measure 121
0001
0000
0010
0100
0010
0001
1000
0010
,  // measure 122
1000
0100
1000
0000
0001
0000
0010
0000
,  // measure 123
0100
0000
0010
0001
0100
0010
0100
0001
,  // measure 124
1000
0010
1000
0000
0001
0000
1000
0001
,  // measure 125
1000
0001
2000
0000
0000
0000
0000
0000
,  // measure 126
3000
0000
0000
0000
;

//---------------dance-single - ----------------
#NOTEDATA:;
#CHARTNAME:;
#STEPSTYPE:dance-single;
#DESCRIPTION:;
#CHARTSTYLE:;
#DIFFICULTY:Beginner;
#METER:4;
#RADARVALUES:0.232896,0.363571,0.100324,0.158847,0.000000,195.000000,183.000000,12.000000,19.000000,0.000000,0.000000,0.000000,0.000000,0.000000,0.232896,0.363571,0.100324,0.158847,0.000000,195.000000,183.000000,12.000000,19.000000,0.000000,0.000000,0.000000,0.000000,0.000000;
#CREDIT:;
#DISPLAYBPM:170.000000:340.000000;
#NOTES:
// measure 0
0000
0000
0000
0000
,  // measure 1
0110
0000
0000
0000
,  // measure 2
0000
0000
0000
0000
,  // measure 3
1001
0000
0000
0000
,  // measure 4
0000
0000
0000
0000
,  // measure 5
1010
0000
0000
0000
,  // measure 6
0000
0000
0000
0000
,  // measure 7
0101
0000
0000
0000
,  // measure 8
0000
0000
0000
0000
,  // measure 9
0001
0000
0000
0010
0000
0000
0200
0000
,  // measure 10
0000
0300
0000
0000
,  // measure 11
1000
0000
0000
0010
0000
0000
0200
0000
,  // measure 12
0000
0300
0000
0000
,  // measure 13
0001
0000
0100
0000
,  // measure 14
0010
0000
1000
0000
,  // measure 15
0100
0000
0010
0000
,  // measure 16
0001
0000
0010
0000
,  // measure 17
0001
0000
0100
0000
,  // measure 18
0010
0000
1000
0000
,  // measure 19
2002
0000
0000
3003
,  // measure 20
0100
0000
0010
0000
,  // measure 21
1000
0000
0001
0000
,  // measure 22
0100
0000
0001
0000
,  // measure 23
0010
0000
0100
0000
,  // measure 24
0010
0000
0001
0000
,  // measure 25
1000
0000
0001
0000
,  // measure 26
1000
1000
0000
0001
,  // measure 27
0001
0000
1001
0000
,  // measure 28
0100
0000
0010
0000
,  // measure 29
1000
0000
0100
0000
,  // measure 30
0010
0000
0001
0000
,  // measure 31
0100
0000
0010
0000
,  // measure 32
1000
0000
0001
0000
,  // measure 33
0000
0100
0000
0000
,  // measure 34
0010
0000
1000
0000
,  // measure 35
0001
0000
0000
0000
,  // measure 36
1000
0000
0001
0000
,  // measure 37
0100
0000
0010
0000
,  // measure 38
1000
0000
0000
0010
,  // measure 39
0000
0000
0100
0000
,  // measure 40
0001
0000
1000
0000
,  // measure 41
0100
0000
0010
0000
,  // measure 42
0000
0000
0001
0000
,  // measure 43
0000
1000
0000
0001
,  // measure 44
0000
0100
0000
0010
,  // measure 45
0000
0000
0000
1000
,  // measure 46
0000
0000
0000
0010
,  // measure 47
0000
0100
0000
0001
,  // measure 48
0000
1000
0000
0100
,  // measure 49
0000
0020
0000
0000
,  // measure 50
0030
0000
0200
0000
,  // measure 51
0000
0300
0000
2000
,  // measure 52
0000
3000
0000
0000
,  // measure 53
0000
0001
0000
0100
,  // measure 54
0000
0010
0000
1000
,  // measure 55
0000
0100
0000
1000
,  // measure 56
0000
0001
0001
0001
,  // measure 57
0001
1000
0000
0010
,  // measure 58
0000
0100
0000
2002
,  // measure 59
3003
0100
0000
0010
,  // measure 60
0000
1000
0000
0100
,  // measure 61
0000
1000
0000
0100
,  // measure 62
0000
0010
0000
0001
,  // measure 63
0000
0100
0000
0001
,  // measure 64
0000
2000
3000
0001
,  // measure 65
0000
0100
0000
0010
,  // measure 66
0000
1000
0000
0200
,  // measure 67
0300
0010
0000
0001
,  // measure 68
0000
1000
1000
2000
,  // measure 69
0000
3001
0000
0100
,  // measure 70
0000
0010
0000
1000
,  // measure 71
0000
2002
0000
0000
,  // measure 72
0000
0000
0000
0000
,  // measure 73
3003
0010
0000
0100
,  // measure 74
0000
0001
0000
1000
,  // measure 75
0000
2002
0000
0000
,  // measure 76
0000
0000
0000
0000
,  // measure 77
3003
0001
0000
0100
,  // measure 78
0000
0010
0000
1000
,  // measure 79
0000
0010
0000
0100
,  // measure 80
0000
0001
0000
0000
,  // measure 81
0000
1000
0000
0100
,  // measure 82
0000
0010
0000
0000
,  // measure 83
0000
0001
0000
0010
,  // measure 84
0000
0100
0000
1000
,  // measure 85
0000
0010
0000
1000
,  // measure 86
0000
0001
0000
0000
,  // measure 87
0100
0000
0000
0001
,  // measure 88
0000
1000
0000
0100
,  // measure 89
0000
0010
0000
0001
,  // measure 90
0000
1000
0000
0010
,  // measure 91
0000
0200
0000
0000
,  // measure 92
0000
0000
0000
0000
,  // measure 93
0300
0100
0000
0010
,  // measure 94
0000
1000
0000
0100
,  // measure 95
0000
0010
0000
0001
,  // measure 96
0000
2000
0000
3000
,  // measure 97
0000
0002
0000
0000
,  // measure 98
0000
0000
0000
0000
,  // measure 99
0003
0001
0000
1000
,  // measure 100
0000
0010
0000
0100
,  // measure 101
0000
0001
0000
1000
,  // measure 102
0000
0100
0000
0010
,  // measure 103
0000
0001
0000
1000
,  // measure 104
0000
0010
0000
0100
,  // measure 105
0000
0010
0000
1000
,  // measure 106
0000
0000
0001
0000
,  // measure 107
0000
0100
0000
0000
,  // measure 108
0000
0010
0000
0000
,  // measure 109
0000
0000
0000
0000
,  // measure 110
0000
1001
0000
0000
,  // measure 111
0000
0000
0000
0000
,  // measure 112
0000
0100
0000
0000
,  // measure 113
0000
0000
0000
0000
,  // measure 114
0000
0110
0000
0000
,  // measure 115
0000
0000
0000
0000
,  // measure 116
0000
1001
0000
0000
,  // measure 117
0000
0000
0000
0000
,  // measure 118
0000
1000
0000
0000
,  // measure 119
0000
0000
0000
0000
,  // measure 120
0000
0010
0000
0000
,  // measure 121
0000
0000
0000
0000
,  // measure 122
0000
0100
0000
0000
,  // measure 123
0000
0000
0000
0000
,  // measure 124
0000
0001
0000
0000
;
