#VERSION:0.83;
#TITLE:Triops Has Three Eyes;
#SUBTITLE:;
#ARTIST:They Might Be Giants;
#TITLETRANSLIT:;
#SUBTITLETRANSLIT:;
#ARTISTTRANSLIT:;
#GENRE:;
#ORIGIN:;
#CREDIT:;
#BANNER:Triops Has Three Eyes.png;
#BACKGROUND:Triops Has Three Eyes-bg.png;
#PREVIEWVID:;
#JACKET:Triops Has Three Eyes-jacket.png;
#CDIMAGE:;
#DISCIMAGE:;
#LYRICSPATH:;
#CDTITLE:cuzco.png;
#MUSIC:Triops Has Three Eyes.ogg;
#OFFSET:0.000000;
#SAMPLESTART:5.606423;
#SAMPLELENGTH:12.010409;
#SELECTABLE:YES;
#BPMS:0.000=142.000,
72.000=106.500,
75.000=142.000,
143.000=35.500,
143.500=71.000,
166.000=142.000;
#STOPS:143.000=0.423;
#DELAYS:;
#WARPS:;
#TIMESIGNATURES:0.000=4=4;
#TICKCOUNTS:0.000=4;
#COMBOS:0.000=1;
#SPEEDS:0.000=1.000=0.000=0;
#SCROLLS:0.000=1.000;
#FAKES:;
#LABELS:0.000=Song Start;
#BGCHANGES:0.000=Triops Has Three Eyes.avi=1.000=0=1=1=StretchRewind==CrossFade_Faster==,
268.000=black.png=1.000=0=1=1=StretchRewind==CrossFade_Fastest==;
#KEYSOUNDS:;
#ATTACKS:;

//---------------dance-single - Oh god why!?----------------
#NOTEDATA:;
#CHARTNAME:C 9 X 14;
#STEPSTYPE:dance-single;
#DESCRIPTION:Oh god why!?;
#CHARTSTYLE:Pad...?;
#DIFFICULTY:Challenge;
#METER:9;
#RADARVALUES:0.577333,0.592139,0.313344,0.626687,0.241034,503.000000,464.000000,39.000000,78.000000,18.000000,4.000000,0.000000,0.000000,0.000000,0.577333,0.592139,0.313344,0.626687,0.241034,503.000000,464.000000,39.000000,78.000000,18.000000,4.000000,0.000000,0.000000,0.000000;
#CREDIT:CuzcoBlocko;
#NOTES:
// measure 0
0000
0000
0000
0000
,  // measure 1
0000
0000
0000
0000
,  // measure 2
0000
0000
0000
0000
,  // measure 3
0000
0000
0000
0000
,  // measure 4
0101
0101
0000
0110
0000
2010
0000
0000
,  // measure 5
3001
0000
1000
0000
0100
0000
1000
0100
0000
0000
1000
0000
0001
0000
0000
0000
,  // measure 6
0100
0000
0010
0000
0100
0000
0001
0100
0000
0000
0001
0000
0010
0000
0000
0000
,  // measure 7
0100
0000
1000
0000
0010
0000
0100
0010
0000
0000
1000
0000
0010
0000
0200
0000
,  // measure 8
0301
0100
0001
0200
0001
0000
0310
1000
,  // measure 9
0010
1000
0010
2000
0010
0000
3100
1000
,  // measure 10
0100
0100
1000
0200
1300
0002
1003
1010
,  // measure 11
0010
0000
1000
0000
0100
0000
0000
0100
0010
0000
0002
0000
0103
0000
1000
0000
,  // measure 12
0100
0001
0010
0010
0100
0002
0103
1000
,  // measure 13
0001
0010
0100
0100
0010
0002
1003
0010
,  // measure 14
0001
0010
0100
0100
0010
0100
0001
2000
,  // measure 15
0100
0000
0000
0000
0001
0000
0000
3001
0010
0000
0200
0000
1300
0000
0001
0000
,  // measure 16
1000
1000
0000
1001
0000
2010
0000
3001
,  // measure 17
0200
0310
1000
0100
0001
0100
0010
0001
,  // measure 18
2002
0000
3003
0002
,  // measure 19
0010
2003
0010
3002
,  // measure 20
0100
2003
3100
1100
,  // measure 21
0110
0000
0011
0000
1001
0000
0101
0101
,  // measure 22
0000
1001
0000
1010
0000
0010
1000
0100
,  // measure 23
0010
0000
0100
1000
0000
0100
2000
0000
0010
0000
0000
0000
3100
0000
1000
0000
,  // measure 24
0100
0000
1000
0001
0000
1000
0002
0000
0100
0000
0000
0000
0013
0000
0001
0000
,  // measure 25
0100
0000
0010
0100
0000
0010
0100
0000
0001
0000
0020
0000
0130
0000
0010
0000
,  // measure 26
0100
0020
0100
0000
0031
0100
0001
0100
,  // measure 27
0001
0200
0001
0000
0310
1000
0010
0020
,  // measure 28
1030
0020
0130
0020
1030
1010
0010
1000
,  // measure 29
0100
0000
0000
0100
0010
0000
0100
0000
0001
0000
0200
0000
1300
0000
0010
0000
,  // measure 30
0001
0000
0010
0100
0010
0000
2000
0000
3001
0000
0010
0000
0100
0000
0010
0000
,  // measure 31
0001
0000
1000
0001
1000
0000
0200
0000
0310
0000
1000
0000
0010
0000
0001
0000
,  // measure 32
1000
0000
0002
0103
0001
0000
2000
0000
3010
0000
0001
0000
0020
0000
0130
0000
,  // measure 33
0010
0000
0100
0010
0100
0000
0002
0000
1003
0000
0001
0000
0010
0000
0010
0000
,  // measure 34
0000
1100
0000
1020
0000
0130
0001
1000
,  // measure 35
0100
0000
0010
0100
0010
0000
0200
0000
1300
0000
0002
0000
1003
0000
0000
0000
,  // measure 36
2001
0000
0000
3100
0200
0000
0000
0310
0020
0000
0000
0130
0020
0000
0031
0000
,  // measure 37
1200
0000
0000
1300
2000
0000
0000
3010
0020
0000
0000
1030
0002
0000
0013
0000
,  // measure 38
0120
0000
0130
2000
0001
0000
3010
0000
0120
0000
0000
1000
0000
0000
1030
0000
,  // measure 39
1002
0000
0000
1000
0000
0000
1003
0000
0021
0000
0000
0001
0000
0100
0130
0000
,  // measure 40
1000
1000
1000
1000
2000
0000
0000
0001
0001
0001
0001
0001
0002
0000
0000
0M00
,  // measure 41
0M00
0M00
0M00
0M00
0M00
0000
3003
2M02
0M10
0000
0M10
0000
0000
0000
0M10
0000
,  // measure 42
0000
0000
0M20
0000
0030
0000
3003
0000
1M01
0000
0001
0000
0010
0000
1000
0010
,  // measure 43
0000
0001
0010
0000
0001
0000
1000
0000
101M
0000
100M
0000
0100
0000
001M
1000
,  // measure 44
0000
0010
010M
0000
1000
0000
001M
0000
M101
0000
0001
0000
0010
0000
0100
0001
,  // measure 45
0000
0100
0010
0000
0001
0000
0100
0000
0010
0000
0100
0000
0001
0000
0200
0000
,  // measure 46
0010
0000
0301
0010
1000
0010
0001
0020
,  // measure 47
1000
0000
0031
1000
0100
0200
0301
0200
,  // measure 48
1300
0000
0002
0000
0103
0000
1000
0000
1100
0000
0100
0000
0010
0000
1000
0010
,  // measure 49
1000
0000
0200
0000
0310
0000
0001
0000
1000
0000
0001
0000
0010
0000
0001
1000
,  // measure 50
0010
0000
2000
0000
3001
0000
0010
0000
1000
0000
0010
0000
0001
0000
1000
0010
,  // measure 51
1000
0000
0002
0000
0103
0000
0001
0000
0010
0000
0010
0000
0100
0000
1000
0100
,  // measure 52
0010
0000
0210
0000
0300
0000
1001
0000
1000
0000
0010
0000
0100
0000
0001
0100
,  // measure 53
0010
2000
3001
2000
3100
0000
0011
0000
,  // measure 54
1001
0000
0000
0000
1010
0000
0000
0000
0110
0000
0010
0000
1000
0000
0001
0010
,  // measure 55
0001
0000
0200
0000
0301
0000
1000
0000
0100
0000
1000
0000
0001
0000
1000
0100
,  // measure 56
1000
0000
0002
0000
1003
0000
0010
0000
0100
0000
0001
0000
0100
0000
0010
1000
,  // measure 57
0010
0000
2000
0000
3001
0000
0010
0000
1000
0000
1000
0000
0010
0000
0100
0010
,  // measure 58
0100
0000
0120
0000
0030
0000
2001
0000
0010
0000
0000
0000
3100
0000
0010
0001
,  // measure 59
0010
0100
2000
0000
3001
0000
0000
0000
0100
0000
0100
0000
0010
0000
1000
0010
,  // measure 60
1000
0000
0002
0000
1003
0000
0002
0000
0023
0000
0000
0000
0100
0000
0000
0130
,  // measure 61
0001
0000
0100
0000
0010
0000
0000
0000
0001
0000
0001
0000
1000
0000
0010
1000
,  // measure 62
0001
0000
0100
0000
0010
0000
0200
0000
0001
0000
0000
0000
0010
0000
0000
0310
,  // measure 63
0001
0000
0010
0000
0100
0000
0000
0000
0010
0000
0010
0000
1000
0000
0001
0010
,  // measure 64
0001
0000
1000
0000
0100
0000
0001
0000
0100
0000
0010
0000
0001
0000
1000
0010
,  // measure 65
1000
0010
0100
0001
0010
0100
1000
0001
,  // measure 66
2002
0000
0000
0000
,  // measure 67
3003
0000
0000
0000
;

//---------------dance-single - It's a chart.----------------
#NOTEDATA:;
#CHARTNAME:C 7 X 11;
#STEPSTYPE:dance-single;
#DESCRIPTION:It's a chart.;
#CHARTSTYLE:Pad;
#DIFFICULTY:Hard;
#METER:7;
#RADARVALUES:0.462555,0.424219,0.417791,0.192827,0.008034,403.000000,351.000000,52.000000,24.000000,0.000000,0.000000,0.000000,0.000000,0.000000,0.462555,0.424219,0.417791,0.192827,0.008034,403.000000,351.000000,52.000000,24.000000,0.000000,0.000000,0.000000,0.000000,0.000000;
#CREDIT:CuzcoBlocko;
#NOTES:
// measure 0
0000
0000
0000
0000
,  // measure 1
0000
0000
0000
0000
,  // measure 2
0000
0000
0000
0000
,  // measure 3
0000
0000
0000
0000
,  // measure 4
0001
1000
0000
1000
0000
2001
0000
0000
,  // measure 5
3001
0010
0100
0010
0001
0020
0100
0000
,  // measure 6
0031
1000
0010
0100
0010
2000
0001
0000
,  // measure 7
3010
0100
0001
0100
0010
2000
0001
0000
,  // measure 8
3100
0010
0100
0010
0100
0000
1100
0000
,  // measure 9
1000
0001
1000
0001
1000
0000
1010
0000
,  // measure 10
0010
0100
1000
0100
0010
0100
0001
0000
,  // measure 11
1000
0100
0010
0000
0110
0000
0010
0100
,  // measure 12
1000
0001
0100
0010
1000
0000
1001
0000
,  // measure 13
1000
0100
0010
0200
1000
0000
0310
0001
,  // measure 14
0100
1000
0100
0010
0100
0001
1000
0000
,  // measure 15
0100
0010
0100
1000
0001
0000
0101
0000
,  // measure 16
0001
0010
0000
0110
0000
1001
0000
0001
,  // measure 17
0200
0010
1000
0310
,  // measure 18
1001
0000
0000
0011
,  // measure 19
0000
1100
0000
1010
,  // measure 20
0000
0101
0000
1001
,  // measure 21
0101
0000
1001
0000
1100
0000
1000
0001
,  // measure 22
0000
0011
0000
2100
0000
0000
3100
0010
,  // measure 23
0100
1000
0100
0020
0100
0000
0031
0100
,  // measure 24
0010
0100
0001
0200
0010
0000
0301
1000
,  // measure 25
0100
1000
0001
2000
0100
0000
3001
0100
,  // measure 26
0001
0100
0001
0000
0110
0000
1000
0010
,  // measure 27
1000
0010
1000
0000
1100
0000
0100
1000
,  // measure 28
0100
0010
0100
0001
0100
0010
0001
1000
,  // measure 29
0010
0000
0110
0000
0010
0100
0001
0010
,  // measure 30
0100
1000
0001
0000
0101
0000
0100
0010
,  // measure 31
0100
0002
1000
0000
0013
0100
0001
0100
,  // measure 32
0010
0100
1000
0100
0010
0200
0001
0000
,  // measure 33
0310
0100
1000
0001
0100
0000
0001
1000
,  // measure 34
0000
1010
0000
0110
0000
0100
0002
0000
,  // measure 35
1000
0010
1003
1001
,  // measure 36
0002
0000
0013
0100
1000
0000
0001
0000
,  // measure 37
1000
0000
0010
0100
0001
0000
0100
0000
,  // measure 38
0001
0010
1000
0000
1000
0010
0001
0000
,  // measure 39
1000
0010
0001
0000
0001
0010
1000
0000
,  // measure 40
0001
0001
0002
0000
0013
0010
0020
0000
,  // measure 41
0130
0100
0200
0000
1300
0001
0000
0101
,  // measure 42
0000
0220
0000
0330
1001
0000
0001
0010
,  // measure 43
0100
0010
0001
0000
0101
0000
0100
0010
,  // measure 44
1000
0001
0010
0000
0110
0000
0100
1000
,  // measure 45
0001
1000
0010
0000
0100
0010
0100
0010
,  // measure 46
0100
0000
0101
0000
0001
1000
0001
1000
,  // measure 47
0100
0000
0110
0000
0010
0001
0010
0001
,  // measure 48
0020
0000
1000
0000
0130
1000
0001
0000
,  // measure 49
0101
0000
0100
0010
1000
0001
0010
0000
,  // measure 50
0110
0000
0100
1000
0001
1000
0010
1000
,  // measure 51
0001
0000
0001
0010
1000
0010
0000
0011
,  // measure 52
0000
1001
0000
0002
1000
0000
0010
0000
,  // measure 53
1000
0103
0101
1001
,  // measure 54
1100
0000
1001
0000
0001
1000
0010
0000
,  // measure 55
0110
0000
0100
0010
1000
0001
0010
0000
,  // measure 56
0110
0000
0100
1000
0001
0100
0010
0100
,  // measure 57
0010
0000
1000
0100
0001
0001
0000
0101
,  // measure 58
0000
0110
0000
0200
1000
0000
0310
0001
,  // measure 59
1000
0010
1000
0000
0001
1000
0000
1010
,  // measure 60
0000
0000
0110
0000
0000
0000
0200
0000
0001
0000
0000
0000
0310
0000
0000
1000
,  // measure 61
0000
0001
0010
0000
0100
1000
0000
1001
,  // measure 62
0000
0000
0011
0000
0000
0000
0020
0000
0001
0000
0000
0000
0130
0000
0000
1000
,  // measure 63
0000
0001
1000
0000
0010
1000
0000
0101
,  // measure 64
0000
1001
0000
0001
0100
0010
0001
0010
,  // measure 65
1000
0100
0001
0100
1000
0000
0001
0000
,  // measure 66
1001
0000
0000
0000
;

//---------------dance-single - Simplicity by Oskar Van Deventer----------------
#NOTEDATA:;
#CHARTNAME:C 1 X 2;
#STEPSTYPE:dance-single;
#DESCRIPTION:Simplicity by Oskar Van Deventer;
#CHARTSTYLE:Pad;
#DIFFICULTY:Beginner;
#METER:1;
#RADARVALUES:0.141177,0.212110,0.192827,0.000000,0.000000,123.000000,99.000000,24.000000,0.000000,0.000000,0.000000,0.000000,0.000000,0.000000,0.141177,0.212110,0.192827,0.000000,0.000000,123.000000,99.000000,24.000000,0.000000,0.000000,0.000000,0.000000,0.000000,0.000000;
#CREDIT:CuzcoBlocko;
#NOTES:
// measure 0
0000
0000
0000
0000
,  // measure 1
0000
0000
0000
0000
,  // measure 2
0000
0000
0000
0000
,  // measure 3
0000
0000
0000
0000
,  // measure 4
0000
0000
0000
0000
,  // measure 5
1001
0000
0000
0000
,  // measure 6
1000
0000
0000
0000
,  // measure 7
0001
0000
0000
0000
,  // measure 8
0010
0000
0000
0000
,  // measure 9
0010
0000
0000
0000
,  // measure 10
0010
0000
0000
0000
,  // measure 11
1001
0000
0000
0000
,  // measure 12
0001
0000
0000
0000
,  // measure 13
1000
0000
0000
0000
,  // measure 14
0010
0000
0010
0000
,  // measure 15
0100
0000
0100
0000
,  // measure 16
0001
0000
0001
0000
,  // measure 17
1001
0000
0000
0000
,  // measure 18
0110
0000
0000
1001
,  // measure 19
0000
0000
0000
1001
,  // measure 20
0000
0000
0000
1000
,  // measure 21
0000
0001
0000
1000
,  // measure 22
0000
0001
0000
1001
,  // measure 23
0000
0000
0000
1000
,  // measure 24
0000
0001
0000
0001
,  // measure 25
0000
0000
0000
0100
,  // measure 26
0000
0100
0000
0010
,  // measure 27
0000
0010
0000
1000
,  // measure 28
0000
0001
0000
1001
,  // measure 29
0000
0000
0000
0001
,  // measure 30
0000
0000
0000
1000
,  // measure 31
0000
0000
0000
1000
,  // measure 32
0000
0000
0000
1001
,  // measure 33
0000
0000
0000
0100
,  // measure 34
0000
0010
0000
0110
,  // measure 35
0000
0000
0000
1001
,  // measure 36
1000
0000
0001
0000
,  // measure 37
1000
0000
0010
0000
,  // measure 38
0100
0000
0001
0000
,  // measure 39
1000
0000
0100
0000
,  // measure 40
0010
0000
0100
0000
,  // measure 41
1000
0000
1001
0000
,  // measure 42
0000
0000
1001
0000
,  // measure 43
0000
0000
0001
0000
,  // measure 44
0000
0000
1000
0000
,  // measure 45
0000
0000
0010
0000
,  // measure 46
0010
0000
1000
0000
,  // measure 47
0001
0000
0010
0000
,  // measure 48
0010
0000
1001
0000
,  // measure 49
0001
0000
1000
0000
,  // measure 50
0001
0000
0100
0000
,  // measure 51
0010
0000
0100
0000
,  // measure 52
0100
0000
0010
0000
,  // measure 53
0100
0000
0110
0000
,  // measure 54
1001
0000
0001
0000
,  // measure 55
0001
0000
1000
0000
,  // measure 56
1000
0000
0001
0000
,  // measure 57
0001
0000
1000
0000
,  // measure 58
1000
0000
0110
0000
,  // measure 59
1001
0000
0001
0000
,  // measure 60
1000
0000
1001
0000
,  // measure 61
0110
0000
0010
0000
,  // measure 62
0100
0000
0110
0000
,  // measure 63
1001
0000
1000
0000
,  // measure 64
0001
0000
1000
0000
,  // measure 65
0001
0000
1001
0000
,  // measure 66
1001
0000
0000
0000
;

//---------------dance-single - That "3" in the chart though. XP----------------
#NOTEDATA:;
#CHARTNAME:C 3 X 5;
#STEPSTYPE:dance-single;
#DESCRIPTION:That "3" in the chart though. XP;
#CHARTSTYLE:Pad;
#DIFFICULTY:Easy;
#METER:3;
#RADARVALUES:0.244477,0.344678,0.232999,0.112482,0.000000,213.000000,184.000000,29.000000,14.000000,0.000000,0.000000,0.000000,0.000000,0.000000,0.244477,0.344678,0.232999,0.112482,0.000000,213.000000,184.000000,29.000000,14.000000,0.000000,0.000000,0.000000,0.000000,0.000000;
#CREDIT:CuzcoBlocko;
#NOTES:
// measure 0
0000
0000
0000
0000
,  // measure 1
0000
0000
0000
0000
,  // measure 2
0000
0000
0000
0000
,  // measure 3
0000
0000
0000
0000
,  // measure 4
0110
0000
0010
0100
,  // measure 5
0110
0000
1000
0000
,  // measure 6
0001
0000
0001
1000
,  // measure 7
0001
0000
1000
0000
,  // measure 8
0010
0100
0010
0000
,  // measure 9
0100
0001
0100
0000
,  // measure 10
0001
0001
1000
0001
,  // measure 11
1001
0001
0010
0000
,  // measure 12
1001
1000
0001
0000
,  // measure 13
1001
0001
0100
0010
,  // measure 14
0100
0001
1000
0001
,  // measure 15
2000
0000
3000
0000
,  // measure 16
1001
0000
1000
0010
,  // measure 17
1000
0001
0010
0001
,  // measure 18
2002
0000
3003
0001
,  // measure 19
0000
0001
0000
1000
,  // measure 20
0000
1000
0000
0001
,  // measure 21
1000
0001
1000
1001
,  // measure 22
0000
0001
1000
1001
,  // measure 23
0000
0001
0000
0010
,  // measure 24
0000
0010
0100
0010
,  // measure 25
0000
1000
0000
0010
,  // measure 26
0100
0010
0000
1000
,  // measure 27
0001
1000
0000
0001
,  // measure 28
0001
1000
0000
1001
,  // measure 29
1000
0010
0000
1000
,  // measure 30
0001
0100
0000
0001
,  // measure 31
0010
0100
1000
0010
,  // measure 32
0100
0001
1000
0002
,  // measure 33
0000
0000
0003
1001
,  // measure 34
0000
0001
0010
0002
,  // measure 35
0000
0000
0003
1001
,  // measure 36
1000
0010
0001
0000
,  // measure 37
0001
0010
1000
0000
,  // measure 38
0200
0300
2000
3000
,  // measure 39
0002
0003
0200
0300
,  // measure 40
0110
1001
0001
0110
,  // measure 41
0001
1001
0110
0000
,  // measure 42
1000
0001
1001
0000
,  // measure 43
0001
0000
0010
0000
,  // measure 44
0100
1000
0010
0000
,  // measure 45
0100
0000
0001
1000
,  // measure 46
0001
1000
0010
0100
,  // measure 47
0010
0100
0001
0010
,  // measure 48
0100
1000
1001
0001
,  // measure 49
0010
0000
0001
0100
,  // measure 50
0010
0000
0100
0001
,  // measure 51
1000
0100
0010
0100
,  // measure 52
1000
0010
0220
0000
,  // measure 53
0330
0000
0110
0110
,  // measure 54
1001
1001
0001
0010
,  // measure 55
1000
0000
1000
0010
,  // measure 56
0001
0000
1000
0010
,  // measure 57
0001
0010
1000
0001
,  // measure 58
0010
0100
2000
0000
,  // measure 59
3001
0000
1001
0000
,  // measure 60
0001
1000
0020
0030
,  // measure 61
0110
0000
0100
0100
,  // measure 62
0001
0010
0200
0300
,  // measure 63
0110
0000
1001
0000
,  // measure 64
0001
0100
0001
1000
,  // measure 65
0100
0010
0001
0001
,  // measure 66
1001
0000
0000
0000
;

//---------------dance-single - I guess it's good.----------------
#NOTEDATA:;
#CHARTNAME:C 5 X 8;
#STEPSTYPE:dance-single;
#DESCRIPTION:I guess it's good.;
#CHARTSTYLE:Pad;
#DIFFICULTY:Medium;
#METER:5;
#RADARVALUES:0.382210,0.450733,0.329413,0.136586,0.000000,333.000000,292.000000,41.000000,17.000000,0.000000,0.000000,0.000000,0.000000,0.000000,0.382210,0.450733,0.329413,0.136586,0.000000,333.000000,292.000000,41.000000,17.000000,0.000000,0.000000,0.000000,0.000000,0.000000;
#CREDIT:CuzcoBlocko;
#NOTES:
// measure 0
0000
0000
0000
0000
,  // measure 1
0000
0000
0000
0000
,  // measure 2
0000
0000
0000
0000
,  // measure 3
0000
0000
0000
0000
,  // measure 4
0001
0100
0000
0100
0000
0002
0000
1003
,  // measure 5
0001
0000
0010
0000
0001
1000
0010
0000
,  // measure 6
1000
0000
0100
0000
1000
0001
0100
0000
,  // measure 7
0001
0000
0010
0000
0001
1000
0010
0000
,  // measure 8
0100
0100
0100
0100
,  // measure 9
0001
0001
0001
0001
,  // measure 10
0010
0010
0010
0010
,  // measure 11
0110
0000
0100
1000
0010
0000
1000
0000
,  // measure 12
0001
0000
0010
1000
0010
0000
0001
0000
,  // measure 13
1000
0000
0010
0100
0010
0000
1000
0000
,  // measure 14
0010
0000
0100
0001
0010
0000
0100
0000
,  // measure 15
2000
0001
0001
3001
,  // measure 16
0011
0110
1001
1010
,  // measure 17
0101
0000
0100
0010
0100
0001
1000
0001
,  // measure 18
0010
0000
0000
0100
,  // measure 19
0100
0100
0000
1000
,  // measure 20
1000
1000
0000
0010
,  // measure 21
0001
0000
0010
0000
1000
0000
0010
0100
,  // measure 22
0000
0100
0000
0020
0000
1030
0001
0000
,  // measure 23
0010
0000
0100
0010
0001
0000
1000
0000
,  // measure 24
0010
0000
1000
0010
0100
0000
0001
0000
,  // measure 25
0010
0000
0100
1000
0001
0000
1000
0000
,  // measure 26
1000
1000
1000
0100
,  // measure 27
0100
0100
0100
0001
,  // measure 28
0001
0001
0001
0101
,  // measure 29
0001
0100
0010
0000
0001
0000
1001
0000
,  // measure 30
0001
0100
1000
0000
0100
0000
0101
0000
,  // measure 31
0001
1000
0001
0000
0010
0000
0110
0000
,  // measure 32
0100
1000
0010
0000
0100
0000
0002
0000
,  // measure 33
1000
1000
1003
1010
,  // measure 34
1001
0011
1001
0110
,  // measure 35
1000
0001
0010
0001
1000
0010
1000
0000
,  // measure 36
2000
0100
0002
3003
,  // measure 37
0002
0100
0020
0033
,  // measure 38
0001
0100
0010
0000
0100
0010
1000
0000
,  // measure 39
1000
0100
0010
0000
0100
0000
1000
1001
,  // measure 40
0001
1000
0100
0000
1000
0010
0100
0000
,  // measure 41
1000
0100
0010
0000
0100
0001
0000
0001
,  // measure 42
0000
0010
0000
0000
0120
0000
1000
0000
,  // measure 43
0031
1000
0001
0000
0200
0000
1000
0000
,  // measure 44
0301
0100
0001
0000
1002
0000
0010
0000
,  // measure 45
1003
0100
1000
0000
0001
0000
0001
0000
,  // measure 46
0001
0010
0100
0100
,  // measure 47
0100
1000
0010
0010
,  // measure 48
0001
0000
0010
0000
1010
0000
1000
0001
,  // measure 49
0100
0000
0101
0000
1001
0000
0001
0010
,  // measure 50
0100
0000
0110
0000
1001
0000
1000
0010
,  // measure 51
0100
0000
0110
0000
0101
0000
0100
1000
,  // measure 52
0100
0110
0102
0100
,  // measure 53
0013
0100
1000
0000
0001
0000
1001
0000
,  // measure 54
1000
0000
1001
0000
0101
0000
0001
0010
,  // measure 55
0100
0000
0110
0000
0011
0000
0001
0100
,  // measure 56
1000
0000
1100
0000
0110
0000
0010
1000
,  // measure 57
0001
0000
1001
0000
0011
0000
0010
0100
,  // measure 58
1000
1100
2010
0010
,  // measure 59
3100
0010
0001
0000
1000
0000
0010
0000
,  // measure 60
0100
0001
1002
0010
,  // measure 61
2003
0000
0010
0000
3001
0010
0100
0000
,  // measure 62
1000
0001
2001
0100
,  // measure 63
3002
0000
0100
0000
1003
0010
0100
0000
,  // measure 64
0001
0000
0010
0000
0100
0010
0100
1000
,  // measure 65
0001
1000
0010
0100
0010
1000
0001
0000
,  // measure 66
1001
0000
0000
0000
;
