#VERSION:0.83;
#TITLE:Tonchinkan Feast;
#SUBTITLE:;
#ARTIST:Pinocchio-P ft. Hatsune Miku;
#TITLETRANSLIT:;
#SUBTITLETRANSLIT:;
#ARTISTTRANSLIT:;
#GENRE:;
#ORIGIN:;
#CREDIT:;
#BANNER:Tonchinkan Feast-banner.png;
#BACKGROUND:Tonchinkan Feast-bg.png;
#PREVIEWVID:;
#JACKET:Tonchinkan Feast-jacket.png;
#CDIMAGE:;
#DISCIMAGE:;
#LYRICSPATH:;
#CDTITLE:;
#MUSIC:Tonchinkan Feast.ogg;
#OFFSET:0.005000;
#SAMPLESTART:68.654510;
#SAMPLELENGTH:12.000000;
#SELECTABLE:YES;
#BPMS:0.000=145.000;
#STOPS:;
#DELAYS:;
#WARPS:;
#TIMESIGNATURES:0.000=4=4;
#TICKCOUNTS:0.000=4;
#COMBOS:0.000=1;
#SPEEDS:0.000=1.000=0.000=0;
#SCROLLS:0.000=1.000;
#FAKES:;
#LABELS:0.000=Song Start;
#BGCHANGES:;
#KEYSOUNDS:;
#ATTACKS:
;

//---------------dance-single - ----------------
#NOTEDATA:;
#CHARTNAME:;
#STEPSTYPE:dance-single;
#DESCRIPTION:;
#CHARTSTYLE:;
#DIFFICULTY:Challenge;
#METER:11;
#RADARVALUES:0.880702,0.947047,0.355143,0.300505,1.165597,677.000000,638.000000,39.000000,33.000000,0.000000,0.000000,0.000000,0.000000,0.000000,0.880702,0.947047,0.355143,0.300505,1.165597,677.000000,638.000000,39.000000,33.000000,0.000000,0.000000,0.000000,0.000000,0.000000;
#CREDIT:;
#NOTES:
0000
0000
0000
0000
,
0000
0000
0000
0000
,
0000
0000
0000
0000
,
0000
0000
0000
0000
,
0001
0000
0001
0000
0001
0000
0001
0100
,
0010
0000
0010
0000
0010
0000
0010
1000
,
0200
0320
0032
1003
,
1010
0101
1100
1001
,
0001
0000
0100
0000
0010
0100
0000
0001
0000
0100
0000
0010
1000
0100
1000
0000
,
0100
0000
0010
0000
0100
1000
0000
0010
0000
0100
0000
0010
1000
0100
1000
0001
,
1000
0000
0100
0000
0010
0100
0000
1000
0000
0100
0000
0010
0001
0100
0001
0000
,
1000
0100
1000
0100
1000
0001
0000
0100
0000
0001
0000
1000
0100
0010
0100
1000
,
0001
0100
1000
0100
0001
0000
1000
0010
0001
0010
1000
0000
0001
0010
1000
0010
,
0001
0000
1000
0100
0001
0100
1000
0000
0001
0100
1000
0100
0002
0000
0003
0000
,
1000
0100
0001
0100
1000
0000
0001
0010
1000
0010
0001
0000
1000
0010
0001
0010
,
2000
3000
0220
0330
0002
0023
0230
2300
,
3001
0000
0100
0010
0000
0100
0001
0000
1000
0010
1000
0001
0100
0010
0100
0001
,
1000
0000
0001
0010
0001
0010
0100
1000
0001
0100
0010
0000
0100
0001
1000
0000
,
0001
0010
0001
0010
0100
0010
0100
1000
0001
0100
0010
0100
0001
0000
1000
0000
,
0001
0000
0001
0100
0010
1000
0010
0100
0001
0010
0001
1000
0002
0000
1003
0100
,
1000
0010
0100
0001
0010
0001
0100
0010
1000
0100
1000
0010
0100
0001
0010
0001
,
1000
0010
0100
0000
0010
1000
0100
1000
0000
0001
0000
0010
0000
0100
0010
0001
,
1000
0010
1000
0010
0100
0001
0010
0001
1000
0000
0010
0100
0010
1000
0001
0000
,
1000
0100
0010
0000
0100
1000
0010
1000
0001
0010
0100
0010
0000
0001
1000
0001
,
0100
0010
1000
0010
0100
0001
0100
0010
1000
0100
0010
0100
1000
0001
0010
0001
,
1000
0000
0010
0000
0100
0010
0000
1000
0000
0010
0000
0100
0001
0010
0001
0000
,
0010
0000
0100
0000
0010
0001
0000
0100
0000
0010
0000
0100
0001
0010
0001
1000
,
0001
0000
0010
0000
0100
0010
0000
0001
0000
0010
0000
0100
1000
0010
1000
0000
,
0001
0010
0001
0010
0001
1000
0000
0100
0000
0000
0100
0010
0100
1000
0100
0000
,
2000
0000
0000
0000
3001
0100
0001
0010
0000
0001
0100
0010
0100
0000
0001
0000
,
0020
0000
0000
0000
0130
1000
0100
0010
0001
0100
0001
1000
0010
0000
0100
0010
,
0200
0000
0310
1000
0010
0100
0010
1000
0000
0001
0010
0001
0000
0000
1000
0010
,
1000
0000
0100
0000
0010
0100
1000
0000
0010
0100
0001
0100
0000
0000
0001
0000
,
1001
0000
1000
0010
0000
1000
0001
0100
0010
0100
0001
1000
0000
0000
0100
1000
,
0001
0100
0001
0100
0010
1000
0010
0100
0000
0001
0100
0001
0000
0000
1000
0000
,
1001
0000
0001
0010
0000
0100
0000
1000
0100
0010
0100
1000
0000
0000
0001
0000
,
1000
0010
1000
0010
0100
0001
0100
0010
0000
1000
0100
1000
0000
0000
0010
0000
,
1001
0000
0001
0000
0010
0100
0010
0100
1000
0010
0000
1000
0001
0000
1000
0000
,
0001
0100
0001
0000
1000
0100
0010
0100
1000
0010
0000
1000
0001
0000
1000
0000
,
0001
0010
0001
0010
0100
0000
1000
0000
0001
0100
0010
1000
0010
0000
1000
0000
,
0001
0000
0010
0100
0000
1000
0001
0000
0100
0010
0000
1000
0001
0000
0010
0000
,
0200
0000
0300
0000
,
1001
0000
1000
0000
1010
0000
0100
0000
0001
0100
0001
0000
1010
0000
0100
0000
,
1001
0000
0001
0000
0011
0000
0100
0000
1000
0100
1000
0000
0011
0000
0100
0000
,
1001
0000
1000
0000
1010
0000
0100
0000
0001
0100
0001
0000
1010
0000
0100
0000
,
1001
0000
1000
0000
0001
0010
0100
1000
0001
0000
0100
0010
1000
0010
0100
0001
,
0010
0000
0011
0000
0010
0100
1000
0100
0000
0010
0001
0100
0001
0000
1001
0000
,
0001
0100
0010
0100
0010
1000
0010
0100
0000
0001
0100
0000
0110
0000
0101
0000
,
1001
0000
1000
0000
1100
0000
0010
0001
0100
1000
0100
0010
0100
0001
0010
0000
,
1001
0000
0001
0000
0101
0000
0010
1000
0100
0001
0100
0010
0100
1000
0010
0000
,
1001
0000
1000
0000
1100
0000
0010
0001
0100
1000
0100
0010
0100
0000
0010
0000
,
1001
0000
0000
0000
0011
0000
0010
0100
1000
0001
1000
0010
0200
0000
0310
0000
,
1001
0000
0000
0001
0000
0000
0011
0000
0000
0000
0001
0000
0010
0000
0100
0000
,
1100
0000
0000
1000
0000
0000
1001
0000
0000
0000
0001
0000
0100
0000
0010
0000
,
1000
1000
1000
1000
,
0100
0000
0010
0000
0100
0010
0000
0110
0000
1000
0100
0010
0002
0003
0000
0000
,
1000
0000
0010
0000
0100
0010
0000
1000
0000
0010
0000
0100
0001
0010
0001
0000
,
0010
0000
0100
0000
0010
0001
0000
0100
0000
0010
0000
0100
0001
0010
0001
1000
,
0001
0000
0010
0000
0100
0010
0000
0001
0000
0010
0000
0100
1000
0010
1000
0000
,
0100
0010
0100
1000
0010
0100
0000
0001
0000
0100
0000
0001
0010
0100
0010
0001
,
1000
0010
0001
0010
1000
0000
0001
0100
1000
0100
0001
0000
1000
0100
0001
0100
,
1000
0000
0001
0010
1000
0010
0001
0000
1000
0010
0001
0010
2000
0000
3000
0000
,
0001
0010
1000
0010
0001
0000
1000
0100
0001
0100
1000
0000
0001
0100
1000
0100
,
0002
0000
0020
0033
0220
0330
2200
3300
,
2020
3030
0220
0330
0002
0023
0230
2300
,
3000
0000
0000
0000
;

//---------------dance-single - ----------------
#NOTEDATA:;
#CHARTNAME:;
#STEPSTYPE:dance-single;
#DESCRIPTION:;
#CHARTSTYLE:;
#DIFFICULTY:Hard;
#METER:9;
#RADARVALUES:0.712887,0.799071,0.336930,0.236762,0.664754,548.000000,511.000000,37.000000,26.000000,0.000000,0.000000,0.000000,0.000000,0.000000,0.712887,0.799071,0.336930,0.236762,0.664754,548.000000,511.000000,37.000000,26.000000,0.000000,0.000000,0.000000,0.000000,0.000000;
#CREDIT:;
#NOTES:
// measure 0
0000
0000
0000
0000
,  // measure 1
0000
0000
0000
0000
,  // measure 2
0000
0000
0000
0000
,  // measure 3
0000
0000
0000
0000
,  // measure 4
1000
0000
1000
0000
1000
0000
1000
0001
,  // measure 5
0100
0000
0100
0000
0100
0000
0100
0001
,  // measure 6
0020
0230
2300
3001
,  // measure 7
0101
1010
0011
1001
,  // measure 8
0001
0000
0100
0000
0010
1000
0000
0100
0000
0010
0000
0100
1000
0000
0010
0000
,  // measure 9
1000
0000
0100
0000
0010
0001
0000
0100
0000
0010
0000
0100
0001
0000
0010
0000
,  // measure 10
0001
0000
0100
0000
0010
1000
0000
0100
0000
0010
0000
0100
1000
0000
0010
0000
,  // measure 11
1000
0000
0100
0000
0010
0001
0000
0100
0000
0010
0000
0100
0001
0000
0010
0000
,  // measure 12
0001
1000
0001
1000
0001
0000
0100
0010
0100
0010
0100
0000
0001
1000
0001
1000
,  // measure 13
0001
0000
0010
0100
0010
0100
0010
0000
0001
1000
0001
1000
0020
0000
0030
0000
,  // measure 14
1000
0001
1000
0001
1000
0000
0010
0100
0010
0100
0010
0000
1000
0001
1000
0001
,  // measure 15
0020
0000
0230
0000
1300
0010
0100
0002
,  // measure 16
0003
0000
0000
0000
0001
0010
0100
1000
,  // measure 17
1001
0000
0001
0000
0100
0000
0010
0000
1000
0100
1000
0000
0010
0000
0000
0000
,  // measure 18
1001
0000
1000
0000
0100
0000
0010
0000
0001
0100
0001
0100
0000
0010
0100
0000
,  // measure 19
1001
0000
0001
0000
0100
0000
0010
0000
1000
0100
1000
0100
1000
0000
0001
0000
,  // measure 20
1000
0000
0001
0000
1000
0000
0010
0100
0000
0010
0000
0100
0010
0000
0100
0000
,  // measure 21
1001
0000
1000
0000
0010
0000
0100
0001
0000
0010
0000
0100
0000
1000
0001
0000
,  // measure 22
1001
0001
0010
0100
1000
0010
0100
0010
,  // measure 23
1001
0000
1000
0000
0010
0000
0100
0000
0001
0000
0010
0100
0000
0000
1000
0000
,  // measure 24
0001
0000
1000
0000
0001
0000
0100
0010
0000
0100
0000
0010
0100
0000
0010
0000
,  // measure 25
1000
0000
0001
0000
1000
0100
0000
0010
0000
0010
0000
0001
1000
0000
0010
0000
,  // measure 26
0100
0000
0001
0000
0010
0100
0000
0010
0000
0001
0000
1000
0010
0000
0100
0000
,  // measure 27
0001
0000
0010
0000
0001
0100
0000
0010
0000
0010
0000
1000
0001
0000
0010
0000
,  // measure 28
0100
0010
0100
0010
0100
0000
1000
0002
0000
0000
0000
0000
0003
0000
0000
0000
,  // measure 29
2000
0000
0000
0000
3010
0000
0100
0000
0001
0000
0001
0010
0000
0010
0100
0000
,  // measure 30
2000
0000
0000
0000
3100
0000
0010
0000
0001
0000
0001
0100
0000
0100
0010
0000
,  // measure 31
2000
0000
0000
0000
3010
0000
0100
0000
0001
0000
0001
0010
0000
0010
0100
0000
,  // measure 32
2000
0000
3010
0000
0010
0100
0000
0100
0001
1000
0001
1000
0000
0000
0010
0000
,  // measure 33
1001
0000
0000
0001
0000
0000
0100
0000
0001
0010
0001
0010
0000
0000
0001
0000
,  // measure 34
0100
0000
0001
0000
0010
0000
0100
0000
1000
0000
0010
0100
0000
0000
0010
0000
,  // measure 35
1001
0000
0000
1000
0000
0000
0100
0000
1000
0010
1000
0010
0000
0000
0100
0000
,  // measure 36
0001
0000
0100
0000
0010
0000
1000
0000
0100
0000
1000
0001
0000
0000
0010
0000
,  // measure 37
0011
0000
0010
0000
0100
0000
0010
0000
0001
1000
0000
0001
1000
0000
0010
0000
,  // measure 38
1010
0000
0010
0000
0100
0000
0010
0000
1000
0001
0000
1000
0001
0000
0010
0000
,  // measure 39
0011
0000
0010
0000
0100
0000
0010
0000
0001
1000
0000
0001
1000
0000
0010
0000
,  // measure 40
0110
0000
0100
0010
0000
0010
0100
0000
0100
0010
0000
0010
0100
0000
0010
0000
,  // measure 41
0200
0000
0300
0000
,  // measure 42
1001
0000
1000
0000
1010
0000
0001
0000
0100
0001
0100
0000
0010
0000
1000
0000
,  // measure 43
1001
0000
0001
0000
0011
0000
1000
0000
0100
1000
0100
0000
0010
0000
0001
0000
,  // measure 44
1001
0000
1000
0000
1010
0000
0001
0000
0100
0001
0100
0000
0010
0000
1000
0000
,  // measure 45
0100
0000
0010
0000
0001
1000
0001
1000
0010
0000
0100
0000
0001
0000
0010
0000
,  // measure 46
0100
0000
1000
0000
0001
0000
0100
0010
0000
0100
0000
0010
0100
0000
0000
0000
,  // measure 47
0001
1000
0001
1000
0001
0000
0010
0100
0000
0100
0010
0000
0001
0000
1000
0000
,  // measure 48
1001
0000
0001
0000
0011
0000
0100
0000
1000
0001
1000
0000
0010
0000
0100
0000
,  // measure 49
1001
0000
1000
0000
1010
0000
0100
0000
0001
1000
0001
0000
0010
0000
0100
0000
,  // measure 50
1001
0000
0001
0000
0011
0000
0100
0000
1000
0001
1000
0000
0100
0000
0010
0000
,  // measure 51
0110
0000
0000
0000
1001
0000
0000
0010
0100
0000
0010
0000
0100
0000
0000
0000
,  // measure 52
1002
0000
0000
0013
0000
0000
1100
0000
0000
0000
0100
0000
0010
0000
0001
0000
,  // measure 53
2001
0000
0000
3010
0000
0000
0101
0000
0000
0000
0100
0000
0010
0000
1000
0000
,  // measure 54
0001
0001
0001
0001
,  // measure 55
0010
0000
0100
0000
0010
0100
0000
0110
0000
1000
0001
1000
0002
0003
0000
0000
,  // measure 56
1000
0000
0100
0000
0010
0001
0000
0100
0000
0010
0000
0100
0001
0000
0010
0000
,  // measure 57
0001
0000
0100
0000
0010
1000
0000
0100
0000
1000
0000
0010
0100
0000
0001
0000
,  // measure 58
1000
0000
0100
0000
0010
0001
0000
0100
0000
0010
0000
0100
0001
0000
0010
0000
,  // measure 59
0001
0000
0100
0000
0010
1000
0000
0100
0000
0010
0000
0100
1000
0000
0010
0000
,  // measure 60
1000
0001
1000
0001
1000
0000
0100
0010
0100
0010
0100
0000
1000
0001
1000
0001
,  // measure 61
1000
0000
0010
0100
0010
0100
0010
0000
1000
0001
1000
0001
0020
0000
0030
0000
,  // measure 62
0001
1000
0001
1000
0001
0000
0100
0010
0100
0010
0100
0000
0001
1000
0001
1000
,  // measure 63
0002
0000
0023
0000
0230
0000
2300
3000
,  // measure 64
2020
3030
0220
0330
0001
1000
0100
0020
,  // measure 65
0030
0000
0000
0000
;

//---------------dance-single - ----------------
#NOTEDATA:;
#CHARTNAME:;
#STEPSTYPE:dance-single;
#DESCRIPTION:;
#CHARTSTYLE:;
#DIFFICULTY:Medium;
#METER:7;
#RADARVALUES:0.521657,0.503119,0.154806,0.227656,0.177571,401.000000,384.000000,17.000000,25.000000,0.000000,0.000000,0.000000,0.000000,0.000000,0.521657,0.503119,0.154806,0.227656,0.177571,401.000000,384.000000,17.000000,25.000000,0.000000,0.000000,0.000000,0.000000,0.000000;
#CREDIT:;
#NOTES:
0000
0000
0000
0000
,
0000
0000
0000
0000
,
0000
0000
0000
0000
,
0000
0000
0000
0000
,
0001
0001
0001
0001
,
1000
1000
1000
1000
,
0020
0230
0302
1003
,
1001
0110
1001
0110
,
0001
0000
0100
0000
0010
0000
0000
1000
0000
1000
0000
0000
0010
0000
0100
0000
,
0001
0000
0010
0000
0100
0000
0000
1000
0000
1000
0000
0000
0100
0000
0010
0000
,
0001
0000
0100
0000
0010
0000
0000
1000
0000
1000
0000
0000
0010
0000
0100
0000
,
0001
0000
0010
0000
0100
0000
0000
1000
0000
1000
0000
0000
0100
0000
0010
0000
,
0001
0100
1000
1000
0100
0001
0001
0010
,
1000
1000
0010
0001
0001
0100
0020
0030
,
1000
0100
0001
0001
0100
1000
1000
0010
,
0200
0000
0302
0000
0013
0100
1000
0001
,
0000
0000
0000
0000
1000
0010
0100
0001
,
1000
0100
1000
0010
0100
0010
1000
0000
,
0001
0010
0001
0100
0010
0100
0001
0000
,
1000
0100
0010
0100
1000
0010
0100
0000
,
0001
0000
0010
0000
0001
0000
0000
1000
0000
0100
0000
0000
0010
0000
0001
0000
,
1000
0000
0010
0000
0100
0000
0000
0010
0000
0100
0000
0010
0000
0000
1000
0000
,
0001
0010
0100
0010
0100
1000
0001
0000
,
1000
0100
0010
0000
0100
1000
0001
0000
,
0100
0000
0010
0000
0100
0000
0000
0001
0000
1000
0000
0001
0000
0000
0100
0000
,
0001
0000
0010
0000
0100
0000
0000
1000
0000
0100
0000
0000
0010
0000
0001
0000
,
1000
0000
0010
0000
0100
0000
0000
0001
0000
0100
0000
0000
0010
0000
1000
0000
,
0001
0000
0010
0000
0100
0000
0000
1000
0000
0100
0000
0000
0010
0000
0001
0000
,
1000
0010
0100
0001
1001
0000
0001
1000
,
0002
0000
0013
0100
1000
0100
0010
0100
,
2000
0000
3010
0100
0001
0100
0010
1000
,
0200
0000
0310
0001
1000
0010
0100
0001
,
0010
0000
0010
0000
0100
0000
0100
0000
1000
0000
0000
1000
0000
0000
0000
0000
,
1001
0000
0000
1001
0000
0000
0000
0000
1000
0000
0010
0000
0100
0000
0000
0000
,
0001
0010
0001
0010
0001
0010
0100
0000
,
1001
0000
0000
1001
0000
0000
0000
0000
0001
0000
0010
0000
0100
0000
0000
0000
,
1000
0010
1000
0010
1000
0010
0100
0000
,
1001
0000
1001
0000
1000
0010
0100
0000
,
0110
0000
0110
0000
0100
0001
1000
0000
,
1001
0000
1001
0000
0001
0010
0100
0000
,
1000
0000
0000
0010
0000
0000
0001
0000
0000
0010
0000
0000
1000
0000
0100
0000
,
0020
0000
0030
0000
,
0001
0100
0001
0100
0010
1000
0100
0010
,
0001
0100
0001
0100
0010
1000
0100
0010
,
0001
0100
0001
0100
0010
1000
0100
0010
,
0002
0010
2003
3010
,
0100
0001
0010
0100
1000
0010
0100
0000
,
0100
0001
0100
0010
1000
0100
0010
0100
,
1000
0010
1000
0010
0100
0001
0010
0100
,
1000
0010
1000
0010
0100
0001
0010
0100
,
1000
0010
1000
0010
0100
0001
0010
0100
,
1000
0000
0010
0000
0100
0001
0010
0100
,
1000
0000
0000
0010
0000
0000
0202
0000
0000
0000
0303
0000
1000
0000
0000
0000
,
0001
0000
0000
0010
0000
0000
2200
0000
0000
0000
3300
0000
0001
0000
0000
0000
,
1000
1000
1000
1000
,
0100
0000
0010
0000
0100
0010
0000
0020
0000
0000
0000
0000
0030
0000
0000
0000
,
0001
0000
0100
0000
0010
0000
0000
1000
0000
1000
0000
0000
0010
0000
0100
0000
,
0001
0000
0010
0000
0100
0000
0000
1000
0000
1000
0000
0000
0100
0000
0010
0000
,
0001
0000
0100
0000
0010
0000
0000
1000
0000
1000
0000
0000
0010
0000
0100
0000
,
0001
0000
0010
0000
0100
0000
0000
1000
0000
1000
0000
0000
0100
0000
0010
0000
,
0001
0100
1000
1000
0100
0001
0001
0010
,
1000
1000
0010
0001
0001
0100
0020
0030
,
1000
0100
0001
0001
0100
1000
1000
0010
,
0200
0302
0023
0230
,
2300
0000
3020
0000
0130
0001
1000
0200
,
0300
0000
0000
0000
;

//---------------dance-single - ----------------
#NOTEDATA:;
#CHARTNAME:;
#STEPSTYPE:dance-single;
#DESCRIPTION:;
#CHARTSTYLE:;
#DIFFICULTY:Easy;
#METER:5;
#RADARVALUES:0.381161,0.473524,0.091062,0.355143,0.000000,293.000000,283.000000,10.000000,39.000000,0.000000,0.000000,0.000000,0.000000,0.000000,0.381161,0.473524,0.091062,0.355143,0.000000,293.000000,283.000000,10.000000,39.000000,0.000000,0.000000,0.000000,0.000000,0.000000;
#CREDIT:;
#NOTES:
0000
0000
0000
0000
,
0000
0000
0000
0000
,
0000
0000
0000
0000
,
0000
0000
0000
0000
,
1000
1000
1000
1000
,
0001
0001
0001
0001
,
2000
3200
0320
0032
,
1003
1000
1001
1001
,
0001
0000
0001
0000
1000
0010
1000
0000
,
0001
0000
0001
0000
0010
0100
0010
0000
,
0100
0000
0100
0000
1000
0001
1000
0000
,
0010
0000
0010
0000
0100
0001
0100
0000
,
0001
0001
1000
0100
0100
0010
0001
0001
,
1000
0010
0010
0100
0001
0001
2000
3000
,
0001
0001
1000
0100
0100
0010
0001
0001
,
2000
3002
2003
0000
,
3000
0000
0000
0000
,
1000
0000
0001
0000
1000
0100
1000
0000
,
0001
0000
1000
0000
0001
0100
0001
0000
,
0010
0000
0100
0000
1000
0001
1000
0000
,
0010
0000
0100
0000
0001
1000
0001
0000
,
1000
0000
0100
0000
0010
0001
1000
0000
,
0010
0000
0100
0000
0001
1000
0100
0000
,
0010
0000
0001
0000
1000
0010
0100
0000
,
0010
0000
1000
0000
0001
1000
0001
0000
,
0010
0000
0010
0000
0100
1000
0100
0000
,
1000
0000
1000
0000
0001
0100
0001
0000
,
0010
0000
0010
0000
0001
1000
0001
0000
,
0100
0010
0110
0000
,
2000
3100
0010
0001
,
2000
3010
0100
0001
,
2000
3100
0010
0001
,
1000
0010
0100
0000
,
1001
0000
0001
0001
,
1000
0100
1000
0100
1000
0100
1000
0000
,
1001
0000
1000
1000
,
0001
0100
0001
0100
0001
0100
0001
0000
,
1000
0100
0010
0001
,
1000
0010
0100
0001
,
1000
0100
0001
0100
,
2000
3010
0200
0301
,
2000
0000
3000
0000
,
1002
0000
2003
0000
3010
0100
0010
0000
,
2001
0000
3002
0000
0013
0100
0010
0000
,
1002
0000
2003
0000
3010
0100
0010
0000
,
2000
3100
0020
0031
,
2000
0000
3010
0000
0100
0001
0100
0000
,
0002
0000
0013
0000
0100
1000
0100
0000
,
1002
0000
2003
0000
3010
0100
0010
0000
,
2001
0000
3002
0000
0013
0100
0010
0000
,
0002
0103
0020
1030
,
0001
0000
0001
0000
1000
0001
1000
0000
,
0010
0010
0100
0000
,
0001
0001
1000
0000
,
0100
0100
0100
0100
,
1000
1000
2000
3000
,
0001
0000
0001
0000
1000
0010
1000
0000
,
0001
0000
0001
0000
0010
0100
0010
0000
,
0100
0000
0100
0000
1000
0001
1000
0000
,
0010
0000
0010
0000
0100
0001
0100
0000
,
0001
0001
1000
0100
0100
0010
0001
0001
,
1000
0010
0010
0100
0001
0001
2000
3000
,
0001
0001
1000
0100
0100
0010
0001
0001
,
2000
3020
0230
0302
,
2003
3200
0320
0000
,
0030
0000
0000
0000
;
