#TITLE:Sweets (Soda Pop);
#SUBTITLE:;
#ARTIST:Fox Stevenson;
#TITLETRANSLIT:;
#SUBTITLETRANSLIT:;
#ARTISTTRANSLIT:;
#CREDIT:;
#BANNER:Sweets (Soda Pop).png;
#BACKGROUND:Sweets (Soda Pop) - Bg.png;
#LYRICSPATH:;
#CDTITLE:cdtitle.png;
#MUSIC:Sweets (Soda Pop).ogg;
#OFFSET:-1.920;
#SAMPLESTART:52.540;
#SAMPLELENGTH:13.000;
#SELECTABLE:YES;
#BPMS:0.000=128.000;
#STOPS:;
#BGCHANGES:;

//---------------dance-single - ----------------
#NOTES:
     dance-single:
     :
     Hard:
     8:
     0.473,0.607,0.324,0.105,0.333:
0000
0000
0000
0000
,
0000
0000
0000
0000
,
0000
0000
0000
0000
,
1000
0000
0000
0100
1000
0000
0000
0000
0001
0000
0000
0100
0001
0000
0000
0000
,
1000
0000
0000
0100
1000
0000
0000
0000
0001
0000
0000
0100
0001
0000
0000
0000
,
1000
0000
0000
0010
1000
0000
0000
0000
0001
0000
0000
0010
0001
0000
0000
0000
,
1000
0000
0000
0010
1000
0000
0000
0000
0001
0000
0000
0010
0001
0000
0000
0000
,
1000
0000
0000
0001
0100
0000
0001
0000
1000
0000
0000
0001
0100
0000
0001
0000
,
0001
0000
0000
1000
0100
0000
1000
0000
0001
0000
0000
1000
0100
0000
1000
0000
,
1000
0000
0000
0001
0010
0000
0001
0000
1000
0000
0000
0001
0010
0000
0001
0000
,
0001
0000
0000
1000
0010
0000
1000
0000
0001
0000
0000
1000
0010
0000
1000
0000
,
2000
0001
0100
3002
,
0023
0001
0100
0031
,
0200
0001
0010
0301
,
2000
0010
0001
3010
,
0020
1000
0031
2000
,
3200
1000
0010
1300
,
0020
1000
0100
1030
,
0002
0100
1000
0103
,
1001
1100
0101
0011
,
1010
0011
0101
1100
,
0101
0011
1010
0011
,
0101
1100
1001
0110
,
1000
0100
0010
0001
0100
0010
0100
0001
,
0010
0100
1000
0010
0100
0010
1000
0100
,
0010
0000
0001
0010
0000
0001
0010
0000
0001
0010
0000
0001
0010
0000
0001
0010
0000
0001
0010
0000
0001
0010
0000
0001
,
0200
0000
0000
0000
0000
0000
0300
0001
,
1001
0000
0000
0001
1000
0000
0100
0000
0010
0000
0001
0000
0010
0000
0100
0000
,
0000
0100
0000
0000
0010
0000
0000
0010
0000
0000
0001
0000
0100
0000
0010
0000
,
0000
0000
0000
1000
0001
0000
0100
0000
0010
0000
1000
0000
0010
0000
0100
0000
,
0000
0100
0000
0000
0010
0000
0000
0010
0000
0000
1010
0000
0110
0000
0000
0000
,
1001
0000
0000
0100
1000
0000
0001
0000
1000
0000
0010
0000
1000
0000
0001
0000
,
0000
0001
0000
0000
1000
0000
0000
1000
0000
0000
0010
0000
1000
0000
0100
0000
,
0000
0000
0000
0001
1000
0000
0100
0000
1000
0000
0001
0000
1000
0000
0100
0000
,
0000
0100
0000
0000
1000
0000
0000
1000
0000
0000
0001
0000
1000
0000
0010
1000
,
0010
0000
0000
1000
0001
0000
0010
0000
0100
0000
1000
0000
0100
0000
0010
0000
,
0000
0010
0000
0000
0100
0000
0000
0100
0000
0000
1000
0000
0010
0000
0100
0000
,
0000
0000
0000
0001
1000
0000
0010
0000
0100
0000
0001
0000
0100
0000
0010
0000
,
0000
0010
0000
0000
0100
0000
0000
0100
0000
0000
0101
0000
0110
0000
0000
0000
,
1001
0000
0000
0010
0001
0000
1000
0000
0001
0000
0100
0000
0001
0000
1000
0000
,
0000
1000
0000
0000
0001
0000
0000
0001
0000
0000
0100
0000
0001
0000
0010
0000
,
1001
0000
0000
1000
0100
0000
0010
0000
0001
0000
0000
0100
0010
0000
1000
0000
,
0001
0000
0000
1000
0100
0000
0010
0000
0001
0000
0000
0100
0010
0000
1000
0000
,
1001
0000
0000
1000
0100
0000
0000
0100
0010
0000
0000
0010
0001
0000
0000
0001
,
1000
0000
0000
1000
0000
0000
0100
0000
0000
0100
0000
0000
0001
0000
0001
0000
,
1001
0000
0000
0001
0100
0000
0000
0100
0010
0000
0000
0010
1000
0000
0000
0000
,
0001
0000
0000
0001
0000
0000
0010
0000
0011
0000
1001
0000
1010
0000
0000
0000
,
1001
0000
0000
1000
0010
0000
0000
0010
0100
0000
0000
0100
0001
0000
0000
0001
,
1000
0000
0000
1000
0000
0000
0010
0000
0000
0010
0000
0000
0001
0000
0001
0000
,
1001
0000
0000
0001
0010
0000
0000
0010
0100
0000
0000
0100
1000
0000
0000
0000
,
0001
0000
0000
0001
0000
0000
0100
0000
0101
0000
1001
0000
1100
0000
0000
0000
,
0001
0000
0000
0000
;

//---------------dance-single - ----------------
#NOTES:
     dance-single:
     :
     Medium:
     5:
     0.352,0.437,0.247,0.095,0.000:
0000
0000
0000
0000
,
0000
0000
0000
0000
,
0000
0000
0000
0000
,
1000
0001
1000
0001
,
1000
0010
1000
0010
,
1000
0100
1000
0100
,
1000
0000
0001
0000
1000
0000
0001
1000
,
0001
1100
1000
1001
,
0001
0101
0010
1010
,
1000
1001
0001
0011
,
1000
0000
1001
0000
0010
0000
1000
0100
,
2000
0010
3010
1000
,
0002
0010
0010
0013
,
0002
0100
0100
0103
,
0200
0010
0010
0310
,
0002
0100
0103
0001
,
2000
0100
0100
3100
,
2000
0010
0010
3010
,
0020
0100
0100
0130
,
1001
1001
1100
1100
,
0101
0101
1100
1100
,
0110
0110
0011
0011
,
1010
1010
0011
0011
,
1000
0010
1000
0010
1000
0010
1000
0010
,
1000
0001
1000
0001
1000
0001
1000
0001
,
1000
0100
1000
0100
1000
0100
1000
0100
,
2000
0000
0000
3001
,
1001
1000
0100
1000
,
0001
0000
0010
0000
0001
1000
0001
1000
,
0001
1000
0010
1000
,
0001
0000
0100
0000
0001
1000
0001
1000
,
0001
0100
0001
0100
,
0010
0000
1000
0000
0100
0010
0100
0010
,
0100
0100
1000
0100
,
0010
0000
0001
0000
0010
0100
0010
0100
,
0010
0001
0100
1000
,
0100
0000
0001
0000
1000
0100
0010
0100
,
1000
0001
0010
1000
,
0010
0000
0001
0000
1000
0010
0100
0010
,
1000
1000
0100
0001
,
0100
0000
1000
0000
0001
0100
0010
0100
,
0002
0010
1000
0010
,
1000
0010
1000
0013
,
0011
0001
1000
0010
,
1000
0000
0001
0000
0001
0000
0001
0010
,
0001
1000
0010
1000
,
0001
0000
0001
0000
0001
1000
0001
0000
,
1010
1000
0001
0010
,
0001
0000
1000
0000
1000
0000
1000
0010
,
1000
0001
0010
0001
,
1000
0000
1000
0000
1000
0001
1000
0000
,
0010
0000
0000
0000
;

//---------------dance-single - ----------------
#NOTES:
     dance-single:
     :
     Easy:
     4:
     0.224,0.437,0.228,0.105,0.000: // measure 1
0000
0000
0000
0000
,  // measure 2
0000
0000
0000
0000
,  // measure 3
0000
0000
0000
0000
,  // measure 4
1000
0000
0001
0000
,  // measure 5
1000
0000
0001
0000
,  // measure 6
0010
0000
0100
0000
,  // measure 7
0010
0000
0100
0000
,  // measure 8
1000
1000
0001
0001
,  // measure 9
1000
1000
0001
0001
,  // measure 10
0010
0010
0100
0100
,  // measure 11
0010
0010
0100
0100
,  // measure 12
2000
0000
0000
0000
,  // measure 13
0020
0000
0000
3030
,  // measure 14
0002
0000
0000
0000
,  // measure 15
0020
0000
0000
0033
,  // measure 16
2000
0000
0000
0000
,  // measure 17
0002
0000
0000
3003
,  // measure 18
0020
0000
0000
0000
,  // measure 19
0200
0000
0000
0330
,  // measure 20
1001
1001
1001
1001
,  // measure 21
0110
0110
0110
0110
,  // measure 22
1001
1001
1001
1001
,  // measure 23
0110
0110
0110
0110
,  // measure 24
2001
0000
0100
0000
,  // measure 25
0100
0000
3100
0000
,  // measure 26
1002
0000
0100
0000
,  // measure 27
0103
0000
0000
0000
,  // measure 28
1001
0000
0001
0010
,  // measure 29
0100
1000
0010
0100
,  // measure 30
0001
0000
1000
0100
,  // measure 31
0010
0001
0100
0010
,  // measure 32
1000
0000
0001
0100
,  // measure 33
0010
1000
0100
0010
,  // measure 34
0001
0000
1000
0010
,  // measure 35
0100
0001
0010
0100
,  // measure 36
1100
0000
0001
0100
,  // measure 37
0001
1000
0010
1000
,  // measure 38
0001
0000
1000
0100
,  // measure 39
1000
0001
0010
0001
,  // measure 40
1000
0000
0100
1000
,  // measure 41
0100
0010
0001
0010
,  // measure 42
0200
0000
0000
0000
,  // measure 43
0000
0000
0000
0300
,  // measure 44
0110
0000
0010
0000
,  // measure 45
0001
0001
0001
0001
,  // measure 46
1001
0000
1000
0000
,  // measure 47
0100
0100
0100
0100
,  // measure 48
0110
0000
0010
0000
,  // measure 49
0001
0001
0001
0001
,  // measure 50
1001
0000
1000
0000
,  // measure 51
0100
0100
0100
0100
,  // measure 52
0010
0000
0000
0000
;
