#TITLE:Sugar Rush;
#SUBTITLE:;
#ARTIST:Nanobii;
#TITLETRANSLIT:;
#SUBTITLETRANSLIT:;
#ARTISTTRANSLIT:;
#GENRE:EDM;
#CREDIT:;
#BANNER:Sugar_Rush_Banner.png;
#BACKGROUND:Sugar_Rush_Background.png;
#LYRICSPATH:;
#CDTITLE:;
#MUSIC:Sugar_Rush.ogg;
#OFFSET:-0.020000;
#SAMPLESTART:67.759964;
#SAMPLELENGTH:12.000000;
#SELECTABLE:YES;
#DISPLAYBPM:170.000000;
#BPMS:0.000000=170.000000
,127.000000=255.000000
,128.000000=170.000000
,199.000000=255.000000
,199.750000=85.000000
,200.000000=170.000000
,207.000000=255.000000
,207.750000=85.000000
,208.000000=170.000000
,223.000000=255.000000
,223.750000=85.000000
,224.000000=170.000000
,231.000000=255.000000
,231.750000=85.000000
,232.000000=170.000000
,287.000000=255.000000
,287.750000=85.000000
,288.000000=170.000000
;
#STOPS:127.000000=0.118000
;
#BGCHANGES:;
#KEYSOUNDS:;
#ATTACKS:;

//---------------dance-single - ----------------
#NOTES:
     dance-single:
     :
     Hard:
     10:
     0.673559,0.874695,0.445217,0.401425,0.131375,646.000000,585.000000,61.000000,55.000000,37.000000,0.000000,0.673559,0.874695,0.445217,0.401425,0.131375,646.000000,585.000000,61.000000,55.000000,37.000000,0.000000:
0000
0000
0000
0000
,
0000
0000
0000
0000
,
0000
0000
0000
0000
,
0000
0000
0000
0000
,
2000
0000
0000
3000
0200
0000
0000
0300
0020
0000
0000
0030
0002
0000
0000
0000
,
0000
0000
0000
0000
0003
1000
0100
2000
,
0000
0000
3000
0000
0000
0001
0010
0100
,
0010
0000
0001
0000
0010
0000
0001
0000
1000
0000
0100
0000
1000
0000
0001
0100
,
0001
1000
0010
0100
0001
0010
0001
1000
,
0010
1000
0100
0010
0001
0100
0010
1000
,
0001
1000
0010
0100
0010
1000
0100
0010
,
0100
1000
0001
0100
0010
0100
0001
0010
,
0001
0100
0010
1000
0100
1000
0001
0010
,
0001
0100
0010
0100
0001
0010
0100
0010
,
0001
1000
0010
1000
0100
0010
0100
1000
,
0001
0100
0001
0100
0010
1000
0010
1000
,
0002
0023
0230
0320
,
0230
2300
3020
0230
,
0320
0000
0000
0000
,
0000
0000
0030
0000
,
2000
3200
0320
0032
,
0000
0000
0000
0000
0003
0010
0100
2000
,
0000
0000
0000
3000
00M0
0M01
M010
020M
,
00M0
M000
0000
0000
00M0
M000
M000
0000
M000
0000
03M0
0000
000M
0000
1000
0100
,
0020
M000
0M30
0000
0001
0000
0000
0000
0100
0000
0000
0000
0010
0000
0000
0000
,
1000
0100
1000
0100
,
0010
0001
0100
0001
,
0010
0001
1000
0010
,
1000
0100
0010
0001
,
1000
0001
0010
0001
,
0100
0010
1000
0001
0010
0100
0010
0001
,
1000
0010
0100
0001
0100
M001
0101
0000
,
2002
0000
3003
2200
0000
3300
0220
0000
,
0000
0000
0000
0000
0000
0000
0000
0000
0330
0000
0000
0000
0010
0001
0010
0000
,
0022
0000
0033
2002
0000
3003
2020
0000
,
0000
0000
0000
0000
0000
0000
0000
0000
0000
0000
3030
0000
1000
0100
0010
0001
,
2000
0000
3000
0200
0000
0300
0020
0000
,
0000
0000
0000
0000
0000
0130
0010
0001
,
2000
0000
0000
0010
0000
0000
0010
0000
,
0000
0010
0000
0000
3001
0000
0010
0100
,
0020
0000
0000
0100
0000
0000
0100
0000
,
0000
0100
0000
0000
0031
0000
1000
0010
,
0200
0000
0000
0001
0000
0000
0001
0000
,
0000
0301
0020
0000
0032
0000
0203
0000
,
0310
1000
0001
0010
0100
0010
0100
1000
,
0010
0100
0010
1000
0001
0010
0100
0010
,
0001
0010
0100
1000
0100
0010
0001
0100
0010
0100
0001
0010
0100
1000
0010
1000
,
0010
0000
0000
0000
0100
0000
0000
0000
0001
0010
0000
0001
0000
0100
0010
0000
,
1000
0010
1010
1000
0100
0010
0110
0100
,
1000
0001
1001
1000
0100
0010
M011
0000
,
1000
0001
1001
1000
0010
0100
0110
0010
,
0100
0001
0101
0100
0001
0010
M011
0000
,
0001
0100
0110
0010
1000
0100
1100
1000
,
0001
1000
1001
0001
0100
0001
0101
0100
,
0010
1000
1010
0010
1000
0001
1001
1000
,
0010
0100
0110
0010
1000
0100
M011
0000
,
1000
0010
0110
0100
0001
0010
0011
0001
,
1000
0001
1001
1000
0100
0010
M110
0000
,
1000
0100
1100
1000
0010
0100
0101
0001
,
0010
0100
1100
1000
0001
0010
0011
0001
,
1000
0001
1001
1000
0010
1000
1010
0010
,
1000
0001
1001
1000
0001
0010
0001
1000
,
0020
0030
0100
0002
0003
0010
0200
0300
,
1000
0000
0001
0000
0010
0000
0001
0010
0001
1000
0000
0001
0000
0100
0010
0000
,
1000
0001
1001
1000
0010
0100
0110
0010
,
1000
0100
1100
1000
0001
0100
0101
0001
,
0010
0100
0110
0010
0001
0010
0011
0001
,
1000
0010
1010
1000
0100
1000
1100
0100
,
0010
0100
0110
0010
0001
1000
1001
0001
,
0100
0010
1010
1000
0100
0010
0011
0001
,
1000
0001
1001
1000
0010
1000
1010
0010
,
0100
0001
0101
0100
0001
1000
1MM1
0000
,
0001
0010
0011
0001
1000
0010
1010
1000
,
0100
0010
0011
0001
0010
0100
1100
1000
,
0010
0100
0110
0010
1000
0001
1001
1000
,
0010
0100
0101
0001
0100
0001
1001
0000
,
2200
0000
3300
0022
0000
0033
2002
0000
,
0000
0000
0000
3003
0000
1000
0010
0100
,
0002
0000
0003
2000
0000
3000
0200
0000
,
1300
0001
1000
0001
0100
0010
0100
0010
1000
0000
0100
0000
0010
0000
0100
0000
,
1000
0010
1000
0100
0010
0001
0100
0010
,
1000
0001
0100
0001
0010
0100
0010
0001
,
1000
0100
1000
0010
0100
0010
1000
0001
,
0010
0100
1000
0010
0100
0001
0010
0001
,
1000
0010
1000
0100
1000
0010
0100
0001
,
0010
0100
1000
0100
0010
0001
0100
0001
,
1000
0000
0100
0000
1000
0000
0010
0000
010M
0000
001M
000M
1000
0M00
0M01
0M00
,
20M0
0000
0M00
00M0
3001
00M0
0M00
00M0
0000
00M0
0M00
00M0
100M
0000
0001
0010
,
0100
1000
0001
1000
0010
0100
0010
0100
,
0001
0010
0001
0010
0100
1000
0100
1000
,
0010
0100
0001
0100
0010
1000
0100
0010
,
0001
0010
0100
0010
0100
1000
0010
1000
,
0001
0010
0001
1000
0100
1000
0010
0100
,
0001
1000
0100
0010
0001
0100
0001
0010
,
0001
0100
0010
0100
0010
1000
0100
1000
,
0010
0100
0010
0100
0001
0010
0100
1000
;

//---------------dance-single - ----------------
#NOTES:
     dance-single:
     :
     Challenge:
     12:
     0.835172,1.154598,0.189764,0.423321,0.824745,801.000000,775.000000,26.000000,58.000000,37.000000,0.000000,0.835172,1.154598,0.189764,0.423321,0.824745,801.000000,775.000000,26.000000,58.000000,37.000000,0.000000:
0000
0000
0000
0000
,
0000
0000
0000
0000
,
0000
0000
0000
0000
,
0000
0000
0000
0000
,
2000
0000
0000
3000
0200
0000
0000
0300
0020
0000
0000
0030
0002
0000
0000
0000
,
0000
0000
0000
0000
0003
1000
0100
2000
,
0000
0000
3000
0000
0000
0001
0010
0100
,
0010
0000
0001
0000
0010
0000
0001
0000
1000
0000
0100
0000
1000
0000
0001
0100
,
0001
1000
0010
0100
0001
0010
0001
1000
,
0010
1000
0100
0010
0001
0100
0010
1000
,
0001
1000
0010
0100
0010
1000
0100
0010
,
0100
1000
0001
0100
0010
0100
0001
0010
,
0001
0100
0010
1000
0100
1000
0001
0010
,
0001
0100
0010
0100
0001
0010
0100
0010
,
0001
1000
0010
1000
0100
0010
0100
1000
,
0001
0100
0001
0100
0010
1000
0010
1000
,
0002
0023
0230
0320
,
0230
2300
3020
0230
,
0340
0000
0000
0000
,
0000
0000
0000
0030
,
2000
3200
0320
0032
,
0000
0000
0000
0000
0003
0010
0100
2000
,
0000
0000
0000
3000
00M0
0M01
M010
020M
,
00M0
M000
0000
0000
00M0
M000
M000
0000
M000
0000
03M0
0000
000M
0000
1000
0100
,
0020
M000
0M30
0000
0001
0000
0000
0000
0100
0000
0000
0000
0010
0000
0000
0000
,
1000
0100
1000
0100
,
0010
0001
0100
0001
,
0010
0001
1000
0010
,
1000
0100
0010
0001
,
1000
0001
0010
0001
,
0100
0010
1000
0001
0010
0100
0010
0001
,
1000
0010
0100
0001
0100
M001
0101
0000
,
2002
0000
3003
2200
0000
3300
0220
0000
,
0000
0000
0000
0000
0000
0000
0000
0000
0330
0000
0000
0000
0010
0001
0010
0000
,
0022
0000
0033
2002
0000
3003
2020
0000
,
0000
0000
0000
0000
0000
0000
0000
0000
0000
0000
3030
0000
1000
0100
0010
0001
,
2000
0000
3000
0200
0000
0300
0020
0000
,
0000
0000
0000
0000
0000
0130
0010
0001
,
2000
0000
0000
0010
0000
0000
0010
0000
,
0000
0010
0000
0000
3001
0000
0010
0100
,
0020
0000
0000
0100
0000
0000
0100
0000
,
0000
0100
0000
0000
0031
0000
1000
0010
,
0200
0000
0000
0001
0000
0000
0001
0000
,
0000
0301
0020
0000
0032
0000
0203
0000
,
0310
1000
0001
0010
0100
0010
0100
1000
,
0010
0100
0010
1000
0001
0010
0100
0010
,
0001
0010
0100
1000
0100
0010
0001
0100
0010
0100
0001
0010
0100
1000
0010
1000
,
0010
0000
0000
0000
0100
0000
0000
0000
0001
0010
0000
0001
0000
0100
0010
0000
,
1000
0010
1000
0010
0100
0001
1000
0100
0010
0001
0010
0100
1000
0001
0010
0001
,
1000
0100
0010
0001
1000
0010
0100
0001
0010
0001
0010
0100
2000
0000
300M
0000
,
0010
0100
0010
0100
0001
0010
0100
0010
0001
1000
0010
0100
0001
0010
0001
1000
,
0010
1000
0100
0010
0100
1000
0001
0100
0010
1000
0100
0010
M002
0000
0003
0000
,
0100
0001
0100
0001
0010
0100
0010
0001
1000
0010
0100
0001
1000
0100
1000
0010
,
0100
0001
1000
0001
0010
0100
0010
0001
0100
0010
1000
0100
0010
0100
1000
0010
,
1000
0001
0100
0001
0010
0100
0010
0001
0100
0010
1000
0100
0010
0001
1000
0010
,
1000
0010
0100
0001
0010
0001
0010
0100
1000
0010
0100
0001
M020
0000
0030
0000
,
0001
1000
0001
1000
0010
1000
0100
0010
0001
0100
0010
1000
0100
1000
0001
0100
,
0001
0010
0100
0010
0001
0100
0010
0100
0001
0010
0001
0010
M200
0000
0300
0000
,
0010
0001
0010
0001
0100
0010
0100
0001
0010
0100
0010
0001
1000
0010
0100
0010
,
0100
0001
0100
0001
0010
0100
1000
0100
0010
0001
0100
0010
1000
0001
0100
0010
,
0100
0001
1000
0010
1000
0100
0010
0100
1000
0010
0100
0001
0100
0010
1000
0100
,
1000
0100
0010
0001
1000
0010
1000
0100
,
0020
0030
0100
2000
3000
0010
0200
0300
,
0001
0000
1000
0000
0001
0000
1000
0010
1000
0100
0000
0010
0000
0100
0010
0000
,
0001
0010
0001
1000
0100
1000
0100
0010
0100
1000
0010
0100
0001
0010
0100
0010
,
0001
0100
0010
0100
0001
0010
0100
1000
0100
0010
0001
1000
0010
0100
0001
0100
,
0010
1000
0001
0100
0010
1000
0100
1000
0001
0100
0010
1000
0001
0100
0001
0010
,
0100
1000
0100
1000
0010
0100
0001
0100
0001
0010
0100
0010
0001
1000
0010
0100
,
0010
1000
0100
1000
0010
0100
0010
0100
0001
0010
0001
0010
0100
1000
0100
0010
,
0001
1000
0010
0100
0001
0100
0010
1000
0001
1000
0001
0010
0100
0010
0001
1000
,
0100
0010
0100
1000
0001
0100
0010
1000
0001
1000
0100
0010
0001
0010
0100
1000
,
0001
0100
0001
0010
0001
0100
0010
0100
0001
0000
1000
0000
1MM1
0000
0000
0000
,
0001
0010
0100
1000
0100
0010
0001
1000
0100
1000
0001
0100
0001
1000
0010
0100
,
0001
0100
0010
1000
0100
1000
0001
0010
0001
0010
0100
1000
0100
0010
0001
0100
,
0010
0100
0001
0010
0001
1000
0010
1000
0100
0010
0100
1000
0001
0100
0001
0100
,
0010
1000
0010
1000
0100
0010
0001
1000
0100
0010
0100
0010
0001
0000
0000
0000
,
2200
0000
3300
0022
0000
0033
2002
0000
,
0000
0000
0000
3003
0000
1000
0010
0100
,
0102
0000
0003
2000
0000
3000
0200
0000
,
1300
0001
1000
0001
0100
0010
0100
0010
1000
0100
0010
0001
0010
0100
1000
0001
,
1000
0010
1010
1000
0100
0010
0011
0001
,
0100
0010
0110
0100
0001
1000
1001
0001
,
0010
0100
1100
1000
0010
0100
0110
0010
,
1000
0100
1100
1000
0001
1000
1001
0001
,
0010
0001
0011
0010
0100
1000
1100
0100
,
0010
0001
1001
1000
0010
0100
0101
0001
,
0010
0000
0100
0000
1100
0000
1000
0000
001M
0000
100M
000M
1010
0M00
0M10
0M00
,
200M
0000
0M00
00M0
3001
00M0
0M00
00M0
0000
00M0
0M00
00M0
100M
0000
0001
0010
,
0100
1000
0001
1000
0010
0100
0010
0100
,
0001
0010
0001
0010
0100
1000
0100
1000
,
0010
0100
0001
0100
0010
1000
0100
0010
,
0001
0010
0100
0010
0100
1000
0010
1000
,
0001
0010
0001
1000
0100
1000
0010
0100
,
0001
1000
0100
0010
0001
0100
0001
0010
,
0001
0100
0010
0100
0010
1000
0100
1000
,
0010
0100
0010
0100
0001
0010
0100
1000
;

//---------------dance-single - ----------------
#NOTES:
     dance-single:
     :
     Medium:
     8:
     0.577635,0.629781,0.080285,0.364932,0.058389,554.000000,543.000000,11.000000,50.000000,39.000000,0.000000,0.577635,0.629781,0.080285,0.364932,0.058389,554.000000,543.000000,11.000000,50.000000,39.000000,0.000000:
0000
0000
0000
0000
,
0000
0000
0000
0000
,
0000
0000
0000
0000
,
0000
0000
0000
0000
,
2000
0000
0000
3000
0200
0000
0000
0300
0020
0000
0000
0030
0002
0000
0000
0000
,
0000
0000
0000
0000
0003
1000
0100
2000
,
0000
0000
3000
0000
0000
0001
0010
0100
,
0010
0000
0001
0000
0010
0000
0001
0000
1000
0000
0100
0000
1000
0000
0001
0100
,
0001
1000
0010
0100
0001
0010
0001
1000
,
0010
1000
0100
0010
0001
0100
0010
1000
,
0001
1000
0010
0100
0010
1000
0100
0010
,
0100
1000
0001
0100
0010
0100
0001
0010
,
0001
0100
0010
1000
0100
1000
0001
0010
,
0001
0100
0010
0100
0001
0010
0100
0010
,
0001
1000
0010
1000
0100
0010
0100
1000
,
0001
0100
0001
0100
0010
1000
0010
1000
,
0002
0000
0000
0000
,
0000
0000
0000
0000
,
0000
0000
0000
0000
,
0000
0000
0000
0003
,
2000
3200
0320
0032
,
0000
0000
0000
0000
0003
0010
0100
2000
,
0000
0000
0000
3000
00M0
0M01
M010
020M
,
00M0
M000
0000
0000
00M0
M000
M000
0000
M000
0000
03M0
0000
000M
0000
1000
0100
,
0020
M000
0M30
0000
0001
0000
0000
0000
0100
0000
0000
0000
0010
0000
0000
0000
,
1000
0100
1000
0100
,
0010
0001
0100
0001
,
0010
0001
1000
0010
,
1000
0100
0010
0001
,
1000
0001
0010
0001
,
0100
0010
1000
0001
0010
0100
0010
0001
,
1000
0010
0100
0001
0100
M001
0101
0000
,
2002
0000
3003
2200
0000
3300
0220
0000
,
0000
0000
0000
0000
0000
0000
0000
0000
0330
0000
0000
0000
M000
M000
M000
0000
,
0022
0000
0033
2002
0000
3003
2020
0000
,
0000
0000
0000
0000
0000
3030
1000
0010
,
2000
0000
3000
0200
0000
0300
0020
0000
,
0000
0000
0000
0000
0000
0130
0010
0001
,
2000
0000
0000
0010
0000
0000
0010
0000
,
0000
0010
0000
0000
3001
0000
0010
0100
,
0020
0000
0000
0100
0000
0000
0100
0000
,
0000
0100
0000
0000
0031
0000
1000
0010
,
0200
0000
0000
0001
0000
0000
0001
0000
,
0000
0301
0020
0000
0032
0000
0203
0000
,
0310
1000
0001
0010
0100
0010
0100
1000
,
0010
0100
0010
1000
0001
0010
0100
0010
,
0004
0040
0000
0000
0000
0000
0000
0000
0000
0000
0000
0000
0000
0000
0003
0000
,
0031
0100
0010
1000
,
0001
0010
0100
1000
0100
0010
0100
1000
,
0001
0010
0001
1000
0010
1000
0200
0000
,
1300
0001
0100
0010
0100
0001
0010
0100
,
0010
0001
0100
0010
1000
0010
M200
0000
,
0301
0010
0001
1000
0010
1000
0100
0010
,
0100
1000
0001
1000
0100
0010
0001
0100
,
0001
1000
0100
1000
0001
1000
0001
1000
,
0010
0100
0110
0000
0000
1000
1MM1
0000
,
1000
0100
0010
0100
1000
0010
0100
0001
,
1000
0010
1000
0100
0010
0001
M200
0000
,
0301
0010
0100
1000
0001
0010
0001
0100
,
0001
1000
0010
0100
0010
1000
0100
0010
,
0100
0010
0001
0100
0001
1000
0100
1000
,
0010
0100
0001
0010
0100
1000
0100
0010
,
0001
0000
0020
0031
0000
0200
0310
0000
,
0200
0301
0010
0002
0000
0000
0000
0000
,
1003
0010
1000
0001
0100
0001
0010
0100
,
0010
0001
1000
0010
1000
0100
0010
0001
,
0100
0010
0100
0001
0010
0100
1000
0010
,
0100
0001
0100
0001
0010
0100
0010
0001
,
1000
0100
0010
0100
1000
0010
0100
0001
,
0010
0001
0100
0010
1000
0001
0100
0001
,
0010
0100
0010
0001
1000
0001
0100
0001
,
1000
0010
0100
0010
1000
0100
110M
0000
,
1000
0001
1000
0010
0100
0010
1000
0100
,
0010
0001
0100
0010
1000
0010
0100
0010
,
1000
0100
0010
0100
1000
0001
0100
0010
,
0100
0001
0010
0100
0010
0001
0100
0010
,
2000
0000
3000
0002
0000
0003
2002
0000
,
0000
0000
0000
3003
0000
1000
0010
0100
,
0002
0000
0003
2000
0000
3000
0200
0000
,
1300
0010
1000
0010
0100
0001
0100
0001
,
1000
0010
1000
0100
0010
0001
0100
0010
,
1000
0001
0100
0001
0010
0100
0010
0001
,
1000
0100
1000
0010
0100
0010
1000
0001
,
0010
0100
1000
0010
0100
0001
0010
0001
,
1000
0010
1000
0100
1000
0010
0100
0001
,
0010
0100
1000
0100
0010
0001
0100
0001
,
1000
0000
0100
0000
1000
0000
0010
0000
010M
0000
001M
000M
1000
0M00
0M01
0M00
,
20M0
0000
0M00
00M0
3001
00M0
0M00
00M0
0000
00M0
0M00
00M0
100M
0000
0001
0010
,
0200
0000
1300
0001
1000
0010
0100
0010
,
0100
0001
0010
0001
0010
0100
1000
0100
,
1000
0010
0100
0001
0100
0010
1000
0100
,
0010
0001
0010
0100
0010
0100
1000
0010
,
1000
0001
0010
0001
1000
0100
1000
0010
,
0100
0001
1000
0100
0010
0001
0100
0001
,
0010
0001
0100
0010
0100
0010
1000
0100
,
1000
0010
0100
0010
0100
0001
0010
0001
;

//---------------dance-single - ----------------
#NOTES:
     dance-single:
     :
     Easy:
     4:
     0.315926,0.384364,0.058389,0.321140,0.032844,303.000000,295.000000,8.000000,44.000000,26.000000,0.000000,0.315926,0.384364,0.058389,0.321140,0.032844,303.000000,295.000000,8.000000,44.000000,26.000000,0.000000:
0000
0000
0000
0000
,
0000
0000
0000
0000
,
0000
0000
0000
0000
,
0000
0000
0000
0000
,
1000
0100
0010
0001
,
0000
0000
0000
0000
0000
0100
0010
0100
,
0000
0000
0000
0000
0000
0001
0010
0002
,
0000
0000
0000
0000
0000
0000
0003
0010
,
0100
1000
0001
0100
,
0001
1000
0100
0010
,
0001
0010
0001
0100
,
0010
1000
0100
1000
,
0010
0100
0010
1000
,
0001
0010
0100
0010
,
0001
1000
0001
0100
,
0010
0100
0001
1000
,
0002
0000
0000
0000
,
0000
0000
0000
0000
,
0000
0000
0000
0000
,
0000
0000
0000
0003
,
1000
0100
0010
0001
,
0000
0000
0000
0000
0000
0010
0100
0010
,
0000
0000
0000
0000
0000
0001
0010
0200
,
0000
0000
0000
0000
0000
0300
0000
1000
,
0010
0100
0010
0100
,
0001
0010
0100
0010
,
0001
1000
0100
1000
,
0001
0010
0001
0100
,
0010
1000
0100
0010
,
0100
1000
0010
0100
,
0002
2003
3020
0230
,
0302
0000
0023
0000
0230
000M
1300
0000
,
2002
3003
0000
2002
3003
0000
0220
0000
,
0000
0000
0000
0000
0000
0000
0000
0000
0330
0000
0000
0000
M000
M000
M000
0000
,
0220
0330
0000
0220
0330
0000
2002
0000
,
0000
0000
3003
1000
,
0200
0300
0000
0020
0030
0000
0002
0000
,
0000
0000
0000
0000
0003
0000
0020
0030
,
0001
0000
0000
0100
0000
0000
0001
0000
,
0000
1000
0000
0000
0100
0000
0010
0000
,
0001
0000
0000
0100
0000
0000
0001
0000
,
0000
0010
0000
0000
0001
0000
1000
0000
,
0010
0000
0000
0100
0000
0000
0010
0000
,
0000
0000
2000
3000
0002
0003
0200
0300
,
0010
1000
0100
0010
,
0001
0010
0100
1000
,
0002
0000
0000
0000
,
1003
0000
0010
1000
,
0001
0100
0010
0100
,
0001
0010
0001
2M00
,
3001
0100
0010
0100
,
0001
1000
0100
M020
,
0031
0100
0001
1000
,
0100
1000
0100
0010
,
0001
0010
0001
0100
,
0010
1000
0001
1MM1
,
1000
0010
0100
0010
,
1000
0100
0010
020M
,
1300
0100
1000
0010
,
0100
0001
0100
0010
,
0100
0001
0010
0100
,
0010
0001
1000
0100
,
1000
0000
0000
0010
0000
0000
0100
0000
,
0000
0002
0000
0000
0000
0000
0000
0000
,
1003
0010
1000
0001
,
0010
0100
1000
0010
,
0100
0001
0010
0001
,
0100
0010
1000
0010
,
1000
0100
0010
0100
,
1000
0001
0100
0001
,
0010
0100
0010
0001
,
0100
0010
1000
020M
,
1300
0010
0100
0010
,
1000
0100
0010
0001
,
0010
0100
1000
0010
,
0100
0010
1000
0100
,
2000
0000
3000
0002
0000
0003
2002
0000
,
0000
0000
0000
3003
0000
0000
1000
0000
,
0002
0000
0003
0020
0000
0030
0200
0000
,
1300
1000
0001
0001
,
0100
0010
0100
0001
,
0010
0100
0010
0100
,
1000
0010
0100
0001
,
0100
0010
1000
0100
,
1000
0010
0100
0001
,
0010
0001
1000
0100
,
1000
0000
0000
0000
0010
0000
0000
0000
M100
0000
M000
M000
0001
0M00
0M00
0M00
,
20M0
0000
0M00
00M0
3001
00M0
0M00
00M0
0000
00M0
0M00
00M0
1M00
0000
0000
0000
,
0200
1300
0000
0010
,
0000
0100
0000
0001
,
0000
0100
0000
0001
,
0000
0010
0000
0100
,
0000
0010
0000
0001
,
0000
1000
0000
0010
,
0000
0100
0000
0001
,
0000
1000
0000
0001
;

//---------------dance-single - ----------------
#NOTES:
     dance-single:
     :
     Beginner:
     2:
     0.153271,0.243957,0.029195,0.189764,0.032844,147.000000,143.000000,4.000000,26.000000,26.000000,0.000000,0.153271,0.243957,0.029195,0.189764,0.032844,147.000000,143.000000,4.000000,26.000000,26.000000,0.000000:
// measure 0
0000
0000
0000
0000
,  // measure 1
0000
0000
0000
0000
,  // measure 2
0000
0000
0000
0000
,  // measure 3
0000
0000
0000
0000
,  // measure 4
1000
0000
0000
0000
,  // measure 5
0001
0000
0000
0000
,  // measure 6
0010
0000
0000
0000
,  // measure 7
0100
0000
0000
0000
,  // measure 8
1000
0000
0000
0000
,  // measure 9
0010
0000
0000
0000
,  // measure 10
0100
0000
0000
0000
,  // measure 11
0001
0000
0000
0000
,  // measure 12
0100
0000
0000
0000
,  // measure 13
0001
0000
0000
0000
,  // measure 14
0010
0000
0000
0000
,  // measure 15
0100
0000
0000
0000
,  // measure 16
2000
0000
0000
0000
,  // measure 17
3000
0000
0000
0000
,  // measure 18
0000
0000
0000
0000
,  // measure 19
0000
0000
0000
0000
,  // measure 20
0001
0000
0000
0000
,  // measure 21
1000
0000
0000
0000
,  // measure 22
0100
0000
0000
0000
,  // measure 23
1000
0000
0000
0000
,  // measure 24
0001
0000
0100
0000
,  // measure 25
0010
0000
1000
0000
,  // measure 26
0100
0000
0010
0000
,  // measure 27
0001
0000
1000
0000
,  // measure 28
0001
0000
0100
0000
,  // measure 29
0010
0000
1000
0000
,  // measure 30
0002
0000
0023
0000
,  // measure 31
0230
0000
0000
0000
2300
00M0
3001
0000
,  // measure 32
2002
0000
3003
0220
,  // measure 33
0000
0000
0000
0000
0000
0000
0000
0000
0330
0000
0000
0000
M000
M000
M000
0000
,  // measure 34
0220
0000
0330
2002
,  // measure 35
0000
0000
3003
1000
,  // measure 36
0200
0000
0300
2000
,  // measure 37
0000
0000
0000
0000
3000
0000
0020
0030
,  // measure 38
0200
0000
0000
0000
,  // measure 39
0000
0000
0000
0000
,  // measure 40
0320
0000
0000
0000
,  // measure 41
0000
0000
0000
0000
,  // measure 42
2030
0000
0000
0000
,  // measure 43
0000
0000
0000
0000
,  // measure 44
3001
0000
0001
0000
,  // measure 45
0010
0000
0010
0000
,  // measure 46
0002
0000
0000
0000
,  // measure 47
1003
0000
0010
0000
,  // measure 48
0100
0000
0001
0000
,  // measure 49
0010
0000
0100
000M
,  // measure 50
1000
0000
0010
0000
,  // measure 51
0100
0000
0001
M000
,  // measure 52
0010
0000
0001
0000
,  // measure 53
0100
0000
0010
0000
,  // measure 54
1000
0000
0001
0000
,  // measure 55
1000
0000
0001
0MM0
,  // measure 56
1000
0000
0100
0000
,  // measure 57
0010
0000
0001
0M00
,  // measure 58
1000
0000
0001
0000
,  // measure 59
0100
0000
0001
0000
,  // measure 60
0010
0000
0100
0000
,  // measure 61
0010
0000
0001
0000
,  // measure 62
2000
0000
0000
0000
,  // measure 63
3001
0000
0000
0000
,  // measure 64
1000
0000
0010
0000
,  // measure 65
1000
0000
0001
0000
,  // measure 66
0010
0000
0001
0000
,  // measure 67
1000
0000
0100
0000
,  // measure 68
1000
0000
0001
0000
,  // measure 69
0100
0000
0001
0000
,  // measure 70
0010
0000
0100
0000
,  // measure 71
0010
0000
0001
M000
,  // measure 72
0010
0000
0100
0000
,  // measure 73
1000
0000
0010
0000
,  // measure 74
0100
0000
0001
0000
,  // measure 75
0010
0000
0100
0000
,  // measure 76
2000
0000
3000
0002
,  // measure 77
0000
0000
0000
0003
0000
0000
0100
0000
,  // measure 78
0020
0000
0030
0200
,  // measure 79
0000
0000
0000
0000
,  // measure 80
0301
0000
0010
0000
,  // measure 81
0100
0000
0010
0000
,  // measure 82
0001
0000
1000
0000
,  // measure 83
0010
0000
0100
0000
,  // measure 84
0001
0000
1000
0000
,  // measure 85
0100
0000
0010
0000
,  // measure 86
0001
0000
0000
0000
0000
0000
0000
0000
M010
0000
M000
M000
0000
0M00
0M00
0M00
,  // measure 87
00M2
0000
0M00
00M0
0000
00M0
0M00
00M0
0000
00M0
0M00
00M0
1M03
0000
0000
0000
,  // measure 88
0100
0000
0010
0000
,  // measure 89
0100
0000
1000
0000
,  // measure 90
0010
0000
0100
0000
,  // measure 91
0001
0000
0010
0000
,  // measure 92
0001
0000
1000
0000
,  // measure 93
0010
0000
1000
0000
,  // measure 94
0100
0000
0010
0000
,  // measure 95
0001
0000
1000
0000
;
