#VERSION:0.83;
#TITLE:Shakawkaw;
#SUBTITLE:;
#ARTIST:Infected Mushroom;
#TITLETRANSLIT:;
#SUBTITLETRANSLIT:;
#ARTISTTRANSLIT:;
#GENRE:;
#ORIGIN:;
#CREDIT:;
#BANNER:[Food Week] - Shakawkaw.png;
#BACKGROUND:[Food Week] - Shakawkaw-bg.png;
#PREVIEWVID:;
#JACKET:[Food Week] - Shakawkaw-jacket.png;
#CDIMAGE:;
#DISCIMAGE:;
#LYRICSPATH:;
#CDTITLE:cdtitle.png;
#MUSIC:[Food Week] - Shakawkaw.ogg;
#OFFSET:-0.044000;
#SAMPLESTART:74.091484;
#SAMPLELENGTH:17.454536;
#SELECTABLE:YES;
#BPMS:0.000=110.000;
#STOPS:166.000=0.545,
195.000=0.545;
#DELAYS:;
#WARPS:;
#TIMESIGNATURES:0.000=4=4;
#TICKCOUNTS:0.000=4;
#COMBOS:0.000=1;
#SPEEDS:0.000=1.000=0.000=0;
#SCROLLS:0.000=1.000;
#FAKES:;
#LABELS:0.000=Song Start;
#BGCHANGES:;
#KEYSOUNDS:;
#ATTACKS:
;

//---------------dance-single - ----------------
#NOTEDATA:;
#CHARTNAME:;
#STEPSTYPE:dance-single;
#DESCRIPTION:;
#CHARTSTYLE:;
#DIFFICULTY:Challenge;
#METER:8;
#RADARVALUES:0.529626,0.608918,0.364799,0.407218,0.733841,437.000000,394.000000,43.000000,48.000000,8.000000,0.000000,0.000000,0.000000,0.000000,0.529626,0.608918,0.364799,0.407218,0.733841,437.000000,394.000000,43.000000,48.000000,8.000000,0.000000,0.000000,0.000000,0.000000;
#CREDIT:;
#NOTES:
// measure 0
0000
0000
0000
0000
,  // measure 1
0000
0000
0000
0000
,  // measure 2
0000
0000
0000
0000
,  // measure 3
0000
0000
0000
0000
,  // measure 4
2000
0000
0000
3200
0000
0000
2300
0000
0000
3020
0000
0000
0032
0000
0023
0000
,  // measure 5
2030
0000
0000
3200
0000
0000
0320
0000
0032
0000
0000
0000
1003
0000
0000
0000
,  // measure 6
0002
0000
0000
0203
0000
0000
2300
0000
0000
3200
0000
0000
0301
0000
0000
0000
,  // measure 7
2000
0000
3100
0020
0000
0032
0000
0000
1003
0010
1000
0010
0100
0001
1000
0000
,  // measure 8
0001
0000
1000
0001
0000
1000
0000
0100
0000
0002
0000
0000
0203
0000
0000
0000
,  // measure 9
1300
0000
0001
1000
0000
0001
0000
0100
0000
2000
0000
0000
3200
0000
0000
0000
,  // measure 10
0301
0000
1000
0001
0000
1000
0000
0010
0000
0002
0000
0000
0023
0000
0000
0000
,  // measure 11
1030
0000
0001
1000
0000
0001
0000
0010
0000
2000
0000
0000
3020
0000
0000
0000
,  // measure 12
0001
0000
0000
0000
0100
0000
0000
0000
0031
0100
0010
0100
1000
0100
0010
0100
,  // measure 13
0002
0000
0000
0000
1003
0000
0000
0000
2000
0000
0000
0000
3001
0000
0000
0010
,  // measure 14
0001
0100
0000
1000
0000
0100
0000
0002
0000
0000
0000
0000
1003
0000
0000
0010
,  // measure 15
1000
0100
0000
0001
0000
0100
0000
2000
0000
0000
3001
0000
1000
0001
1000
0001
,  // measure 16
1000
0000
0100
0001
0000
0100
0000
1000
0000
0010
0100
0000
0001
0000
1000
0000
,  // measure 17
0001
0000
0100
1000
0000
0100
0000
0010
0000
1000
0001
0000
0010
0000
0100
0000
,  // measure 18
0010
0000
0001
0100
0000
1000
0000
0100
0000
0001
0010
0000
0100
0000
1000
0000
,  // measure 19
0010
0000
0001
0010
0000
1000
0000
0100
0000
0010
0001
0000
1000
0010
0100
0000
,  // measure 20
0001
0000
0001
0000
1000
0100
0000
1000
0000
0100
0010
0100
0001
0100
0010
0100
,  // measure 21
2000
0000
0001
0000
3001
1000
0000
1000
0002
0000
1000
0000
1003
0000
0001
0100
,  // measure 22
0010
0100
0000
1000
0000
0100
0000
0001
0000
0001
0010
0000
0100
0000
1000
0100
,  // measure 23
0010
0100
0000
0001
0000
0100
0000
1000
0000
1000
0010
0100
0001
0000
2000
0000
,  // measure 24
0002
0000
0000
0000
0000
0000
0000
0000
0000
0000
0000
0000
3003
0000
0000
1000
,  // measure 25
0100
0000
0100
0010
0000
0010
0001
0000
0001
0100
0000
0100
0010
0000
0010
1000
,  // measure 26
0001
0000
0001
0000
0100
0000
0010
1000
0000
0001
0000
1000
0000
0100
0010
0100
,  // measure 27
1000
0000
0010
0000
0001
0000
0010
1000
0000
0100
0000
0010
0000
0010
0000
0001
,  // measure 28
1000
0000
1000
0000
0010
0000
0100
0001
0000
1000
0000
0001
0010
0000
0100
0000
,  // measure 29
1000
0000
0001
0100
0001
0100
0010
0000
1000
0100
1000
0100
0010
0001
0000
1000
,  // measure 30
0010
0000
0010
0000
1000
0000
0100
1000
0000
0001
0000
1000
0010
0000
1000
0000
,  // measure 31
0100
0000
0001
0000
0100
0000
1000
0000
0010
0100
0000
0001
0000
0001
0000
1000
,  // measure 32
0100
0000
0100
0000
0010
0000
0100
1000
0000
0001
0000
1000
0010
0100
0000
0100
,  // measure 33
0001
0000
0010
0000
1000
0000
0010
0000
0001
0100
0010
1000
0001
0010
0001
0010
,  // measure 34
0011
0000
1001
0000
0101
0000
1001
0000
1000
0100
0000
2100
0000
0000
3001
0100
,  // measure 35
0001
0000
1000
0000
0001
0010
0001
0010
0000
2100
0000
0000
0001
3000
0001
1000
,  // measure 36
1010
0000
1001
0000
1100
0000
1001
0000
0001
0100
0000
0102
0000
0000
1003
0100
,  // measure 37
1000
0000
0001
0100
0010
1000
0010
1000
0000
0102
0000
0000
1003
0000
0001
1000
,  // measure 38
1001
0000
1100
0000
1001
0000
0101
0000
0001
1000
0000
1200
0000
0000
0310
0100
,  // measure 39
1000
0000
0010
0000
0001
0000
0010
0000
1000
0100
0000
0010
0000
0001
0000
1000
,  // measure 40
1010
0000
1001
0000
1100
0000
1001
0000
0001
0100
0000
0102
0000
0000
1003
0010
,  // measure 41
1000
0000
0100
0000
0001
0100
2000
0000
3001
0000
0000
1000
1010
0000
0110
0000
,  // measure 42
0101
0000
1001
0000
1000
0100
0000
0210
0000
0000
10M0
0000
130M
0000
0000
0000
,  // measure 43
0001
0100
0010
1000
0000
1002
0000
0000
1003
0000
0000
0001
0011
0000
0110
0000
,  // measure 44
1100
0000
1000
0001
1000
0010
0000
0210
0000
0000
00M1
0000
M301
0000
0000
0000
,  // measure 45
1000
0100
0010
0001
0000
2001
0000
0000
3001
0000
0000
1000
1100
0000
1001
0000
,  // measure 46
0101
0000
1001
0000
0001
1000
0000
1200
0000
0000
0010
0000
0310
0000
0000
0000
,  // measure 47
0100
0000
0000
1000
0000
0000
0000
0000
0000
0001
0000
00M0
0000
0M00
0000
1000
0000
0000
0000
0000
0000
0001
0000
0000
0100
0000
0000
0000
0000
0000
0010
0000
0000
1000
0000
0000
1010
0000
0000
0000
0000
0000
0101
0000
0000
0000
0000
0000
,  // measure 48
0011
0000
1100
0000
1000
0001
0000
1002
0000
0000
M100
0000
01M3
0000
0000
0002
,  // measure 49
2000
0000
3003
0000
;

//---------------dance-single - ----------------
#NOTEDATA:;
#CHARTNAME:;
#STEPSTYPE:dance-single;
#DESCRIPTION:;
#CHARTSTYLE:;
#DIFFICULTY:Hard;
#METER:7;
#RADARVALUES:0.393886,0.377949,0.067870,0.288446,0.453878,325.000000,317.000000,8.000000,34.000000,9.000000,0.000000,0.000000,0.000000,0.000000,0.393886,0.377949,0.067870,0.288446,0.453878,325.000000,317.000000,8.000000,34.000000,9.000000,0.000000,0.000000,0.000000,0.000000;
#CREDIT:;
#NOTES:
// measure 0
0000
0000
0000
0000
,  // measure 1
0000
0000
0000
0000
,  // measure 2
0000
0000
0000
0000
,  // measure 3
0000
0000
0000
0000
,  // measure 4
1000
0000
0000
0100
0000
0000
0010
0000
0000
0001
0000
0000
1000
0000
0001
0000
,  // measure 5
1000
0000
0000
0010
0000
0000
0100
0000
0002
0000
0000
0000
0003
0000
0000
0000
,  // measure 6
0001
0000
0000
0010
0000
0000
0100
0000
0000
2000
0000
0000
3000
0000
0000
0000
,  // measure 7
0001
0000
0000
0100
0000
0010
0000
0000
1000
0000
0010
0000
0100
0000
0001
0000
,  // measure 8
1000
0000
0000
0100
0000
0010
0000
0100
0000
1000
0000
0000
1002
0000
0000
0000
,  // measure 9
1003
0000
0000
0001
0000
0100
0000
0010
0000
1000
0000
0000
2001
0000
0000
0000
,  // measure 10
3001
0000
0000
0100
0000
0010
0000
0100
0000
0001
0000
0000
2001
0000
0000
0000
,  // measure 11
3001
0000
0000
1000
0000
0100
0000
0010
0000
0001
0000
0000
1002
0000
0000
0000
,  // measure 12
1000
0000
0100
0000
1003
0010
0001
0010
,  // measure 13
2000
0000
0000
0000
0100
0000
0000
0000
3002
0000
0000
0000
0100
0000
0003
1000
,  // measure 14
0100
1000
0000
0001
0000
0100
0000
0002
0000
0000
0000
0000
1003
0000
0000
0001
,  // measure 15
0100
0001
0000
1000
0000
0100
0000
2000
0000
0000
0010
0000
3010
0000
0100
0000
,  // measure 16
0001
0000
0000
0100
0000
1000
0000
0100
0000
0001
0000
0000
0102
0000
0000
0000
,  // measure 17
1003
0000
0000
0100
0000
0001
0000
0100
0000
1000
0000
0000
1200
0000
0000
0000
,  // measure 18
1300
0000
0000
0010
0000
0001
0000
0010
0000
1000
0000
0000
2010
0000
0000
0000
,  // measure 19
3001
0000
0000
0010
0000
1000
0000
0010
0000
0001
0000
0000
2001
0000
0000
0000
,  // measure 20
0001
0000
0100
0000
3001
0010
1000
0010
,  // measure 21
0002
0000
0000
0000
0100
0000
0000
0000
2003
0000
0000
0000
0100
0000
3000
0001
,  // measure 22
0100
0001
0000
1000
0000
0100
0000
0020
0000
0000
0000
0000
0130
0000
0000
1000
,  // measure 23
0100
1000
0000
0001
0000
0100
0000
0020
0000
0000
1030
0000
0010
0000
0200
0000
,  // measure 24
0002
0000
0000
0303
,  // measure 25
0001
0000
0000
0001
0000
0000
1000
0000
0000
1000
0000
0000
0001
0000
1000
0000
,  // measure 26
0001
0000
0010
0000
0100
0000
1000
0001
0000
1000
0001
0000
0100
0000
0001
0000
,  // measure 27
0010
1000
0010
0001
0100
1000
0100
0001
,  // measure 28
1000
0000
0100
0000
0010
0000
0001
1000
0000
0001
1000
0000
0010
0000
1000
0000
,  // measure 29
0100
0001
0100
1000
0010
0100
0001
0010
,  // measure 30
0100
0000
1000
0000
0001
0000
0100
0010
0000
0100
0010
0000
1000
0000
0100
0000
,  // measure 31
0001
0100
1000
0010
0100
0001
0010
0100
,  // measure 32
1000
0000
0010
0000
0100
0000
0001
1000
0000
0001
1000
0000
0100
0000
0010
0000
,  // measure 33
0001
0000
0010
0000
1000
0000
0010
0000
0001
0000
0100
0000
0010
0000
0000
1000
,  // measure 34
0010
0000
0001
0000
0010
0000
1000
0000
0100
0010
0000
0200
0000
0000
1300
0000
,  // measure 35
0001
0000
1000
0000
0001
0100
0001
0100
0000
0020
0000
0000
1030
0000
0000
0001
,  // measure 36
0010
0000
1000
0000
0010
0000
0001
0000
0100
0010
0000
0200
0000
0000
0301
0000
,  // measure 37
1000
0000
0001
0000
1000
0100
1000
0100
0000
0020
0000
0000
0031
0000
0000
0001
,  // measure 38
0100
0000
1000
0000
0100
0000
0001
0000
1000
0100
0000
2000
0000
0000
3001
0000
,  // measure 39
0100
0000
0010
0000
1000
0000
0100
0000
0010
0000
0001
0000
0100
0000
0000
0010
,  // measure 40
1000
0000
0100
0000
0001
0000
0100
0000
1000
0010
0000
0200
0000
0000
0310
0000
,  // measure 41
1000
0000
0001
0000
0010
0000
0001
0000
1000
0000
0000
0001
0100
0000
0010
0000
,  // measure 42
0100
0000
1000
0000
0100
0010
0000
0200
0000
0000
00M1
0000
M301
0000
0000
0000
,  // measure 43
0001
0010
0001
0010
0000
0200
0000
0000
1300
0000
0000
1000
0100
0000
0010
0000
,  // measure 44
0100
0000
0001
0000
0100
0010
0000
0200
0000
0000
10M0
0000
130M
0000
0000
0000
,  // measure 45
1000
0010
1000
0010
0000
0200
0000
0000
0301
0000
0000
0001
0010
0000
0100
0000
,  // measure 46
1000
0000
0010
0000
0100
0001
0000
2000
0000
0000
0001
0000
3001
0000
0000
0000
,  // measure 47
1000
00M0
0000
0000
01M0
0000
1000
00M0
0001
0000
0100
0000
1000
0000
0100
0000
,  // measure 48
0001
0000
0010
0000
0100
1000
0000
0002
0000
0000
M100
0000
01M3
0000
0000
0002
,  // measure 49
2000
0000
3003
0000
;

//---------------dance-single - ----------------
#NOTEDATA:;
#CHARTNAME:;
#STEPSTYPE:dance-single;
#DESCRIPTION:;
#CHARTSTYLE:;
#DIFFICULTY:Medium;
#METER:5;
#RADARVALUES:0.293294,0.314958,0.016967,0.220576,0.016967,242.000000,240.000000,2.000000,26.000000,0.000000,0.000000,0.000000,0.000000,0.000000,0.293294,0.314958,0.016967,0.220576,0.016967,242.000000,240.000000,2.000000,26.000000,0.000000,0.000000,0.000000,0.000000,0.000000;
#CREDIT:;
#NOTES:
// measure 0
0000
0000
0000
0000
,  // measure 1
0000
0000
0000
0000
,  // measure 2
0000
0000
0000
0000
,  // measure 3
0000
0000
0000
0000
,  // measure 4
0001
0000
0000
0100
0000
0000
0020
0000
0000
0000
0000
0000
0000
0000
0000
0000
,  // measure 5
2000
0000
0000
0000
3030
0000
0000
1000
,  // measure 6
0100
0000
0000
0010
0000
0000
0002
0000
0000
0000
0000
0000
0000
0000
0000
0000
,  // measure 7
0200
0303
0001
1000
,  // measure 8
0001
0000
0100
0000
0010
1000
0001
0000
,  // measure 9
1000
0000
0100
0000
0010
0001
1000
0000
,  // measure 10
0001
0000
0100
0000
0010
0100
0001
0000
,  // measure 11
1000
0000
0100
0000
0010
0100
1000
0000
,  // measure 12
0002
0000
0100
0000
1003
0010
0100
0001
,  // measure 13
2000
0100
3002
0100
,  // measure 14
1003
0000
1000
0100
0010
0000
0010
0000
,  // measure 15
0001
0000
0001
0100
0010
0000
0010
0000
,  // measure 16
1000
0000
0001
0010
0100
0010
0001
0000
,  // measure 17
1000
0000
0001
0100
0010
1000
0001
0000
,  // measure 18
1000
0000
0100
0010
0001
0010
0100
0000
,  // measure 19
1000
0000
0010
0100
0001
1000
0100
0000
,  // measure 20
2000
0000
0100
0000
3001
0100
0010
1000
,  // measure 21
0002
0100
2003
0100
,  // measure 22
3001
0000
0001
0100
0010
0000
0010
0000
,  // measure 23
1000
0000
1000
0100
0010
0000
0010
0000
,  // measure 24
2002
0000
0000
3003
,  // measure 25
0001
0000
0000
1000
0000
0000
0001
0000
0000
1000
0000
0000
0001
0000
1000
0000
,  // measure 26
0001
0000
0100
0001
1000
0001
0100
0000
,  // measure 27
0010
0000
1000
0100
0010
0000
0001
0000
,  // measure 28
1000
0000
0010
1000
0001
1000
0010
0000
,  // measure 29
0100
0000
0001
1000
0100
0000
1000
0000
,  // measure 30
0010
0000
0100
0010
1000
0100
0010
0000
,  // measure 31
0100
0000
1000
0000
0001
1000
0001
0000
,  // measure 32
0100
0000
0010
0100
0001
0010
0100
0000
,  // measure 33
0010
0001
0100
0000
0010
1000
0100
0000
,  // measure 34
0010
0001
0010
0001
1000
0001
0200
0000
,  // measure 35
0310
0000
0010
1000
0002
0000
1003
0000
,  // measure 36
0010
1000
0010
1000
0001
1000
0200
0000
,  // measure 37
0310
0000
0010
0001
2000
0000
3001
0000
,  // measure 38
0100
0001
0100
0001
1000
0100
0020
0000
,  // measure 39
0130
0000
1000
0000
0001
1000
0100
0000
,  // measure 40
0010
0001
0010
0001
1000
0001
0200
0000
,  // measure 41
0301
1000
0001
1000
0001
0000
1000
0100
,  // measure 42
1000
0100
0010
0100
2000
0000
3001
0000
,  // measure 43
0001
0100
0020
0000
1030
0000
0001
0100
,  // measure 44
0001
0100
0010
0100
0002
0000
1003
0000
,  // measure 45
1000
0100
0020
0000
0031
0000
1000
0001
,  // measure 46
1000
0001
0100
0010
0200
0000
0301
0000
,  // measure 47
1000
0000
0001
0000
1000
0100
0010
0001
,  // measure 48
0010
0001
0010
0100
2000
0000
3001
0000
,  // measure 49
2002
0000
3003
0000
;

//---------------dance-single - ----------------
#NOTEDATA:;
#CHARTNAME:;
#STEPSTYPE:dance-single;
#DESCRIPTION:;
#CHARTSTYLE:;
#DIFFICULTY:Easy;
#METER:3;
#RADARVALUES:0.176946,0.188975,0.008484,0.212093,0.000000,146.000000,145.000000,1.000000,25.000000,0.000000,0.000000,0.000000,0.000000,0.000000,0.176946,0.188975,0.008484,0.212093,0.000000,146.000000,145.000000,1.000000,25.000000,0.000000,0.000000,0.000000,0.000000,0.000000;
#CREDIT:;
#NOTES:
// measure 0
0000
0000
0000
0000
,  // measure 1
0000
0000
0000
0000
,  // measure 2
0000
0000
0000
0000
,  // measure 3
0000
0000
0000
0000
,  // measure 4
1000
0000
0100
0000
,  // measure 5
0010
0000
0001
0000
,  // measure 6
1000
0000
0010
0000
,  // measure 7
0100
0000
0001
1000
,  // measure 8
0001
0001
0010
0001
,  // measure 9
1000
1000
0010
0100
,  // measure 10
0001
0001
0100
0001
,  // measure 11
1000
1000
0100
0010
,  // measure 12
0002
0000
0013
0001
,  // measure 13
0200
0000
0320
0000
,  // measure 14
1030
0100
0020
0000
,  // measure 15
0031
0100
0020
0000
,  // measure 16
1030
1000
0010
1000
,  // measure 17
0001
0001
0010
0100
,  // measure 18
1000
1000
0100
1000
,  // measure 19
0001
0001
0100
0010
,  // measure 20
2000
0000
3010
1000
,  // measure 21
0200
0000
0320
0000
,  // measure 22
0031
0100
0020
0000
,  // measure 23
1030
0100
0020
0000
,  // measure 24
0200
0000
0000
0000
,  // measure 25
0330
0000
0000
0000
,  // measure 26
1000
0010
1000
0100
,  // measure 27
1000
0010
0100
0001
,  // measure 28
0010
0001
0100
0001
,  // measure 29
1000
0100
0010
0001
,  // measure 30
1000
0010
0100
0010
,  // measure 31
1000
0001
1000
0100
,  // measure 32
0010
0001
0010
0100
,  // measure 33
0010
0001
1000
0001
,  // measure 34
1000
1000
0010
0200
,  // measure 35
0300
0010
2000
3000
,  // measure 36
0001
0001
0010
0200
,  // measure 37
0300
0010
0002
0003
,  // measure 38
0100
0100
0001
2000
,  // measure 39
3000
0100
0010
0001
,  // measure 40
1000
1000
0010
0200
,  // measure 41
0301
1000
0001
1000
,  // measure 42
1000
0100
0020
0030
,  // measure 43
0001
2000
3000
0001
,  // measure 44
0001
0100
0020
0030
,  // measure 45
1000
0002
0003
0010
,  // measure 46
0010
0001
0200
0300
,  // measure 47
0010
0000
0010
1000
,  // measure 48
1000
0100
0020
0030
,  // measure 49
2002
0000
3003
0000
;

//---------------dance-single - ----------------
#NOTEDATA:;
#CHARTNAME:;
#STEPSTYPE:dance-single;
#DESCRIPTION:;
#CHARTSTYLE:;
#DIFFICULTY:Beginner;
#METER:1;
#RADARVALUES:0.087261,0.104986,0.008484,0.135739,0.000000,72.000000,71.000000,1.000000,16.000000,0.000000,0.000000,0.000000,0.000000,0.000000,0.087261,0.104986,0.008484,0.135739,0.000000,72.000000,71.000000,1.000000,16.000000,0.000000,0.000000,0.000000,0.000000,0.000000;
#CREDIT:;
#NOTES:
// measure 0
0000
0000
0000
0000
,  // measure 1
0000
0000
0000
0000
,  // measure 2
0000
0000
0000
0000
,  // measure 3
0000
0000
0000
0000
,  // measure 4
1000
0000
0000
0000
,  // measure 5
0010
0000
0000
0000
,  // measure 6
0100
0000
0000
0000
,  // measure 7
0001
0000
0000
0000
,  // measure 8
1000
0000
0100
0000
,  // measure 9
1000
0000
0001
0000
,  // measure 10
1000
0000
0100
0000
,  // measure 11
1000
0000
0001
0000
,  // measure 12
0200
0000
0300
0000
,  // measure 13
0010
0000
1000
0000
,  // measure 14
0002
0000
0003
0000
,  // measure 15
2000
0000
3000
0000
,  // measure 16
0001
0000
0100
0000
,  // measure 17
0001
0000
1000
0000
,  // measure 18
0001
0000
0100
0000
,  // measure 19
0001
0000
1000
0000
,  // measure 20
0200
0000
0300
0000
,  // measure 21
0010
0000
0001
0000
,  // measure 22
2000
0000
3000
0000
,  // measure 23
0002
0000
0003
0000
,  // measure 24
0200
0000
0000
0000
,  // measure 25
0300
0000
0000
0000
,  // measure 26
0001
0000
0001
0000
,  // measure 27
0010
0000
0010
0000
,  // measure 28
0100
0000
0100
0000
,  // measure 29
1000
0000
1000
0000
,  // measure 30
0010
0000
0010
0000
,  // measure 31
0100
0000
0100
0000
,  // measure 32
0001
0000
0001
0000
,  // measure 33
1000
0000
1000
0000
,  // measure 34
0001
0000
0020
0000
,  // measure 35
0030
0000
0001
0000
,  // measure 36
1000
0000
0020
0000
,  // measure 37
0030
0000
1000
0000
,  // measure 38
0100
0000
0020
0000
,  // measure 39
0030
0000
0001
0000
,  // measure 40
0100
0000
0020
0000
,  // measure 41
0030
0000
0100
0001
,  // measure 42
0000
2000
0000
3000
,  // measure 43
0000
0010
0000
1000
,  // measure 44
0000
0002
0000
0003
,  // measure 45
0000
0010
0000
0001
,  // measure 46
0000
0200
0000
0300
,  // measure 47
0000
0010
0000
1000
,  // measure 48
0000
0100
0000
0000
,  // measure 49
2002
0000
3003
0000
;
