#VERSION:0.81;
#TITLE:蓮華チャンス!;
#SUBTITLE:;
#ARTIST:LADYBABY;
#TITLETRANSLIT:Renge Chance !;
#SUBTITLETRANSLIT:;
#ARTISTTRANSLIT:;
#GENRE:;
#ORIGIN:;
#CREDIT:mf32892;
#BANNER:[Food Week] - Renge Chance.png;
#BACKGROUND:[Food Week] - Renge Chance-bg.png;
#PREVIEWVID:;
#JACKET:[Food Week] - Renge Chance-jacket.png;
#CDIMAGE:;
#DISCIMAGE:;
#LYRICSPATH:;
#CDTITLE:cdtitle.png;
#MUSIC:[Food Week] - Renge Chance.ogg;
#OFFSET:1.038840;
#SAMPLESTART:83.901001;
#SAMPLELENGTH:12.000000;
#SELECTABLE:YES;
#DISPLAYBPM:82.000000:200.000000;
#BPMS:0.000=200.018,
188.000=100.009,
200.000=200.018,
240.000=82.007,
247.000=84.008,
248.000=200.018,
254.000=210.000,
256.000=200.018,
368.000=145.468,
372.000=133.345,
374.000=114.296;
#STOPS:;
#DELAYS:;
#WARPS:;
#TIMESIGNATURES:0.000=4=4;
#TICKCOUNTS:0.000=4;
#COMBOS:0.000=1;
#SPEEDS:0.000=1.000=0.000=0;
#SCROLLS:0.000=1.000,
248.000=0.750,
249.000=0.875,
250.000=0.925,
251.000=0.975,
251.500=1.000,
368.000=1.375,
372.000=1.500,
374.000=1.750;
#FAKES:;
#LABELS:0.000=Song Start;
#LASTSECONDHINT:124.194679;
#BGCHANGES:3.125=[Food Week] - Renge Chance.mp4=1.000=0=0=0=StretchNoLoop====,
3.167=[Food Week] - Renge Chance.mp4=1.000=0=0=1=====,
99999=-nosongbg-=1.000=0=0=0 // don't automatically add -songbackground-
;
#KEYSOUNDS:;
#ATTACKS:
;

//---------------dance-single - ----------------
#NOTEDATA:;
#CHARTNAME:;
#STEPSTYPE:dance-single;
#DESCRIPTION:;
#CHARTSTYLE:;
#DIFFICULTY:Challenge;
#METER:9;
#RADARVALUES:0.784169,0.918664,0.423498,0.187316,0.142523,599.000000,52.000000,23.000000,2.000000,0.000000,0.000000,0.000000,0.000000,0.784169,0.918664,0.423498,0.187316,0.142523,599.000000,52.000000,23.000000,2.000000,0.000000,0.000000,0.000000,0.000000;
#CREDIT:;
#DISPLAYBPM:82.000000:200.000000;
#NOTES:
// measure 0
0000
0000
0000
0000
,  // measure 1
0000
0000
0000
0000
,  // measure 2
0000
0000
0000
0000
,  // measure 3
1000
0100
0010
0100
1000
0010
0100
0001
,  // measure 4
0010
0100
0010
0001
0100
0100
0010
0100
,  // measure 5
0001
0010
0100
0010
0001
0100
0010
1000
,  // measure 6
0100
0010
0100
1000
0010
0000
0101
0000
,  // measure 7
0001
0100
0010
0100
0001
0010
0100
1000
,  // measure 8
0010
0100
0010
1000
0100
0100
0010
0100
,  // measure 9
2000
0000
3001
0100
0020
0000
1030
0100
,  // measure 10
0002
0000
0103
1000
0010
0000
1001
0000
,  // measure 11
0001
0000
0000
0000
,  // measure 12
1000
0000
0000
0000
,  // measure 13
0001
0001
1000
1000
,  // measure 14
0001
0010
0100
1000
0020
0000
0030
0000
,  // measure 15
0100
0010
0100
0000
0001
1000
0100
0000
,  // measure 16
0010
0001
1000
0000
0001
0010
0M00
0010
,  // measure 17
1000
0100
1000
0000
0001
0010
0100
0000
,  // measure 18
0010
0000
0001
0000
1000
0000
0000
0000
0001
0000
0100
0001
0100
0000
0010
0000
,  // measure 19
1000
0100
0010
0001
0100
0010
1000
0001
,  // measure 20
0010
0000
1000
0000
0010
0000
0001
0000
1000
0001
1000
0001
1000
0001
1000
0001
,  // measure 21
1000
0010
0000
0110
0000
0000
0000
1010
,  // measure 22
0000
0000
0101
0000
0000
0000
1000
0000
0001
0000
1000
0100
1000
0000
0001
0000
,  // measure 23
1000
0100
1000
0100
0010
0100
1000
0010
,  // measure 24
0100
0001
0010
0100
0010
0001
0000
1000
,  // measure 25
0001
0100
0001
0100
0010
0100
0001
1000
,  // measure 26
0100
0000
0010
0000
0001
0000
1000
0000
0010
0000
0100
0010
0100
0000
0001
0000
,  // measure 27
1000
0100
1000
0100
0001
0100
1000
0001
,  // measure 28
0010
0100
0010
0001
1000
0010
0M00
0010
,  // measure 29
0001
0100
0010
0100
0001
0010
0100
1000
,  // measure 30
0001
0100
1000
0100
0002
0000
1003
0000
,  // measure 31
0001
0100
0010
0100
0001
0010
0100
0001
,  // measure 32
0100
0010
0001
1000
0010
0002
0000
0013
,  // measure 33
1000
0100
0010
0100
1000
0010
0100
1000
,  // measure 34
0100
0010
1000
0001
0010
1000
0000
0010
,  // measure 35
0001
0100
1000
0100
0010
1000
0100
0010
,  // measure 36
1000
0010
0100
1000
0001
0200
0000
0310
,  // measure 37
1000
0100
0001
0100
0010
0001
0100
0010
,  // measure 38
1000
0000
0000
0000
0010
0000
1000
1000
,  // measure 39
0001
0010
0100
0010
0001
0100
0010
1000
,  // measure 40
0100
0010
0100
1000
0010
0010
0100
0010
,  // measure 41
1000
0100
0010
0100
1000
0010
0100
0001
,  // measure 42
0010
0100
0010
0001
0100
0000
1010
0000
,  // measure 43
1000
0010
0100
0010
1000
0100
0010
0001
,  // measure 44
0100
0010
0100
0001
0010
0010
0100
0010
,  // measure 45
0002
0000
1003
0010
0200
0000
0301
0010
,  // measure 46
2000
0000
3010
0001
0100
0000
1001
0000
,  // measure 47
1000
0100
0010
0000
0001
1000
0010
0100
0000
0100
0001
0000
0010
0100
1000
0000
,  // measure 48
0001
0100
0010
0000
1000
0001
0010
0100
0000
0100
1000
0000
0001
0100
0010
0000
,  // measure 49
0100
0001
1000
0000
0001
0010
0100
1000
0000
1000
0001
0000
0100
0010
1000
0000
,  // measure 50
1001
1001
0011
0011
,  // measure 51
0001
0010
0100
1000
0002
0000
1003
0000
,  // measure 52
0001
0100
0010
1000
0100
0001
0100
1000
,  // measure 53
0010
0100
0001
0010
0100
0020
0000
0031
,  // measure 54
1000
0010
0100
0001
0010
1000
0010
0001
,  // measure 55
0100
0010
1000
0100
0010
0001
0000
1000
,  // measure 56
0001
0010
1000
0010
0001
0100
0010
0001
,  // measure 57
0010
0100
0001
0010
0100
2000
0000
3001
,  // measure 58
1000
0010
0001
0010
1000
0100
0010
1000
,  // measure 59
0010
0100
1000
0010
0100
0001
1000
1000
,  // measure 60
0001
0010
0110
0000
1000
0010
0110
0000
,  // measure 61
0001
0010
1010
0000
1000
0010
0011
0101
,  // measure 62
2000
0000
0000
0000
,  // measure 63
3001
0000
0000
1000
0000
0000
0110
0000
0000
0000
0000
0000
0000
0000
0000
0000
,  // measure 64
1001
0000
0001
0100
1000
0100
0001
0000
,  // measure 65
1001
0000
1000
0100
0001
0100
1000
0000
,  // measure 66
0001
0010
0001
0000
0010
0100
0010
0001
,  // measure 67
0000
1000
0001
0100
0010
0100
0001
0000
,  // measure 68
1000
1001
2200
3300
,  // measure 69
0011
0000
1000
0001
0100
0001
1000
0000
,  // measure 70
0010
1010
0202
0303
,  // measure 71
1002
0000
0000
0000
0013
0000
0200
0000
0000
0000
1300
0001
1000
0000
0001
1000
,  // measure 72
0001
0100
0010
1000
0000
0001
0010
0100
,  // measure 73
0000
0010
0001
0100
0000
0010
1000
0000
,  // measure 74
0001
0010
0001
0000
1000
0010
1000
0010
,  // measure 75
0100
0000
0001
0010
0001
1000
0010
0000
,  // measure 76
1010
0010
0100
0101
0000
0101
0000
0011
,  // measure 77
0000
0011
0110
0000
1001
0000
1001
0000
,  // measure 78
0101
0100
0010
1010
0000
1010
0000
1100
,  // measure 79
0000
1100
0110
0000
1001
0000
1001
0000
,  // measure 80
1001
0001
0100
0110
0000
0110
0000
1010
,  // measure 81
0000
0000
1010
0000
1001
0000
1000
0001
1000
0000
0001
0010
0100
0000
1000
0001
,  // measure 82
2000
0000
0000
0000
0000
0000
3100
0020
,  // measure 83
0000
0000
0000
0030
,  // measure 84
0001
0100
0010
0100
0001
0010
0100
1000
,  // measure 85
0000
0010
1000
0100
0001
0100
1000
0000
,  // measure 86
1000
0100
0010
0100
1000
0010
0100
0001
,  // measure 87
0000
0010
0001
0100
1000
0100
0001
0000
,  // measure 88
0010
0000
0001
0000
0100
0010
0100
0000
0001
0000
0010
0000
0100
0010
0100
0000
,  // measure 89
1000
0000
0010
0000
0100
0010
0100
0000
0010
0000
1000
0000
0001
0010
0100
0000
,  // measure 90
1000
1100
0000
0101
0000
0000
0000
1010
,  // measure 91
0000
0000
0110
0000
0000
0000
1010
0000
0001
0000
1000
0100
1000
0100
1000
0100
,  // measure 92
0020
0000
0001
0000
,  // measure 93
0100
0000
1000
0000
,  // measure 94
0031
0000
0000
0000
;

//---------------dance-single - ----------------
#NOTEDATA:;
#CHARTNAME:;
#STEPSTYPE:dance-single;
#DESCRIPTION:;
#CHARTSTYLE:;
#DIFFICULTY:Hard;
#METER:8;
#RADARVALUES:0.644554,0.880386,0.236181,0.333912,0.036649,484.000000,29.000000,41.000000,2.000000,0.000000,0.000000,0.000000,0.000000,0.644554,0.880386,0.236181,0.333912,0.036649,484.000000,29.000000,41.000000,2.000000,0.000000,0.000000,0.000000,0.000000;
#CREDIT:;
#DISPLAYBPM:82.000000:200.000000;
#NOTES:
0000
0000
0000
0000
,
0000
0000
0000
0000
,
0000
0000
0000
0000
,
0001
0100
0010
0000
0100
0001
1000
0000
,
0001
0010
0100
0000
0010
0100
0010
0100
,
1000
0001
0100
0000
0010
0100
0001
0000
,
1000
0100
0010
0000
0001
0000
0110
0000
,
1000
0100
0010
0000
0100
1000
0001
0000
,
1000
0010
0100
0000
0010
0100
0010
0100
,
0002
0000
0013
0100
2000
0000
3010
0100
,
0002
0000
1003
0100
0010
0000
1001
0000
,
1000
0000
0000
0000
,
0001
0000
0000
0000
,
1000
1000
0001
0001
,
0010
0100
1000
0010
0200
0000
0300
0000
,
0001
0010
0100
0000
0010
0001
0100
0000
,
0001
0100
0010
0000
0001
0010
0000
0010
,
1000
0100
0010
0000
0100
1000
0010
0000
,
0100
1000
0100
0000
0010
1000
0100
0000
,
1000
0100
1000
0100
0010
0001
0010
0001
,
0100
0010
0100
0010
2000
0000
0000
0000
,
3001
1000
0000
1001
0000
0000
0000
1100
,
0000
0101
0000
1000
0001
0010
0100
1000
,
0001
0000
0001
0000
0010
0100
0000
0010
,
0001
0000
1000
0000
0001
0100
00M0
0100
,
1000
0010
0100
0010
1000
0100
0010
0000
,
0002
0000
1003
0010
0200
0000
0301
0000
,
0001
0010
0000
0100
1000
0001
0100
0010
,
1000
0000
1002
0000
1003
0100
00M0
0100
,
0001
0010
0100
0010
0001
0000
0100
0010
,
1000
0000
0100
0010
0200
0000
0300
0000
,
1000
0000
0010
0100
0000
0001
1000
0100
,
0010
0000
0001
0000
1000
0020
0000
1030
,
0001
0010
0100
0000
0010
0001
0010
0000
,
0001
1000
0100
0010
0002
0000
1003
0000
,
1000
0010
0000
0100
0001
0000
1000
0100
,
0010
0000
0001
2000
0000
3002
0000
0000
,
1003
0100
0010
0001
,
2000
0000
3000
0000
0001
0000
0001
0001
,
1000
0010
0100
0000
0010
1000
0001
0000
,
1000
0100
0010
0000
0100
0010
0100
0010
,
0001
1000
0010
0000
0100
0010
1000
0000
,
0001
0010
0100
0000
1000
0000
0110
0000
,
0001
0010
0100
0000
0010
0001
1000
0000
,
0001
0100
0010
0000
0100
0010
0100
0010
,
2000
0000
3100
0010
0002
0000
0103
0010
,
2000
0000
3001
0010
0100
0000
1001
0000
,
0001
0000
0100
0000
0010
0000
0100
0000
0001
0000
0010
0100
0020
0000
0000
0000
,
0031
0100
0001
0000
1000
0100
1000
0000
0001
0010
0001
0010
0200
0000
0000
0000
,
1300
0000
1001
0000
0001
0100
0000
0010
1000
0000
0001
0020
0000
0000
0130
0000
,
1100
0000
1100
0000
1000
0001
1000
0001
,
0010
0100
1000
0000
1002
0000
1003
0000
,
0001
0100
0010
1000
0000
0100
0010
0100
,
1000
0000
0001
0000
0100
0020
0000
1030
,
0001
0010
0100
0000
0010
0100
0010
0100
,
1000
0001
0100
0010
2000
0000
3001
0000
,
0001
0000
0010
0001
0000
0010
0001
1000
,
0010
0100
0000
0002
0000
2003
0000
0000
,
3002
0000
0013
0200
0000
0000
1300
0000
,
2002
0000
0000
3003
,
1000
0000
0001
0100
0001
1000
0100
0010
,
0001
0000
1000
0010
1000
0001
0010
0100
,
2000
0000
0000
0000
,
3001
0000
0000
1000
0000
0000
0001
0000
0000
0000
0000
0000
0000
0000
0000
0000
,
1000
0000
0100
0010
0000
0100
1000
0000
,
0001
0000
0100
0010
0000
0100
0001
0000
,
1000
0000
1000
0000
0100
0010
0100
1000
,
0000
0001
0100
0010
1000
0100
0010
0000
,
0001
1001
0202
0303
,
1010
0000
0001
1000
0100
1000
0001
0000
,
0010
0011
2200
3300
,
2001
0000
3100
0020
0000
0000
0031
0000
,
1000
0010
0100
0001
0000
0010
0000
0100
,
0000
0010
0001
2000
0000
3001
0100
0000
,
0010
0000
0010
0000
0100
0000
0010
0100
,
0001
0000
1000
0100
0001
0100
1000
0000
,
0001
0010
0100
1000
0000
1000
0000
0001
,
0000
0100
0010
0000
0110
0000
1001
0000
,
1000
0001
0010
0100
0000
0100
0000
1000
,
0000
0001
0100
0000
0110
0000
1001
0000
,
1000
0100
0010
0001
0000
0001
0000
1000
,
0000
0010
0100
0000
0101
0000
0110
0000
,
2002
0000
0000
0000
0000
3003
0100
0020
,
0000
0000
0000
0030
,
1000
0100
0010
0000
1000
0010
0100
1000
,
0000
1000
0010
0100
0010
1000
0001
0000
,
0001
0010
0100
0000
0001
0100
0010
0001
,
0000
0001
0100
0010
0100
0001
1000
0000
,
1000
0010
0100
0000
1000
0100
0010
1000
,
0000
1000
0100
1000
0010
0100
0001
0000
,
0100
0010
0000
0110
0000
0000
0000
0110
,
0000
1001
0000
1000
0001
1000
0001
1000
,
0200
0000
0010
0000
,
0001
0000
1000
0000
,
0310
0000
0000
0000
;

//---------------dance-single - ----------------
#NOTEDATA:;
#CHARTNAME:;
#STEPSTYPE:dance-single;
#DESCRIPTION:;
#CHARTSTYLE:;
#DIFFICULTY:Medium;
#METER:6;
#RADARVALUES:0.523555,0.612443,0.114019,0.350200,0.004072,393.000000,14.000000,43.000000,0.000000,0.000000,0.000000,0.000000,0.000000,0.523555,0.612443,0.114019,0.350200,0.004072,393.000000,14.000000,43.000000,0.000000,0.000000,0.000000,0.000000,0.000000;
#CREDIT:;
#DISPLAYBPM:82.000000:200.000000;
#NOTES:
0000
0000
0000
0000
,
0000
0000
0000
0000
,
0000
0000
0000
0000
,
1000
1000
0001
0001
,
0010
0000
0010
0000
0100
0010
0100
0010
,
0001
0001
1000
1000
,
0010
0010
0100
1001
,
0001
0001
1000
1000
,
0100
0000
0100
0000
0010
0100
0010
0100
,
2000
0010
3002
0010
,
2003
3100
0010
1001
,
0001
0000
0000
0000
,
1000
0000
0000
0000
,
0001
0001
1000
1000
,
0001
1000
0001
1000
0200
0000
0300
0000
,
1000
1000
0010
0010
,
0100
0000
0100
0000
0001
0100
0000
0100
,
0001
0001
1000
1000
,
0100
0000
0100
0000
1000
0001
1000
0000
,
0002
0023
0230
2300
,
3020
0230
0302
0000
,
1003
1000
0000
0100
0000
0000
0000
1000
,
0000
0100
0000
1000
0001
1000
0001
0000
,
1000
0100
1000
0000
0100
0000
0100
0000
,
0010
0000
0001
0000
1000
0010
0000
0010
,
0100
0010
0100
0000
0001
0000
0001
0000
,
0010
0100
1000
0001
,
0001
0100
0001
0000
1000
0000
1000
0000
,
0100
0000
1000
0000
0001
0100
0000
0100
,
0010
0100
0010
0000
1000
0000
1000
0000
,
0001
0010
0200
0300
,
2100
0100
0001
0001
,
0010
0000
0010
3000
0001
0200
0000
0301
,
1000
0100
1000
0000
0100
0010
0100
0000
,
0010
0001
0010
0000
0002
0000
1003
0000
,
0102
0100
1000
1000
,
0010
0000
0010
0003
1000
0200
0000
1300
,
0001
0001
1000
1000
,
0020
0000
0030
0000
0100
0000
0100
0100
,
0001
0001
1000
1000
,
0100
0000
0100
0000
0010
0100
0010
0100
,
1000
1000
0001
0001
,
0100
0100
0010
1001
,
1000
1000
0001
0001
,
0010
0000
0010
0000
0100
0010
0100
0010
,
0002
0100
2003
0100
,
3002
0013
0100
1001
,
1000
0000
0100
0000
1000
0001
0200
0000
,
0301
0001
1000
1000
0001
0010
0200
0000
,
1300
1000
0001
0001
1000
0001
0200
0000
,
0310
0010
0100
0100
,
0001
1000
0001
1000
0200
0000
0310
0000
,
0012
0010
1000
1000
,
0100
0000
0100
0003
1000
0020
0000
1030
,
0001
0010
0001
0000
0010
0100
0010
0000
,
0100
1000
0100
0000
2000
0000
3001
0000
,
2010
0010
0001
0001
,
0100
0000
0100
3000
0001
0020
0000
0031
,
1000
1000
0001
0001
,
0200
0000
0000
0000
,
0301
1000
0001
0000
0010
0100
0010
0000
,
0100
1000
0001
0000
0100
0001
1000
0000
,
0200
0000
0000
0000
,
0310
0000
0000
0100
0000
0000
0010
0000
0000
0000
0000
0000
0000
0000
0000
0000
,
0001
0000
0100
0010
0000
0000
0110
0000
,
1000
0000
0100
0010
0000
0000
0110
0000
,
1000
1000
0001
0001
,
0100
0000
0100
0000
0010
1000
0020
0000
,
0030
0100
2002
3003
,
0001
0000
0010
0100
0010
0100
1000
0000
,
0000
0010
2002
3003
,
0001
0000
0100
0020
0000
0000
1030
0000
,
0001
1000
0001
1000
0000
1000
0000
0100
,
0000
0010
0100
0020
0000
0000
0130
0000
,
1000
0000
1000
0000
0001
0000
0100
0001
,
0100
0000
0001
0100
0001
0000
1000
0000
,
0001
0010
0000
0100
0000
0100
0000
1000
,
0000
0001
1000
0000
0001
0000
0001
0000
,
1000
0001
0000
0100
0000
0100
0000
0010
,
0000
1000
0001
0000
1000
0000
1000
0000
,
0001
0010
0000
0100
0000
0100
0000
1000
,
0000
0001
1000
0000
0010
0000
0110
0000
,
2002
0000
0000
0000
3003
0000
0010
0200
,
0000
0000
0300
0000
,
1000
0100
1000
0000
0001
0000
0010
0100
,
0000
0010
0100
0000
1000
0000
1000
0000
,
0001
0100
0001
0000
1000
0000
0100
0010
,
0000
0100
0010
0000
0001
0000
1000
0000
,
0001
0100
0001
0000
0100
0000
0010
1000
,
0000
0010
1000
0000
0001
1000
0001
0000
,
1000
0100
0000
1000
0000
0000
0000
0100
,
0000
0100
0000
0100
0010
0001
0010
0001
,
2000
0000
0000
0000
,
0000
0000
0000
0000
,
3000
0000
0000
0000
;

//---------------dance-single - ----------------
#NOTEDATA:;
#CHARTNAME:;
#STEPSTYPE:dance-single;
#DESCRIPTION:;
#CHARTSTYLE:;
#DIFFICULTY:Easy;
#METER:4;
#RADARVALUES:0.317623,0.306221,0.024433,0.219893,0.000000,243.000000,3.000000,27.000000,0.000000,0.000000,0.000000,0.000000,0.000000,0.317623,0.306221,0.024433,0.219893,0.000000,243.000000,3.000000,27.000000,0.000000,0.000000,0.000000,0.000000,0.000000;
#CREDIT:;
#DISPLAYBPM:82.000000:200.000000;
#NOTES:
0000
0000
0000
0000
,
0000
0000
0000
0000
,
0000
0000
0000
0000
,
1000
0000
0100
0000
,
1000
0000
0001
0001
,
0100
0000
0001
0000
,
1000
0000
0100
1000
,
0001
0000
0010
0000
,
0100
0000
1000
1000
,
0002
0000
0203
0000
,
0320
0000
1030
0001
,
1000
0000
0000
0000
,
0001
0000
0000
0000
,
1000
1000
0001
0001
,
0100
0010
2000
3000
,
0001
0000
1000
0000
,
0001
0000
0010
0100
,
1000
0000
0001
0000
,
1000
0000
0010
0100
,
0002
0000
0023
0000
,
0230
0000
2300
0000
,
3001
0000
0000
0001
0000
0000
0000
1000
,
0000
1000
0000
0001
1000
0000
0001
0000
,
1000
0000
0100
0000
,
1000
0001
0020
0000
,
0031
0000
1000
0000
,
0001
0100
0020
0000
,
1030
0000
0100
0000
,
0010
0001
1000
0000
,
0001
0000
0100
0000
,
0010
1000
0200
0300
,
1000
0000
0100
0000
,
1000
1000
1000
0000
,
0001
0000
0100
0000
,
0010
0010
0010
0000
,
1000
0000
0001
0000
,
0010
0100
0010
0000
,
0001
0000
0100
0000
,
0010
0000
1000
1000
,
0001
0000
0010
0000
,
0001
0000
1000
1000
,
0010
0000
1000
0000
,
0001
0000
0010
0001
,
1000
0000
0100
0000
,
0010
0000
0001
0001
,
2000
0000
3020
0000
,
0230
0000
0301
1000
,
0001
0001
1000
0000
,
0100
0100
0010
0000
,
0001
1000
0010
0000
,
0100
0100
0100
0100
,
0100
0100
0200
0300
,
0001
0000
1000
0000
,
0001
0010
0001
0000
,
1000
0000
0010
0000
,
0100
0010
1000
0000
,
0001
0010
0001
0000
,
0010
0100
0010
0000
,
0100
1000
0010
0000
,
2002
0000
0000
3003
,
1000
0000
0001
0000
,
0010
0000
0100
0000
,
2000
0000
0000
3000
,
0002
0000
0000
0003
0000
0000
0000
0000
,
1000
0001
1000
0000
,
0001
1000
0001
0000
,
0010
0010
0100
0100
,
2000
0000
3001
0000
,
0100
0010
0200
0000
,
0301
0001
1000
0001
,
2000
0000
3000
0000
,
0001
1000
0001
0000
,
0010
0010
0100
0100
,
0010
0001
1000
0000
,
0001
0100
0001
0100
,
0010
1000
0001
0000
,
1000
0000
0000
0001
0000
1000
0000
0001
,
0000
1000
0001
0000
1000
0000
0000
0000
,
0001
0000
0000
1000
0000
0001
0000
1000
,
0000
0001
1000
0000
0001
0000
0000
0000
,
1000
0000
0000
0001
0000
1000
0000
0001
,
0000
1000
0001
0000
1000
0000
0001
0000
,
2002
0000
0000
0000
0000
3003
0000
0200
,
0000
0000
0000
0300
,
0001
1000
0001
0010
,
0100
1000
0001
0000
,
1000
0001
1000
0010
,
0100
0001
1000
0000
,
0001
0001
1000
1000
,
0001
0001
1000
0001
,
0010
0000
0000
0010
0000
0000
0000
0100
,
0000
0010
0000
0100
0010
0000
0100
0000
,
2002
0000
0000
0000
,
0000
0000
0000
0000
,
3003
0000
0000
0000
;
