#TITLE:Punk Rock 101;
#SUBTITLE:;
#ARTIST:Bowling For Soup;
#TITLETRANSLIT:;
#SUBTITLETRANSLIT:;
#ARTISTTRANSLIT:;
#GENRE:;
#CREDIT:;
#BANNER:[Food Week] - Punk Rock 101.png;
#BACKGROUND:[Food Week] - Punk Rock 101-bg.png;
#LYRICSPATH:;
#CDTITLE:cdtitle.png;
#MUSIC:[Food Week] - Punk Rock 101.ogg;
#OFFSET:-0.816000;
#SAMPLESTART:76.250000;
#SAMPLELENGTH:16.270000;
#LASTBEATHINT:406.231842;
#SELECTABLE:YES;
#BPMS:0.000000=236.000000
,112.000000=118.000000
,118.000000=236.000000
,214.000000=118.000000
,248.000000=236.000000
,376.000000=232.000000
,388.000000=228.000000
;
#STOPS:251.500000=2.020000
;
#BGCHANGES:;
#KEYSOUNDS:;
#ATTACKS:;

//---------------dance-single - ----------------
#NOTES:
     dance-single:
     :
     Beginner:
     3:
     0.207965,0.332865,0.153237,0.076619,0.000000,171.000000,153.000000,18.000000,9.000000,0.000000,0.000000,0.207965,0.332865,0.153237,0.076619,0.000000,171.000000,153.000000,18.000000,9.000000,0.000000,0.000000:
0000
0000
0000
0000
,
0000
0000
0000
0000
,
0000
0000
0000
0000
,
0000
0000
0000
0000
,
1000
0000
0100
0000
,
1000
0000
0100
0000
,
0010
0000
0001
0000
,
0010
0000
0001
0000
,
0100
0000
0001
0000
,
0100
0000
0001
0000
,
1000
0000
0010
0000
,
1000
0000
0010
0000
,
1000
0000
0000
0000
,
0100
0000
0000
0000
,
0010
0000
0000
0000
,
0001
0000
0000
0000
,
0001
0000
0000
0000
,
1000
0000
0000
0000
,
0010
0000
0000
0000
,
0100
0000
0000
0000
,
0001
0000
0000
0000
,
0100
0000
0000
0000
,
0010
0000
0000
0000
,
1000
0000
0000
0000
,
1000
0000
0000
0000
,
0001
0000
0000
0000
,
0010
0000
0000
0000
,
0100
0000
0000
0000
,
2000
0000
0002
0000
,
3003
0000
2000
0000
,
0000
0000
3001
0000
,
0010
0000
0100
0000
,
0010
0000
0001
0000
,
0010
0000
0100
0000
,
0100
0000
1000
0000
,
0010
0000
0100
0000
,
0010
0000
1000
0000
,
0010
0000
0200
0000
,
0000
0000
0301
0000
,
0100
0000
0010
0000
,
0100
0000
0001
0000
,
0100
0000
0010
0000
,
0010
0000
1000
0000
,
0100
0000
0010
0000
,
0100
0000
1000
0000
,
0100
0000
0020
0000
,
0030
0000
1001
0000
,
0000
0000
0000
0000
,
0100
0000
0110
0000
,
0000
0000
0000
0000
,
0010
0000
1001
0000
,
0000
0000
0000
0000
,
0001
0000
0220
0000
,
0000
0000
0330
0000
,
1000
0000
0100
0000
,
1000
0000
0001
0000
,
0100
0000
0001
0000
,
0010
0000
0010
0000
,
0001
0000
0010
0000
,
0100
0000
1000
0000
,
0001
0000
0100
0000
,
0010
0000
2000
0000
,
0002
0000
0000
0000
0000
0000
0000
3003
,
1000
0000
0001
0000
,
0100
0000
0100
0000
,
0001
0000
1000
0000
,
0100
0000
0100
0000
,
1000
0000
0001
0000
,
0010
0000
0010
0000
,
0110
0000
0110
0000
,
0110
0000
0000
0000
,
0010
0000
0001
0000
,
1000
0000
1000
0000
,
0100
0000
1000
0000
,
0001
0000
0001
0000
,
0100
0000
0010
0000
,
1000
0000
0001
0000
,
1001
0000
1001
0000
,
1001
0000
0000
0000
,
1000
0000
1000
0000
,
0001
0000
0001
0000
,
0100
0000
0100
0000
,
0010
0000
0010
0000
,
0100
0000
0001
0000
,
1000
0000
0010
0000
,
0110
0000
0110
0000
,
1001
0000
0000
0000
,
0001
0000
0001
0000
,
1000
0000
1000
0000
,
0100
0000
0100
0000
,
0010
0000
0010
0000
,
0001
0000
0100
0000
,
0010
0000
1000
0000
,
1001
0000
1001
0000
,
0110
0000
0000
0000
,
0010
0000
0000
1001
,
0000
0000
0000
0000
,
0100
0000
0000
1001
;

//---------------dance-single - ----------------
#NOTES:
     dance-single:
     :
     Easy:
     5:
     0.317420,0.416081,0.076619,0.144724,0.000000,261.000000,252.000000,9.000000,17.000000,0.000000,0.000000,0.317420,0.416081,0.076619,0.144724,0.000000,261.000000,252.000000,9.000000,17.000000,0.000000,0.000000:
0000
0000
0000
0000
,
0000
0000
0000
0000
,
0000
0000
0000
0000
,
0000
0000
0000
0000
,
1000
0100
1000
0000
,
0001
0100
0001
0000
,
0010
0000
0001
0100
,
0010
0000
1000
0100
,
1000
0010
1000
0000
,
0001
0010
0001
0000
,
0010
0000
0100
1000
,
0010
0000
0100
0001
,
1000
0000
0100
0000
,
1000
0000
0001
0000
,
0100
0000
0001
0000
,
0010
0000
0100
0000
,
0010
0000
0001
0000
,
0010
0000
0100
0000
,
1000
0000
1000
0000
,
0001
0000
0000
1000
,
0001
0000
0100
0000
,
0001
0000
1000
0000
,
0100
0000
1000
0000
,
0010
0000
0100
0000
,
0010
0000
1000
0000
,
0100
0000
0010
0000
,
0001
0000
0001
0000
,
1000
0000
0000
0000
,
0001
0010
0100
1000
,
0000
0000
1000
0010
,
0100
0001
1000
0000
,
0100
0010
0001
0000
,
0100
0010
1000
0000
,
0010
0100
0001
0000
,
0010
0100
1000
0000
,
0001
1000
0001
0000
,
0010
0100
0010
0010
,
0010
0010
0010
0000
,
1001
0000
0001
0000
,
0100
0001
0010
0000
,
0100
0010
1000
0000
,
0010
0100
1000
0000
,
0100
1000
0010
0000
,
0100
0010
0001
0000
,
0001
0010
0100
0100
,
0100
0100
0100
0000
,
1001
0000
1000
0000
,
0000
0100
0000
0000
,
0010
0000
0001
0000
,
0000
0100
0000
0000
,
0010
0000
1000
0000
,
0000
0010
0000
0000
,
0100
0000
2002
0000
,
0000
0000
3003
0000
,
1000
0100
1000
1000
,
0001
0100
0001
0001
,
1000
0010
0100
0001
,
0010
0010
0010
0000
,
0001
0010
0001
0001
,
1000
0010
1000
1000
,
0100
0100
0010
0010
,
0001
0100
0010
1000
,
2002
0000
0000
0000
0000
0000
0000
3003
,
0001
0000
0010
0100
,
1000
0000
0010
0100
,
0001
0000
0100
0010
,
1000
0000
0100
0010
,
0001
0000
1000
0001
,
1000
0000
0100
0010
,
0100
0100
0100
0100
,
0100
0000
1001
0000
,
1000
0000
0010
1000
,
0100
0000
0010
0100
,
0001
0000
0100
0010
,
0001
0000
0010
0001
,
0100
0000
0010
0100
,
1000
0000
1000
0100
,
0010
0010
0010
0010
,
0010
0000
1001
0000
,
2000
0000
3200
0000
,
0310
0001
0010
0001
,
0200
0000
0302
0000
,
1003
0010
1000
0010
,
0020
0000
2030
0000
,
3100
1000
0100
1000
,
0001
0001
0001
0001
,
0001
0000
0110
0000
,
2000
0000
3020
0000
,
0130
0010
0100
0010
,
0200
0000
0302
0000
,
1003
0001
1000
0001
,
0020
0000
0230
0000
,
1300
0100
0010
0001
,
1000
1000
1000
1000
,
2000
0000
0000
0000
,
3001
0000
0000
0110
,
0000
0000
0000
0000
,
1000
0000
0000
0110
;

//---------------dance-single - ----------------
#NOTES:
     dance-single:
     :
     Medium:
     6:
     0.394038,0.547823,0.076619,0.178777,0.000000,324.000000,315.000000,9.000000,21.000000,0.000000,0.000000,0.394038,0.547823,0.076619,0.178777,0.000000,324.000000,315.000000,9.000000,21.000000,0.000000,0.000000:
0000
0000
0000
0000
,
0000
0000
0000
0000
,
0000
0000
0000
0000
,
0000
0000
0000
0000
,
0010
0000
0001
0010
0000
0100
1000
0000
,
0010
0000
1000
0010
0000
0100
0001
0000
,
0020
0000
0000
0032
0000
0000
0203
0000
,
0320
0000
0000
2030
0000
0000
3100
0000
,
0100
0000
1000
0010
0000
0100
0001
0000
,
0100
0000
0001
0010
0000
0100
1000
0000
,
0020
0000
0000
2030
0000
0000
3200
0000
,
0320
0000
0000
0032
0000
0000
0203
0000
,
0301
0000
0000
0100
0000
0000
0001
0000
,
1000
0000
0000
0100
0000
0000
1000
0000
,
0001
0000
0000
0010
0000
0000
0100
0000
,
1000
0000
0000
0010
0000
0000
0100
0000
,
0001
0000
0000
1000
0000
0000
0001
0000
,
1000
0000
0100
1000
,
0010
0000
0110
0000
,
1001
0000
0000
1000
,
1000
0000
0000
0100
0000
0000
1000
0000
,
0010
0000
0000
0100
0000
0000
0100
0000
,
0001
0000
0000
0100
0000
0000
0010
0000
,
1000
0000
0000
0100
0000
0000
0100
0000
,
0010
0000
0000
0100
0000
0000
1000
0000
,
0001
0000
0000
1000
0000
0000
0000
0000
,
0011
0000
1001
0000
,
1100
0000
0000
0000
,
1000
0000
0010
0000
0100
0001
1000
0100
,
0000
0000
0010
0001
,
1000
0000
0100
0000
1000
0000
0000
0001
,
0000
0000
0100
0000
0001
0000
0000
1000
,
0000
0000
0100
0000
1000
0000
0000
0001
,
0000
0000
0010
0000
0001
0000
0000
1000
,
0000
0000
0010
0000
0100
0000
0000
0010
,
0000
0000
1000
0000
0100
0000
0000
0010
,
0000
0001
0010
0001
,
1000
0010
0200
0000
,
0000
0000
0301
0000
0010
0000
0000
0001
,
0000
0000
0010
0000
0100
0000
0000
1000
,
0000
0000
0100
0000
0010
0000
0000
1000
,
0000
0000
0010
0000
0100
0000
0000
0001
,
0000
0000
0100
0000
1000
0000
0000
0001
,
0000
0000
0100
0000
0010
0000
0000
1000
,
0000
0001
0010
0100
,
1000
0001
0100
0010
,
0010
0000
0010
0000
0010
1000
0000
0000
,
0000
0000
0001
0100
0000
0000
0000
0000
,
1001
0000
0000
0000
0010
0001
0000
0000
,
0000
0000
1000
0100
0000
0000
0010
0000
,
0010
0000
0010
0000
0100
0010
0000
0000
,
0000
0000
0001
1000
0000
0000
0000
0000
,
0020
0000
1030
0001
,
0010
0000
0100
0010
0000
0000
0000
0000
,
0001
0000
0100
0010
0100
0000
0010
0000
,
1000
0000
0100
0010
0100
0000
0010
0000
,
0001
0000
0010
0100
0010
0000
1000
0000
,
0001
0100
1000
0000
,
0001
0100
0001
0100
0001
0000
0010
0000
,
0100
1000
0100
1000
0010
0000
0100
0000
,
0001
0100
0010
1000
,
0001
1000
0001
2000
0002
0000
3003
0000
,
0010
0000
0001
0000
0100
0000
0010
1000
,
0001
0000
0000
1000
0000
0000
0010
0000
,
1000
0000
0000
0001
0000
0000
0010
0000
,
0001
0000
0000
1000
0000
0000
0100
0000
,
1000
0000
0000
0001
0000
0000
0100
0000
,
0010
0000
0000
0100
0000
0000
0001
0000
,
0010
0000
0000
0100
0000
0000
1000
0000
,
0100
1000
0001
0100
,
0020
0000
0000
1030
,
0100
0000
0000
1000
0000
0000
0100
0000
,
0010
0000
0000
0001
0000
0000
0010
0000
,
0100
0000
0000
0001
0000
0000
0100
0000
,
0010
0000
0000
1000
0000
0000
0010
0000
,
0001
0000
0000
1000
0000
0000
0010
0000
,
0100
0000
0000
0001
0000
0000
1000
0000
,
0100
0010
0001
1000
,
0010
0100
0100
0100
,
0001
0010
0100
1000
,
0010
1000
0100
0010
,
0001
0100
0010
1000
,
0100
1000
0010
0100
,
0001
1000
0001
1000
,
0100
0010
0100
0010
,
0001
0100
1000
0100
,
0001
0000
1001
0000
,
1000
0010
0100
0001
,
0010
0001
0100
0010
,
1000
0100
0010
0001
,
0100
0001
0010
0100
,
1000
0001
1000
0001
,
0010
0100
0010
0100
,
1000
0010
0001
0010
,
0200
0000
0000
0000
,
0301
0000
0000
1000
0000
0000
2002
0000
,
0000
0000
0000
3003
,
0100
0000
0000
0010
0000
0000
0220
0000
,
0000
0000
0000
0000
,
0330
0000
0000
0000
;

//---------------dance-single - ----------------
#NOTES:
     dance-single:
     :
     Hard:
     9:
     0.622678,0.730856,0.263908,0.161750,0.042566,512.000000,481.000000,31.000000,19.000000,0.000000,0.000000,0.622678,0.730856,0.263908,0.161750,0.042566,512.000000,481.000000,31.000000,19.000000,0.000000,0.000000:
// measure 0
0000
0000
0000
0000
,  // measure 1
0000
0000
0000
0000
,  // measure 2
0000
0000
0000
0000
,  // measure 3
0000
0000
0000
0000
,  // measure 4
0100
0000
0010
0001
0010
0001
0010
0000
,  // measure 5
0001
0000
1000
0100
1000
0100
1000
0000
,  // measure 6
0010
0000
0010
1000
0000
1000
0100
0000
,  // measure 7
0010
0000
0010
0001
0000
0001
0100
0000
,  // measure 8
0100
0000
0010
1000
0010
1000
0010
0000
,  // measure 9
1000
0000
0001
0100
0001
0100
0001
0000
,  // measure 10
0010
0000
0010
0001
0000
0001
0100
0000
,  // measure 11
0010
0000
1000
0001
0010
0100
1000
0001
,  // measure 12
0100
0000
0100
0001
0000
0000
1000
0000
,  // measure 13
0100
0000
0100
1000
0000
0000
0001
0000
,  // measure 14
1000
0000
1000
0100
0000
0000
0010
0000
,  // measure 15
0001
0000
0001
0100
0000
0000
0010
0000
,  // measure 16
1000
0000
0001
0010
0000
0100
1000
0000
,  // measure 17
0001
0000
1000
0100
,  // measure 18
0110
0000
0011
0000
,  // measure 19
2002
0000
3003
1000
,  // measure 20
0001
0000
0001
0100
0000
0000
0010
0000
,  // measure 21
1000
0000
1000
0001
0000
0000
0010
0000
,  // measure 22
0100
0000
0100
1000
0000
0000
0100
0000
,  // measure 23
0010
0000
0010
0001
0000
0000
0010
0000
,  // measure 24
0100
0000
1000
0010
0000
0100
0001
0000
,  // measure 25
0010
0000
0000
0100
0000
0000
0000
0000
,  // measure 26
1100
0000
1001
0000
,  // measure 27
0011
0000
0001
1000
0001
1000
0001
1000
,  // measure 28
0002
0000
0023
0000
0130
1000
0001
0200
,  // measure 29
0000
0000
0000
0000
0310
1000
0001
0010
,  // measure 30
0100
1000
0001
0100
0001
0000
0010
0100
,  // measure 31
0000
0010
0001
0000
1000
0000
0010
0100
,  // measure 32
0000
0010
1000
0000
0001
0000
0100
0010
,  // measure 33
0000
0100
0001
0000
1000
0000
0100
0010
,  // measure 34
0000
0100
1000
0001
1000
0000
0010
0100
,  // measure 35
0000
0001
0100
0000
0001
0000
0010
0100
,  // measure 36
0000
1000
0100
0000
0011
0000
0101
0000
,  // measure 37
1100
0000
1010
0000
0010
0100
0010
0000
,  // measure 38
1000
0001
1000
0001
1000
0000
0100
0001
,  // measure 39
0000
0100
1000
0000
0001
0000
0010
1000
,  // measure 40
0000
0010
0001
0000
1000
0000
0010
0001
,  // measure 41
0000
0010
1000
0000
0001
0000
0100
1000
,  // measure 42
0000
0100
0001
1000
0001
0000
0100
0010
,  // measure 43
0000
1000
0010
0000
1000
0000
0100
0010
,  // measure 44
0000
0001
0010
0000
0011
0000
1100
0000
,  // measure 45
0101
0000
1010
0000
0001
0100
0010
1000
,  // measure 46
0001
0010
0100
1000
0001
0100
0000
0000
,  // measure 47
0100
0000
0010
1000
0000
0000
1000
0000
,  // measure 48
2002
0000
3003
0000
1000
0100
0000
0000
,  // measure 49
0100
0000
0010
0001
0000
0000
0001
0100
,  // measure 50
0010
0100
0010
0000
1000
0010
0000
0000
,  // measure 51
0010
0000
0100
0001
0000
0000
0001
0000
,  // measure 52
2000
0000
0000
0000
3001
0010
0100
1000
,  // measure 53
0010
0100
0002
2000
0000
0000
3003
0000
,  // measure 54
0001
0000
0000
0010
0000
0000
0100
0000
1000
0000
0000
0010
0000
0000
0100
0000
,  // measure 55
0001
0000
0000
0100
0000
0000
0010
0000
1000
0000
0000
0100
0000
0000
0010
0000
,  // measure 56
0001
0000
0000
0010
0000
0000
0100
0000
1000
0000
0000
0010
0000
0000
0100
0000
,  // measure 57
0001
0000
0000
1000
0000
0000
0001
0000
1000
0000
0100
1000
0010
0000
0100
0000
,  // measure 58
0001
1000
0001
1000
0020
0000
0230
0000
,  // measure 59
0301
1000
0001
1000
0200
0000
0320
0001
,  // measure 60
0031
0000
0000
1000
0000
0000
0100
0000
1000
0000
0000
0001
0000
0000
0010
0000
,  // measure 61
0100
0010
0100
0010
0200
0000
0000
0000
,  // measure 62
1300
0001
0100
0010
1000
0001
0010
0100
,  // measure 63
1000
0000
0100
0010
0000
0100
0001
0000
,  // measure 64
0001
0000
0100
0010
0000
0100
1000
0000
,  // measure 65
1000
0000
0010
0100
0000
0010
0001
0000
,  // measure 66
0001
0000
0010
0100
0000
0010
1000
0001
,  // measure 67
1000
0000
0010
0001
0000
1000
0100
0000
,  // measure 68
0001
0000
0010
1000
0000
0001
0100
0000
,  // measure 69
1100
1010
0101
0011
,  // measure 70
0001
1000
0001
0000
0100
0010
0100
0010
,  // measure 71
1000
0000
0010
1000
0000
0001
0010
0000
,  // measure 72
0001
0000
0100
0001
0000
1000
0100
0000
,  // measure 73
1000
0000
0100
1000
0000
0001
0100
0000
,  // measure 74
0001
0000
0010
0001
0000
1000
0010
0100
,  // measure 75
0010
0000
0001
0010
0000
0100
0001
0000
,  // measure 76
0010
0000
1000
0010
0000
0100
1000
0000
,  // measure 77
1010
1100
0101
0011
,  // measure 78
0001
0000
0100
0010
0100
0010
1000
0000
,  // measure 79
0100
0000
0010
0001
0010
0001
0010
0000
,  // measure 80
0001
0000
1000
0010
1000
0010
1000
0000
,  // measure 81
0010
0000
0010
1000
0000
1000
0100
0000
,  // measure 82
0010
0000
0010
0001
0000
0001
0100
0000
,  // measure 83
0010
0000
0100
0001
0100
0001
0100
0000
,  // measure 84
0001
0000
1000
0100
1000
0100
1000
0000
,  // measure 85
1100
0011
0101
1010
,  // measure 86
0010
0100
0001
0000
0010
0100
1000
0001
,  // measure 87
0100
0000
0010
1000
0010
1000
0010
0000
,  // measure 88
1000
0000
0001
0100
0001
0100
0001
0000
,  // measure 89
0010
0000
0010
0001
0000
0001
0100
0000
,  // measure 90
0010
0000
0010
1000
0000
1000
0100
0000
,  // measure 91
1000
0000
0001
0100
0010
1000
0001
0000
,  // measure 92
1000
0000
0001
0010
0100
1000
0001
0000
,  // measure 93
0101
1100
0011
1010
,  // measure 94
0010
0100
0010
0100
0010
0100
0010
0100
,  // measure 95
0010
1000
0001
0100
0000
0002
2000
0000
,  // measure 96
0000
0000
0000
3000
,  // measure 97
0013
0001
1000
0100
0000
2000
0002
0000
,  // measure 98
0000
0000
0000
0000
,  // measure 99
0000
0000
0000
0000
,  // measure 100
0000
0000
0000
0000
,  // measure 101
3003
0000
0000
0000
;
