#TITLE:My Salsa;
#SUBTITLE:;
#ARTIST:Carlito;
#TITLETRANSLIT:;
#SUBTITLETRANSLIT:;
#ARTISTTRANSLIT:;
#GENRE:;
#CREDIT:Lisek;
#BANNER:[Food Week] - My Salsa.png;
#BACKGROUND:[Food Week] - My Salsa-bg.png;
#LYRICSPATH:;
#CDTITLE:cdtitle.png;
#MUSIC:[Food Week] - My Salsa.ogg;
#OFFSET:-1.311000;
#SAMPLESTART:41.00;
#SAMPLELENGTH:20.16;
#SELECTABLE:YES;
#BPMS:0.000000=120.000000,136.000000=60.000000,152.000000=120.000000
;
#STOPS:
;
#BGCHANGES:;
#KEYSOUNDS:;
#ATTACKS:;

//---------------dance-single - ----------------
#NOTES:
     dance-single:
     Lisek:
     Hard:
     8:
     0.506523,0.549091,0.221051,0.123789,0.530523,401.000000,376.000000,25.000000,14.000000,0.000000,0.000000,0.506523,0.549091,0.221051,0.123789,0.530523,401.000000,376.000000,25.000000,14.000000,0.000000,0.000000:
0000
0000
0000
0000
,
0000
0000
0000
0000
,
1000
0000
0001
0010
0000
0001
0010
0000
0001
0000
1000
0100
0000
1000
0100
0000
,
1000
0000
0000
0001
1000
0001
0000
0100
0000
0010
0000
0000
0000
0000
0000
0000
,
1000
0000
0010
0100
0000
0010
0000
0100
0010
0000
1000
0000
0001
0000
0100
0000
,
0001
0000
0000
1000
0000
0000
0001
0000
0100
0000
0010
0000
0100
0000
0010
0000
,
1000
0000
0100
0010
0000
0001
0000
0010
0100
0000
1000
0000
0001
0000
1000
0000
,
0010
0000
0000
0100
0000
0000
0001
0000
0100
0000
0010
0000
0100
0000
0010
0000
,
1000
0000
0010
0100
0000
0001
0000
0100
0001
0000
1000
0000
0100
0000
0010
0000
,
0001
0000
0000
1000
0000
0000
0001
0000
0100
0000
0010
0000
0100
0000
0010
0000
,
1000
0000
0001
0100
0000
0010
0000
0100
0001
0000
1000
0000
0001
0000
0100
0000
,
0010
0000
0000
1000
0000
0000
0001
0000
0010
0100
0010
0000
0100
0000
1000
0000
,
0001
0010
0000
1000
0000
0010
0000
0001
0000
0000
0000
0000
1001
0000
0000
0000
,
1000
0010
0000
0001
0000
0010
0000
1000
0000
0000
0000
0000
1001
0000
0000
0000
,
0001
0000
0100
1000
0000
0100
0000
0001
0000
0010
0000
0000
1000
0000
0010
0000
,
0001
0000
0000
0000
0000
0000
1000
0000
0000
0000
0000
0001
0000
0000
0000
0000
1000
0000
0000
0000
0010
0000
0000
0000
0100
0000
0000
0000
0001
0000
0000
0000
,
1000
0100
0000
0001
0000
0100
0000
1000
0000
0000
0000
0000
1001
0000
0000
0000
,
0001
0010
0000
1000
0000
0010
0000
0001
0000
0100
0000
0010
0100
0000
0100
0001
,
0000
0001
1000
0000
0001
0000
0100
0001
0000
1000
0000
0000
0010
0000
0100
0000
,
0101
0000
0000
1010
0000
0000
1001
0000
,
0001
0100
1000
0100
0010
0100
1000
0100
,
0101
0000
0000
1001
0000
0000
1010
0000
0000
1000
0000
0001
0100
0000
0001
0000
,
1000
0100
0001
0100
0010
0001
0010
0100
,
1100
0000
1000
0002
0000
0203
0300
0001
,
1000
0100
0001
0100
0010
0001
0010
0100
,
1100
0000
0000
0110
0000
0000
0011
0000
0001
0100
0010
0000
0100
0000
0001
0000
,
2000
0000
0000
3200
0000
0000
0301
0000
0100
0000
0000
0000
1000
0000
0100
0000
,
0010
0000
0001
0010
0000
0100
1000
0000
0010
0000
0000
0100
0000
0000
0001
0000
,
2000
0000
0000
3020
0000
0000
0031
0000
0010
0000
0000
0000
1000
0000
0001
0000
,
0100
0000
0010
0100
0000
0010
0100
0000
0000
0000
0000
0000
0000
0000
0000
0000
,
0001
0000
1000
0010
0000
1000
0010
0000
1000
0000
0001
0100
0000
0001
0100
0000
,
0001
0000
0000
1000
0001
1000
0000
0010
0000
0100
0000
0001
1000
0000
0010
0000
,
1000
0000
0001
0010
0000
0001
0010
0000
0001
0000
1000
0100
0000
1000
0100
0000
,
1000
0000
0000
0010
0100
0010
0000
1000
0000
0001
0000
0000
1000
0000
0001
0000
,
1000
0001
0000
0001
0000
0001
0000
0001
0000
0000
0000
0000
1001
0000
0000
0000
0001
1000
0000
1000
0000
1000
0000
1000
0000
0000
0000
0000
1001
0000
0000
0000
,
0001
0000
0000
0000
0000
0000
0000
0000
0010
0000
0000
0000
0000
0000
0000
0000
0100
0000
0000
0000
0000
0000
0000
0000
1000
0000
0000
0000
0000
0000
0000
0000
0001
0000
0000
0000
0000
0000
0100
0000
0000
0000
0000
0010
0000
0000
0000
0000
1000
0000
0000
0000
0000
0000
0000
0000
0000
0000
0000
0000
0000
0000
0000
0000
,
0001
0100
1000
0010
0001
0100
1000
0010
,
0001
0000
0100
0000
0010
0000
1000
0000
1001
0000
0000
0110
0000
0000
1001
0000
,
1000
0100
0001
0100
0010
0001
0010
0100
,
1100
0000
0000
1001
0000
0000
0011
0000
0000
0001
0000
1000
0010
0000
1000
0000
,
0001
0100
1000
0100
0010
0100
1000
0100
,
0101
0000
0001
2000
0000
3020
0030
1000
,
0001
0100
1000
0100
0010
0100
1000
0100
,
0101
0000
0000
0110
0000
0000
1010
0000
1000
0001
0100
0000
0001
0000
1000
0000
,
0002
0000
0000
0203
0000
0000
1300
0000
0100
0000
0000
0000
0001
0000
0010
0000
,
0100
0000
1000
0100
0000
0010
0001
0000
0100
0000
0000
0010
0000
0000
1000
0000
,
0002
0000
0000
0023
0000
0000
1030
0000
0010
0000
0000
0000
0001
0000
1000
0000
,
0010
0000
0100
0010
0000
0100
0010
0000
0000
0000
0000
0000
0000
0000
0000
0000
,
1000
0000
0001
0100
0000
0001
0100
0000
0001
0000
1000
0010
0000
1000
0010
0000
,
1000
0000
0000
0001
1000
0001
0000
0200
0000
0000
0000
0000
0300
0000
0000
0000
,
0001
0000
1000
0100
0000
1000
0100
0000
1000
0000
0001
0010
0000
0001
0010
0000
,
0001
0000
0000
0100
0010
0100
0000
0001
0000
2000
0000
0000
3000
0000
0000
0000
;

//---------------dance-single - ----------------
#NOTES:
     dance-single:
     Lisek:
     Medium:
     6:
     0.362524,0.434697,0.221051,0.053052,0.154736,287.000000,262.000000,25.000000,6.000000,0.000000,0.000000,0.362524,0.434697,0.221051,0.053052,0.154736,287.000000,262.000000,25.000000,6.000000,0.000000,0.000000:
0000
0000
0000
0000
,
0000
0000
0000
0000
,
0001
0000
0000
0001
0010
0000
0000
0000
0100
0000
0000
0100
1000
0000
0000
0000
,
0001
0000
0000
1000
0001
0000
0000
0001
0000
2000
0000
0000
3000
0000
0000
0000
,
0001
0100
0010
1000
0100
0010
0001
1000
,
0001
0000
1000
0000
0010
0100
0010
0100
,
0001
0010
0100
1000
0001
1000
0010
0100
,
0001
0000
1000
0000
0010
0100
0010
0100
,
0001
1000
0100
1000
0001
0010
0100
1000
,
0001
0000
1000
0000
0010
0100
0010
0100
,
0001
1000
0010
0100
0001
1000
0100
0010
,
0001
0000
1000
0000
0010
0100
0010
0000
,
1000
0010
1000
0010
1000
0000
1010
0000
,
0001
0100
0001
0100
0001
0000
0101
0000
,
0001
1000
0100
1000
0001
0100
0010
0100
,
0001
1000
0001
1000
,
0001
0010
0001
0010
0001
0000
0011
0000
,
1000
0100
1000
0100
1000
0000
0001
0000
,
0100
0010
1000
0100
,
0110
0000
0000
1001
0000
0000
0110
0000
,
1000
0010
0100
0001
,
0101
0000
0000
0101
0000
0000
0101
0000
0000
0000
0000
0000
0000
0000
0000
0000
,
0001
1000
0010
0100
,
0110
0000
0100
0002
0000
2003
3000
0000
,
0001
0100
0010
1000
,
1010
0000
0000
1010
0000
0000
1010
0000
0000
0000
0000
0000
0000
0000
1000
0000
,
1000
0000
0000
0100
0000
0000
0010
0000
0010
0000
0000
0000
0001
0000
0000
0000
,
1000
0000
0000
0001
0000
0000
1000
0000
0000
0000
0000
0000
0000
0000
0001
0000
,
0001
0000
0000
0100
0000
0000
0010
0000
0010
0000
0000
0000
1000
0000
0000
0000
,
0001
0000
0000
1000
0000
0000
1001
0000
0000
0000
0000
0000
0000
0000
0000
0000
,
1000
0000
0000
1000
0100
0000
0000
0000
0010
0000
0000
0010
0001
0000
0000
0000
,
1000
0000
0000
0001
1000
0000
0000
1000
0001
0000
0000
0000
0000
0000
0000
0000
,
0001
0000
0000
0001
0010
0000
0000
0000
0100
0000
0000
0100
1000
0000
0000
0000
,
0001
0000
0000
1000
0001
0000
0000
0001
1000
0000
0000
0000
0001
0000
0000
0000
,
1000
0100
1000
0000
0001
0010
0001
0000
,
1000
0001
0100
0010
1000
0001
1000
0000
,
0001
0010
0001
0010
0100
1000
0100
1000
,
0001
0000
0100
0000
0001
0000
0100
0000
0101
0000
0000
0110
0000
0000
1001
0000
,
0001
1000
0001
0100
,
0101
0000
0000
0101
0000
0000
0101
0000
0000
0000
0000
0000
0000
0000
0000
0000
,
1000
0001
0100
0010
,
0110
0000
0010
2000
0000
3002
0003
0000
,
1000
0100
0010
0001
,
0011
0000
0000
0011
0000
0000
0011
0000
0000
0000
0000
0000
0000
0000
0001
0000
,
0001
0000
0000
0010
0000
0000
0100
0000
0100
0000
0000
0000
1000
0000
0000
0000
,
0001
0000
0000
1000
0000
0000
0001
0000
0000
0000
0000
0000
0000
0000
1000
0000
,
1000
0000
0000
0010
0000
0000
0100
0000
0100
0000
0000
0000
0001
0000
0000
0000
,
1000
0000
0000
0001
0000
0000
1001
0000
0000
0000
0000
0000
0000
0000
0000
0000
,
0001
0000
0000
0001
0010
0000
0000
0000
0100
0000
0000
0100
1000
0000
0000
0000
,
0001
0000
0000
1000
0001
0000
0000
0001
1000
0000
0000
0000
0000
0000
0000
0000
,
1000
0000
0000
1000
0100
0000
0000
0000
0010
0000
0000
0010
0001
0000
0000
0000
,
1000
0000
0000
0001
1000
0000
0000
0001
0000
2000
0000
0000
3000
0000
0000
0000
;

//---------------dance-single - ----------------
#NOTES:
     dance-single:
     Lisek:
     Easy:
     3:
     0.208420,0.251667,0.026526,0.097263,0.000000,165.000000,162.000000,3.000000,11.000000,0.000000,0.000000,0.208420,0.251667,0.026526,0.097263,0.000000,165.000000,162.000000,3.000000,11.000000,0.000000,0.000000:
// measure 0
0000
0000
0000
0000
,  // measure 1
0000
0000
0000
0000
,  // measure 2
1000
0100
0010
0001
,  // measure 3
1000
0001
1000
0000
,  // measure 4
0001
0100
0001
0100
,  // measure 5
0010
0000
0100
0100
,  // measure 6
0010
1000
0001
0100
,  // measure 7
0001
0000
1000
1000
,  // measure 8
0010
0100
0001
1000
,  // measure 9
0100
0000
0010
0010
,  // measure 10
0001
1000
0010
0100
,  // measure 11
0001
0000
1000
0001
,  // measure 12
1000
0100
1000
1100
,  // measure 13
0001
0010
0001
0011
,  // measure 14
0001
1000
0010
0100
,  // measure 15
0001
1000
0001
1000
,  // measure 16
0010
0100
0010
0110
,  // measure 17
1000
0001
1000
0010
,  // measure 18
0100
0001
0010
0001
,  // measure 19
1000
0000
0000
0001
0000
0000
1000
0000
,  // measure 20
0001
0100
0001
1000
,  // measure 21
0020
0000
0000
0030
0000
0000
0000
0000
,  // measure 22
1000
0001
0100
0001
,  // measure 23
1000
0000
0000
0000
,  // measure 24
0001
0010
0100
1000
,  // measure 25
0002
0000
0000
0003
0000
0000
0000
0000
,  // measure 26
1000
0100
1000
0010
,  // measure 27
0200
0000
0000
0300
0000
0000
0000
0000
,  // measure 28
0001
0010
0001
1000
,  // measure 29
0020
0000
0000
0030
0000
0000
0000
0000
,  // measure 30
1000
0100
0010
0001
,  // measure 31
1000
0001
1000
0000
,  // measure 32
0001
0010
0100
1000
,  // measure 33
0001
1000
0001
0000
,  // measure 34
1000
0100
1000
0000
0001
0100
0001
0000
,  // measure 35
1000
0001
0200
0300
,  // measure 36
0001
0100
0001
0000
1000
0010
1000
0000
,  // measure 37
0001
0000
0100
0000
0020
0000
0000
0030
,  // measure 38
1000
0010
0100
0001
,  // measure 39
2000
0000
0000
3000
0000
0000
0000
0000
,  // measure 40
0010
0100
0001
1000
,  // measure 41
0100
0000
0000
0000
,  // measure 42
1000
0100
0010
0001
,  // measure 43
2000
0000
0000
3000
0000
0000
0000
0000
,  // measure 44
0001
0010
0001
0100
,  // measure 45
0020
0000
0000
0030
0000
0000
0000
0000
,  // measure 46
1000
0100
1000
0001
,  // measure 47
0200
0000
0000
0300
0000
0000
0000
0000
,  // measure 48
0001
0010
0100
1000
,  // measure 49
0001
1000
0001
0000
,  // measure 50
1000
0100
0010
0001
,  // measure 51
1000
0001
2000
3000
;

//---------------dance-single - ----------------
#NOTES:
     dance-single:
     Lisek:
     Beginner:
     1:
     0.048000,0.112736,0.000000,0.000000,0.000000,38.000000,38.000000,0.000000,0.000000,0.000000,0.000000,0.048000,0.112736,0.000000,0.000000,0.000000,38.000000,38.000000,0.000000,0.000000,0.000000,0.000000:
// measure 0
0000
0000
0000
0000
,  // measure 1
0000
0000
0000
0000
,  // measure 2
0000
0000
0000
0000
,  // measure 3
0000
0000
0000
0000
,  // measure 4
1000
0000
0000
0000
,  // measure 5
0000
0000
0000
0000
,  // measure 6
0001
0000
0000
0000
,  // measure 7
0000
0000
0000
0000
,  // measure 8
0100
0000
0000
0000
,  // measure 9
0000
0000
0000
0000
,  // measure 10
0010
0000
0000
0000
,  // measure 11
0000
0000
0000
0000
,  // measure 12
1000
0000
0000
0000
,  // measure 13
0001
0000
0000
0000
,  // measure 14
1000
0000
0000
0000
,  // measure 15
0001
0000
0000
0000
,  // measure 16
0100
0000
0000
0000
,  // measure 17
0010
0000
0000
0000
,  // measure 18
0100
0000
0000
0000
,  // measure 19
0010
0000
0000
0000
,  // measure 20
1000
0000
0000
0000
,  // measure 21
0000
0000
0000
0000
,  // measure 22
0001
0000
0000
0000
,  // measure 23
0000
0000
0000
0000
,  // measure 24
0100
0000
0000
0000
,  // measure 25
0000
0000
0000
0000
,  // measure 26
0010
0000
0000
0000
,  // measure 27
0000
0000
0000
0000
,  // measure 28
0100
0000
0000
0000
,  // measure 29
0000
0000
0000
0000
,  // measure 30
0001
0000
0000
0000
,  // measure 31
1000
0000
0000
0000
,  // measure 32
0001
0000
0000
0000
,  // measure 33
1000
0000
0000
0000
,  // measure 34
0001
0000
1000
0000
,  // measure 35
0001
0000
1000
0000
,  // measure 36
0010
0000
0100
0000
,  // measure 37
0010
0000
0100
0000
,  // measure 38
0001
0000
0000
0000
,  // measure 39
0000
0000
0000
0000
,  // measure 40
0100
0000
0000
0000
,  // measure 41
0000
0000
0000
0000
,  // measure 42
0010
0000
0000
0000
,  // measure 43
0000
0000
0000
0000
,  // measure 44
1000
0000
0000
0000
,  // measure 45
0000
0000
0000
0000
,  // measure 46
0001
0000
0000
0000
,  // measure 47
0000
0000
0000
0000
,  // measure 48
1000
0000
0000
0000
,  // measure 49
0001
0000
0000
0000
,  // measure 50
1000
0000
0000
0000
,  // measure 51
0001
0000
0000
0000
;
