#TITLE:Mille Feuille;
#SUBTITLE:(Omoshiroebi Remix);
#ARTIST:Stepic;
#TITLETRANSLIT:;
#SUBTITLETRANSLIT:;
#ARTISTTRANSLIT:;
#GENRE:EDM;
#CREDIT:;
#BANNER:Mille Feuille Banner.png;
#BACKGROUND:Mille_Feuille_Background.png;
#LYRICSPATH:;
#CDTITLE:;
#MUSIC:Mille_Feuille.ogg;
#OFFSET:-0.205000;
#SAMPLESTART:54.755066;
#SAMPLELENGTH:12.000000;
#SELECTABLE:YES;
#BPMS:0.000000=110.000000
;
#STOPS:
;
#BGCHANGES:;
#KEYSOUNDS:;
#ATTACKS:;

//---------------dance-single - ----------------
#NOTES:
     dance-single:
     :
     Hard:
     9:
     0.521921,0.536833,0.095863,0.841464,0.564526,343.000000,334.000000,9.000000,79.000000,0.000000,0.000000,0.521921,0.536833,0.095863,0.841464,0.564526,343.000000,334.000000,9.000000,79.000000,0.000000,0.000000:
// measure 0
0000
0000
0000
0000
,  // measure 1
0004
0000
0000
0003
1000
0000
0001
0020
0000
0000
0000
0030
0001
0000
0100
0000
,  // measure 2
0020
0000
0030
0000
0000
0000
1000
0000
0100
0000
1000
0010
0000
0000
0100
0000
,  // measure 3
0000
0000
0000
0000
0001
0000
0010
0002
0000
0000
0000
0003
0100
0000
0010
0000
,  // measure 4
0100
0000
0001
0000
1000
0000
0100
1000
0000
0001
0100
0000
0001
0000
1000
0000
,  // measure 5
0040
0000
0000
0030
0100
0000
0001
0020
0000
0000
0000
0030
0100
0000
0010
0000
,  // measure 6
0001
0000
1000
0010
0000
0000
0100
0000
0000
0001
0000
0000
0010
0000
0001
0000
,  // measure 7
4000
0000
0000
3000
0010
0000
0100
0020
0000
0000
0000
0030
1000
0000
0100
0000
,  // measure 8
2000
0000
0000
3200
0000
0000
0320
0000
0000
0000
0000
0000
0032
0000
0000
0000
,  // measure 9
1003
0001
0010
0100
0010
0001
1000
0010
,  // measure 10
1000
0100
0010
0100
1000
0010
0100
0001
,  // measure 11
0010
0001
1000
0010
1000
0001
0100
0001
,  // measure 12
2000
3100
1000
0100
0010
0001
0010
0100
,  // measure 13
2000
0000
3001
0000
0020
0000
0130
0000
1000
0020
0000
0030
0200
0000
0301
0000
,  // measure 14
0010
0200
0000
0300
2000
0000
3010
0000
1000
0100
0000
0020
0000
0000
0031
0000
,  // measure 15
2000
0000
0000
3020
0000
0030
0200
0000
0301
0020
0000
0030
0100
0000
1000
0000
,  // measure 16
0001
0200
0000
0300
0010
0000
2000
0000
3100
0000
0010
0001
0010
0001
1000
0100
,  // measure 17
2000
0000
3000
0000
1001
0000
1000
0100
0020
0000
0030
0000
0012
0000
0003
0000
,  // measure 18
0001
0000
0100
0000
0001
0100
0010
1000
0200
0000
1300
0010
0000
0100
0010
0000
,  // measure 19
2000
0000
3000
0000
1001
0000
0001
0010
0200
0000
0300
0000
1100
0000
1000
0000
,  // measure 20
0100
0000
0010
0000
0100
0010
0001
0000
2000
0000
3000
0001
0100
0020
0000
0030
,  // measure 21
2000
0000
3000
0000
0110
0000
1000
0100
2000
0000
3000
0000
1020
0000
0000
0000
,  // measure 22
0130
0000
0010
0000
1000
0000
0100
1000
0020
0000
0130
0001
0000
0010
0001
0000
,  // measure 23
2000
0000
3000
0000
1010
0000
0010
0100
0002
0000
0003
0000
0011
0000
0010
0000
,  // measure 24
0200
0000
0320
0000
0031
0010
0100
0000
0010
0001
1000
0100
1000
0001
0100
0001
,  // measure 25
0010
0000
0001
0100
0000
0000
0020
0000
1030
0100
0000
0000
2000
0000
3001
0010
,  // measure 26
0000
0000
0002
0000
1003
0200
0000
0310
0002
0000
1003
0020
0000
0130
0010
0000
,  // measure 27
1000
0000
0001
0100
0000
0000
0002
0000
0013
0001
0000
0000
0200
0000
0310
2000
,  // measure 28
0000
3000
0002
0000
0013
0200
0000
1300
0020
0000
0130
0002
0000
0013
0001
0000
,  // measure 29
0100
0000
0010
0100
0000
0000
0002
0000
0013
0100
0000
0000
0020
0000
0031
1000
,  // measure 30
0000
0000
0020
0000
0130
0002
0000
1003
0200
0000
1300
0100
0000
0010
0001
0000
,  // measure 31
0200
0000
0301
1000
0000
0000
0200
0000
0310
0001
0000
0000
2000
0000
3010
0100
,  // measure 32
0000
0000
0120
0000
1030
0002
0000
0013
0200
0000
1300
0020
0000
1030
0100
0000
,  // measure 33
0010
0000
0001
0010
0001
1000
0010
0000
0100
0001
0000
0001
0000
1000
0000
0100
,  // measure 34
0000
0000
1000
0010
1000
0001
0010
0000
0100
1000
0000
1000
0000
0010
0000
0100
,  // measure 35
0000
0000
0001
0010
0100
0010
0001
0000
1000
0010
0000
0010
0000
0100
0000
0001
,  // measure 36
0000
0000
1000
0100
0010
0100
1000
0000
0001
0100
0000
0100
0000
0010
0000
1000
,  // measure 37
0100
0000
1000
0200
0000
0300
0020
0000
0031
2000
0000
3010
0200
0000
0300
0001
,  // measure 38
0000
0000
0200
0000
0310
2000
0000
3100
0020
0000
0030
0200
0000
0300
2000
0000
,  // measure 39
3001
0000
0010
0002
0000
0003
0200
0000
0310
2000
0000
3000
0001
0000
0100
0020
,  // measure 40
0000
0030
1000
0000
0001
2000
0000
3001
0010
0000
0100
0010
0001
1000
0010
0100
,  // measure 41
0002
0000
0000
0000
,  // measure 42
0003
0000
0000
0000
;

//---------------dance-single - ----------------
#NOTES:
     dance-single:
     :
     Medium:
     6:
     0.346933,0.402625,0.085212,1.001235,0.229006,228.000000,220.000000,8.000000,94.000000,4.000000,0.000000,0.346933,0.402625,0.085212,1.001235,0.229006,228.000000,220.000000,8.000000,94.000000,4.000000,0.000000:
0000
0000
0000
0000
,
2000
0000
0000
3000
0001
0000
0100
0000
0020
0000
0000
0000
1030
0000
0100
0000
,
2000
0000
0000
3000
0000
0000
0010
0000
0100
0000
0001
0000
1000
0000
0100
0000
,
0000
0000
0010
0001
0020
0000
0130
0010
,
0001
0000
1000
0000
0020
0000
0030
0100
0000
0000
0010
0000
1000
0000
0001
0000
,
0020
0000
0000
0030
0001
0000
1000
0000
0200
0000
0000
0300
1000
0000
0010
0000
,
0200
0000
0300
0010
0000
0000
2000
0000
3000
0001
0000
0000
0010
0000
0001
0000
,
0020
0000
0000
0030
0001
0000
0100
0000
0010
0000
0000
0000
1000
0000
0001
0000
,
0200
0000
0000
0302
0000
0003
0020
0000
0000
0000
0000
0000
0230
0000
0000
0000
,
1300
0040
0000
0030
0100
0004
0000
0003
,
0010
0400
0000
0300
1000
0040
0000
0030
,
0100
4000
0000
3000
0100
0040
0000
0030
,
1000
0004
0000
0003
0010
0400
0000
0300
,
0010
0004
0000
0003
0100
0040
0000
0030
,
1000
0400
0000
0300
0001
0400
0000
0300
,
1000
0040
0030
0100
0001
0040
0030
0100
,
1000
0000
0040
0000
0030
0000
0100
0000
0010
0000
1000
0001
0000
0010
0100
0000
,
2000
3000
1001
0001
0020
0030
1200
0000
,
1300
0000
0010
0000
0100
0000
0001
0000
0020
0000
0030
0200
0000
0300
0010
0000
,
0002
0003
1001
1000
0020
0030
1010
1000
,
0100
0000
1000
0000
0001
0000
0100
0000
0002
0000
0000
0003
0020
0000
0030
0000
,
0200
0300
0110
1000
0002
0003
0021
0000
,
0130
0000
0010
0000
0001
0000
0100
0000
0020
0000
0030
2000
0000
3000
0002
0000
,
2003
3000
1100
0100
0020
0030
0011
0010
,
0200
0000
0320
0000
0032
0000
1003
0000
0010
1000
0000
0010
0100
0000
0001
0000
,
2000
0000
3000
0200
0000
0300
0020
0000
0030
0200
0000
0300
2000
0000
3000
0020
,
0000
0030
0200
0000
0300
0002
0000
0003
0020
0000
0030
0200
0000
0300
0010
0000
,
0002
0000
0003
0200
0000
0300
0002
0000
0003
0020
0000
0030
0200
0000
0300
2000
,
0000
3000
0020
0000
0030
0002
0000
0003
0020
0000
0030
2000
0000
3000
0100
0000
,
2000
0000
3000
0020
0000
0030
2000
0000
3000
0200
0000
0300
0020
0000
0030
0002
,
0000
0003
2000
0000
3000
0200
0000
0300
0002
0000
0003
0200
0000
0300
1000
0000
,
0020
0000
0030
2000
0000
3000
0200
0000
0300
2000
0000
3000
0002
0000
0003
0200
,
0000
0300
M002
0000
0003
0M20
0000
0030
200M
0000
3000
02M0
0000
0300
0001
0000
,
1000
0000
0004
0000
0000
0000
0003
0000
0100
0040
0000
0000
0000
0000
0000
0000
,
0030
0000
1000
0000
0400
0000
0000
0300
0010
0004
0000
0000
0000
0000
0000
0003
,
0010
0000
0100
0000
4000
0000
0000
3000
0100
0040
0000
0000
0000
0000
0000
0030
,
0000
0000
0001
0000
0400
0000
0000
0300
0010
4000
0000
0000
0000
0000
0000
3000
,
0200
0000
0300
0020
0000
0030
0200
0000
0300
0020
0000
0030
0002
0000
0003
0200
,
0000
0300
0020
0000
0030
0200
0000
0300
2000
0000
3000
0200
0000
0300
0020
0000
,
2030
0000
3000
0002
0000
0003
0200
0000
0300
0020
0000
0030
2000
0000
3000
0200
,
0000
0300
0002
0000
0003
0200
0000
0300
0010
0000
0001
0000
0010
0000
0100
0000
,
2000
0000
0000
0000
,
3000
0000
0000
0000
;

//---------------dance-single - ----------------
#NOTES:
     dance-single:
     :
     Easy:
     3:
     0.211507,0.223680,0.000000,0.820161,0.000000,139.000000,139.000000,0.000000,77.000000,0.000000,0.000000,0.211507,0.223680,0.000000,0.820161,0.000000,139.000000,139.000000,0.000000,77.000000,0.000000,0.000000:
0000
0000
0000
0000
,
2000
0000
0000
3000
0010
0000
0000
0000
0100
0000
0000
0000
0010
0000
0000
0000
,
1000
0000
0100
0010
,
0001
0000
0000
0000
0100
0000
0000
0000
0020
0000
0000
0030
0100
0000
0000
0000
,
0001
0010
0100
1000
,
0002
0000
0000
0003
0100
0000
0000
0000
0020
0000
0000
0030
1000
0000
0000
0000
,
0100
0000
1000
0000
0010
0000
0100
0010
,
0200
0000
0000
0300
0001
0000
0000
0000
0010
0000
0000
0000
0100
0000
0000
0000
,
0020
0030
0002
0003
0200
0300
0020
0030
,
2000
0000
0000
3000
0200
0000
0000
0300
,
0020
0000
0000
0030
0200
0000
0000
0300
,
2000
0000
0000
3000
0002
0000
0000
0003
,
0200
0000
0000
0300
0020
0000
0000
0030
,
0200
0000
0000
0300
0002
0000
0000
0003
,
0020
0000
0000
0030
0200
0000
0000
0300
,
2000
0000
0000
3000
0002
0000
0000
0003
,
0200
0000
0000
0000
0000
0000
0300
0000
0020
0000
0000
0000
0000
0030
0100
0000
,
0002
0003
0010
0000
0200
0300
0010
0000
,
0001
0000
0100
0000
0020
0030
0000
0100
,
0002
0003
0010
0000
0200
0300
1000
0000
,
0020
0000
0030
0000
0100
0000
0000
0000
0020
0000
0000
0030
2000
0000
3000
0000
,
0002
0003
0100
0000
0002
0003
0010
0000
,
0100
0000
1000
0000
0020
0030
0000
1000
,
0002
0003
0010
0000
0002
0003
0100
0000
,
0010
0000
1000
0000
0200
0300
0020
0031
,
2000
3000
0020
0030
0200
0300
0002
0003
,
0010
0000
0002
0003
0020
0030
0200
0300
,
0020
0030
0002
0003
2000
3000
0200
0300
,
1000
0000
0020
0030
0200
0300
0002
0003
,
0200
0300
0002
0003
0020
0030
0200
0300
,
0010
0000
0002
0003
2000
3000
0020
0030
,
2000
3000
0002
0003
0020
0030
0200
0300
,
1000
0000
0020
0030
0200
0300
0002
0003
,
0020
0000
0000
0030
0200
0000
0000
0300
,
2000
0000
0000
0000
0000
0000
0000
3000
0200
0000
0000
0000
0000
0000
0300
0000
,
0020
0000
0000
0030
0002
0000
0000
0003
,
0200
0000
0000
0000
0000
0000
0000
0300
0020
0000
0000
0000
0000
0000
0030
0000
,
0100
0001
0010
0001
,
0100
0010
1000
0100
,
1000
0001
0100
0001
,
0010
0001
0100
0010
,
2000
0000
0000
0000
,
3000
0000
0000
0000
;

//---------------dance-single - ----------------
#NOTES:
     dance-single:
     :
     Beginner:
     1:
     0.124774,0.134208,0.000000,0.010651,0.000000,82.000000,82.000000,0.000000,1.000000,0.000000,0.000000,0.124774,0.134208,0.000000,0.010651,0.000000,82.000000,82.000000,0.000000,1.000000,0.000000,0.000000:
0000
0000
0000
0000
,
0001
0000
0010
0000
,
0100
0000
1000
0000
,
0010
0000
0100
0000
,
0001
0000
0100
0000
,
0001
0000
0010
0000
,
0100
0000
1000
0000
,
0100
0000
0010
0000
,
0001
0000
1000
0000
,
0001
0000
0100
0000
,
0010
0000
0100
0000
,
0001
0000
1000
0000
,
0100
0000
0010
0000
,
0100
0000
1000
0000
,
0010
0000
0100
0000
,
0001
0000
0010
0000
,
0001
0000
0100
0010
,
1000
0000
0100
0000
,
1000
0000
0010
0000
,
0100
0000
0001
0000
,
0010
0000
0100
0000
,
1000
0000
0001
0000
,
0100
0000
0001
0000
,
1000
0000
0010
0000
,
1000
0000
0100
0000
,
0010
0000
0001
0000
,
0100
0000
0001
0000
,
1000
0000
0100
0000
,
1000
0000
0010
0000
,
0100
0000
0010
0000
,
1000
0000
0100
0000
,
0010
0000
0001
0000
,
0100
0000
0010
0000
,
1000
0000
0001
0000
,
0010
0000
0100
0000
,
0010
0000
0001
0000
,
1000
0000
0010
0000
,
0100
0000
0010
0000
,
1000
0000
0100
0000
,
1000
0000
0001
0000
,
0010
0000
0001
0000
,
2000
0000
0000
0000
,
3000
0000
0000
0000
;
