#TITLE:Marmalade;
#SUBTITLE:(w/ Shou);
#ARTIST:Night Tempo;
#TITLETRANSLIT:;
#SUBTITLETRANSLIT:;
#ARTISTTRANSLIT:;
#GENRE:;
#CREDIT:;
#BANNER:[Food Week] - Marmalade-bn.png;
#BACKGROUND:[Food Week] - Marmalade-bg.png;
#LYRICSPATH:;
#CDTITLE:cdtitle.png;
#MUSIC:[Food Week] - Marmalade.ogg;
#OFFSET:-0.052000;
#SAMPLESTART:50.138000;
#SAMPLELENGTH:12.000000;
#SELECTABLE:YES;
#BPMS:0.000000=115.000000
;
#STOPS:
;
#BGCHANGES:;
#KEYSOUNDS:;
#ATTACKS:;

//---------------dance-single - ----------------
#NOTES:
     dance-single:
     :
     Hard:
     5:
     0.206631,0.281453,0.000000,0.165831,0.000000,157.000000,157.000000,0.000000,18.000000,0.000000,0.000000,0.206631,0.281453,0.000000,0.165831,0.000000,157.000000,157.000000,0.000000,18.000000,0.000000,0.000000:
// measure 0
0000
0000
0000
0000
,  // measure 1
0000
0000
0000
0000
,  // measure 2
0000
0000
0000
0000
,  // measure 3
0000
0000
0000
0000
,  // measure 4
0010
0010
1000
0100
,  // measure 5
0001
0010
1000
0100
,  // measure 6
0010
0010
0001
0100
,  // measure 7
0020
0000
0030
0000
,  // measure 8
1000
0000
1000
0001
,  // measure 9
0200
0300
0002
0003
,  // measure 10
1000
0000
1000
0001
,  // measure 11
0020
0000
0030
0000
0200
1000
1300
0000
,  // measure 12
0001
0100
0010
0000
0010
1000
0001
0000
,  // measure 13
1000
0100
0001
0100
,  // measure 14
1000
0100
1000
0000
0010
0000
0100
0000
,  // measure 15
0002
0000
2003
0000
,  // measure 16
3100
0100
0100
0000
0010
0000
0001
0000
,  // measure 17
1000
0000
1000
0010
,  // measure 18
0100
0100
0100
0000
0010
0000
1000
0000
,  // measure 19
0100
0000
0020
0000
0000
0001
0031
0000
,  // measure 20
0100
0100
0100
0000
0001
0000
0010
0000
,  // measure 21
0100
0000
0100
1000
,  // measure 22
0020
0000
0230
0000
,  // measure 23
0302
0000
0000
0000
,  // measure 24
1003
0100
1000
0000
0001
0010
0001
0000
,  // measure 25
0100
1000
0010
0001
,  // measure 26
1000
0010
1000
0000
0001
0100
0001
0000
,  // measure 27
0010
1000
0100
0001
,  // measure 28
1000
0100
0010
0000
0010
0100
1000
0001
,  // measure 29
1000
0000
0010
0000
0100
0000
0001
0010
,  // measure 30
0200
0000
2300
0000
,  // measure 31
3002
0000
0000
0000
,  // measure 32
1003
1000
0001
1000
,  // measure 33
0010
0001
0100
1000
,  // measure 34
0010
0010
0100
0010
,  // measure 35
0100
0100
0010
0100
,  // measure 36
0001
0010
1000
0010
,  // measure 37
0001
0100
1000
0010
,  // measure 38
0002
0000
0203
0000
,  // measure 39
0320
0000
0000
0000
,  // measure 40
1030
1000
0001
1000
,  // measure 41
0100
0001
0010
1000
,  // measure 42
0100
0100
0010
0100
,  // measure 43
0010
0010
0100
0010
,  // measure 44
0001
0001
1000
0001
,  // measure 45
0100
1000
0010
0001
,  // measure 46
0200
0000
0000
0000
,  // measure 47
0300
0000
0000
0000
;

//---------------dance-single - ----------------
#NOTES:
     dance-single:
     :
     Challenge:
     4:
     0.178993,0.259802,0.000000,0.147406,0.000000,136.000000,136.000000,0.000000,16.000000,100.000000,0.000000,0.178993,0.259802,0.000000,0.147406,0.000000,136.000000,136.000000,0.000000,16.000000,100.000000,0.000000:
// measure 0
0000
0000
0000
0000
,  // measure 1
0000
0000
0000
0000
,  // measure 2
0000
0000
0000
0000
,  // measure 3
0000
0000
0000
0000
,  // measure 4
0010
0010
1000
0100
,  // measure 5
0001
MMMM
1000
MMMM
,  // measure 6
0010
0010
0001
0100
,  // measure 7
0020
0000
0030
0000
,  // measure 8
1000
MMMM
1000
0001
,  // measure 9
0200
0300
0002
0003
,  // measure 10
1000
MMMM
1000
0001
,  // measure 11
0020
0000
0030
0000
MMMM
1000
1000
0000
,  // measure 12
0001
0100
0010
0000
0010
1000
0001
0000
,  // measure 13
1000
0100
0001
MMMM
,  // measure 14
1000
0100
1000
0000
0010
0000
0100
0000
,  // measure 15
0002
0000
2003
0000
,  // measure 16
3100
0100
0100
0000
0010
0000
0001
0000
,  // measure 17
1000
MMMM
1000
MMMM
,  // measure 18
0100
0100
0100
0000
0010
0000
1000
0000
,  // measure 19
0100
0000
MMMM
0000
0000
0001
0001
0000
,  // measure 20
0100
0100
0100
0000
0001
0000
0010
0000
,  // measure 21
0100
MMMM
0100
1000
,  // measure 22
0020
0000
0230
0000
,  // measure 23
0302
0000
0000
0000
,  // measure 24
1003
0100
MMMM
0000
0001
0010
MMMM
0000
,  // measure 25
0100
1000
0010
MMMM
,  // measure 26
1000
0010
MMMM
0000
0001
0100
MMMM
0000
,  // measure 27
0010
1000
0100
MMMM
,  // measure 28
1000
0100
0010
0000
0010
0100
1000
MMMM
,  // measure 29
1000
0000
0010
0000
0100
0000
0001
0010
,  // measure 30
0200
0000
2300
0000
,  // measure 31
3002
0000
0000
0000
,  // measure 32
1003
1000
0001
MMMM
,  // measure 33
0010
0001
0100
1000
,  // measure 34
0010
0010
0100
MMMM
,  // measure 35
0100
0100
0010
MMMM
,  // measure 36
0001
MMMM
1000
MMMM
,  // measure 37
0001
0100
1000
0010
,  // measure 38
0002
0000
0203
0000
,  // measure 39
0320
0000
0000
0000
,  // measure 40
1030
1000
0001
MMMM
,  // measure 41
0100
0001
0010
1000
,  // measure 42
0100
0100
0010
MMMM
,  // measure 43
0010
0010
0100
MMMM
,  // measure 44
0001
0001
1000
0001
,  // measure 45
0100
1000
0010
0001
,  // measure 46
0200
0000
0000
0000
,  // measure 47
0300
0000
0000
0000
;

//---------------dance-single - ----------------
#NOTES:
     dance-single:
     :
     Medium:
     2:
     0.135561,0.169517,0.000000,0.147406,0.000000,103.000000,103.000000,0.000000,16.000000,0.000000,0.000000,0.135561,0.169517,0.000000,0.147406,0.000000,103.000000,103.000000,0.000000,16.000000,0.000000,0.000000:
// measure 0
0000
0000
0000
0000
,  // measure 1
0000
0000
0000
0000
,  // measure 2
0000
0000
0000
0000
,  // measure 3
0000
0000
0000
0000
,  // measure 4
0001
0000
0001
0000
,  // measure 5
1000
0000
1000
0000
,  // measure 6
0010
0000
0010
0100
,  // measure 7
0020
0000
0030
0000
,  // measure 8
1000
0000
1000
0100
,  // measure 9
0001
0000
0100
0000
,  // measure 10
1000
0000
1000
0010
,  // measure 11
0001
0000
0020
0000
0000
0100
0130
0000
,  // measure 12
0010
0000
1000
0000
,  // measure 13
0100
0100
0100
0000
,  // measure 14
0001
0000
0010
0000
,  // measure 15
2000
0000
0000
0000
,  // measure 16
3001
0000
0001
0010
,  // measure 17
1000
0000
0100
0000
,  // measure 18
0001
0000
0001
0010
,  // measure 19
1000
0000
0020
0000
0000
0001
0031
0000
,  // measure 20
0001
0000
0001
0100
,  // measure 21
1000
0000
0010
0000
,  // measure 22
0002
0000
0203
0000
,  // measure 23
0320
0000
0000
0000
,  // measure 24
1030
0000
1000
0000
,  // measure 25
0001
0001
0001
0000
,  // measure 26
0010
0000
0010
0000
,  // measure 27
0100
0100
0100
0000
,  // measure 28
1000
0000
0010
0000
,  // measure 29
0200
0000
0000
0000
,  // measure 30
0302
0000
0000
0000
,  // measure 31
2003
0000
0000
0000
,  // measure 32
3001
0001
1000
0000
,  // measure 33
1000
0100
0010
0001
,  // measure 34
1000
1000
0001
0000
,  // measure 35
0001
0001
1000
0000
,  // measure 36
2000
3000
0020
0030
,  // measure 37
0200
0300
0002
0003
,  // measure 38
0020
0000
0030
0000
,  // measure 39
0200
0000
0300
0000
,  // measure 40
1000
1000
0001
0000
,  // measure 41
0001
0100
0010
1000
,  // measure 42
0001
0001
1000
0000
,  // measure 43
1000
1000
0001
0000
,  // measure 44
0001
0001
1000
0000
,  // measure 45
1000
0010
0100
0001
,  // measure 46
1000
0000
0000
0000
;

//---------------dance-single - ----------------
#NOTES:
     dance-single:
     :
     Easy:
     1:
     0.114503,0.148327,0.000000,0.082916,0.000000,87.000000,87.000000,0.000000,9.000000,0.000000,0.000000,0.114503,0.148327,0.000000,0.082916,0.000000,87.000000,87.000000,0.000000,9.000000,0.000000,0.000000:
// measure 0
0000
0000
0000
0000
,  // measure 1
0000
0000
0000
0000
,  // measure 2
0000
0000
0000
0000
,  // measure 3
0000
0000
0000
0000
,  // measure 4
0001
0000
0001
0000
,  // measure 5
1000
0000
1000
0000
,  // measure 6
0001
0000
0001
0000
,  // measure 7
0200
0000
0300
0000
,  // measure 8
0010
0000
1000
0000
,  // measure 9
0010
0000
0000
0000
,  // measure 10
0100
0000
0001
0000
,  // measure 11
0100
0000
0000
0010
,  // measure 12
1000
0000
0100
0000
,  // measure 13
0001
0000
0010
0000
,  // measure 14
1000
0000
1000
0000
,  // measure 15
0002
0000
0000
0000
,  // measure 16
1003
1000
1000
0000
,  // measure 17
0100
0000
0010
0000
,  // measure 18
0001
0001
0001
0000
,  // measure 19
0100
0000
0010
0000
,  // measure 20
1000
1000
1000
0000
,  // measure 21
0100
0000
0010
0000
,  // measure 22
0002
0000
0000
0000
,  // measure 23
2003
0000
0000
0000
,  // measure 24
3001
0000
1000
0000
,  // measure 25
0010
0010
0010
0000
,  // measure 26
1000
0000
0001
0000
,  // measure 27
0010
0010
0010
0000
,  // measure 28
0100
0000
1000
0000
,  // measure 29
0002
0000
0000
0103
,  // measure 30
0200
0000
0000
0000
,  // measure 31
0320
0000
0000
0000
,  // measure 32
1030
0000
1000
0000
,  // measure 33
0100
0100
0010
0010
,  // measure 34
0001
0000
0001
0000
,  // measure 35
1000
0000
1000
0000
,  // measure 36
0010
0000
0001
0000
,  // measure 37
0100
0000
1000
0000
,  // measure 38
0020
0000
0000
0000
,  // measure 39
0230
0000
0000
0000
,  // measure 40
0301
0000
0001
0000
,  // measure 41
0010
0010
0100
0100
,  // measure 42
1000
0000
1000
0000
,  // measure 43
0001
0000
0001
0000
,  // measure 44
1000
0000
1000
0000
,  // measure 45
0010
0010
0100
0100
,  // measure 46
0001
0000
0000
0000
;
