#TITLE:Love and Kisses;
#SUBTITLE:;
#ARTIST:Dannii Minogue;
#TITLETRANSLIT:;
#SUBTITLETRANSLIT:;
#ARTISTTRANSLIT:;
#CREDIT:;
#BANNER:;
#BACKGROUND:;
#LYRICSPATH:;
#CDTITLE:;
#MUSIC:Love and Kisses.ogg;
#OFFSET:-0.202;
#SAMPLESTART:37.665;
#SAMPLELENGTH:12.000;
#SELECTABLE:YES;
#BPMS:0.000=115.289;
#STOPS:;
#BGCHANGES:;

//---------------dance-single - ----------------
#NOTES:
     dance-single:
     :
     Hard:
     8:
     0.559,0.591,0.152,0.047,0.521: // measure 1
0000
0000
0000
0000
,  // measure 2
0000
0000
0000
0000
,  // measure 3
0000
0000
0000
0000
,  // measure 4
0000
0000
0000
0000
,  // measure 5
1000
0000
0000
1000
0000
0000
0100
0000
0000
0000
0100
0010
0000
0001
0000
1000
,  // measure 6
0001
0000
0000
0001
0000
0000
0100
0000
0000
0000
0100
0010
0000
1000
0000
0001
,  // measure 7
1000
0000
0000
1000
0000
0000
0010
0000
0000
0000
0010
0100
0000
0001
0000
1000
,  // measure 8
0001
0000
0000
0001
0000
0000
0010
0000
0000
0000
0100
0010
0000
0001
0000
1000
,  // measure 9
0001
0000
0000
0100
0000
0000
1000
0000
0000
0000
0100
0001
0000
1000
0000
0010
,  // measure 10
0100
0010
0100
0010
0100
0001
0100
0001
1000
0000
0001
1000
0001
0000
1000
0001
,  // measure 11
1000
0000
0100
0000
0010
0000
0001
0000
1000
0000
0000
0000
0100
0000
0000
1000
,  // measure 12
0100
0000
0010
0000
0001
0000
0001
0000
0000
0000
0001
0010
0000
0100
0000
1000
,  // measure 13
0001
0100
1000
0100
0001
0000
1001
0000
,  // measure 14
1100
0000
0000
1000
0000
0000
0001
0000
0010
0000
0001
0010
0001
1000
0100
1000
,  // measure 15
0001
0000
0100
0000
0010
0000
1000
0000
0001
0000
0000
0000
0100
0000
0000
0001
,  // measure 16
0100
0000
0010
0000
1000
0000
0001
0000
0000
0000
0001
0000
1000
0001
0000
0001
,  // measure 17
0100
0010
1000
0010
0100
0000
0000
0100
,  // measure 18
0001
0000
0000
1000
0000
0000
0010
0000
0100
0000
0000
0001
0000
0000
0010
0100
,  // measure 19
0010
0001
0100
0001
0010
0100
1000
0010
,  // measure 20
1000
0000
0100
0000
0001
0000
0100
0000
1000
0000
0001
0000
1000
0001
1000
0001
,  // measure 21
1000
0000
0010
0000
0100
0000
0001
0000
1000
0000
0000
0001
0000
0100
0000
0010
,  // measure 22
1000
0000
0000
1000
0000
0000
1000
0000
0100
0000
0010
0000
0001
1000
0001
1000
,  // measure 23
0001
0100
1000
0100
0001
0010
1000
0010
,  // measure 24
0001
0000
0100
0000
0010
0000
0100
0000
0001
0000
0010
0000
0100
0010
0100
0010
,  // measure 25
0100
1000
0010
0100
0001
0100
0010
1000
,  // measure 26
0001
1000
0001
1000
0100
0010
0100
0010
0001
1000
0001
1000
0010
0100
0010
0100
,  // measure 27
0001
0000
0010
0000
0000
0100
0000
0000
2000
0000
0000
0000
3001
0000
0000
0000
,  // measure 28
1001
0000
0000
0000
0101
0000
0000
0000
0001
0000
0100
0001
0100
0010
1000
0001
,  // measure 29
1000
0000
0100
0000
0000
0010
0000
0000
0001
0000
0100
0000
0001
0000
0010
0000
,  // measure 30
0100
0000
0000
0000
1100
0000
0000
0000
1001
0000
1000
0010
0100
0001
1000
0001
,  // measure 31
0100
0000
0001
0000
0000
1000
0000
0000
0200
0000
0000
0000
0310
0000
0000
0000
,  // measure 32
0110
0000
0000
0000
0011
0000
0000
0000
0001
0000
0010
0001
0010
0100
1000
0001
,  // measure 33
1000
0000
0010
0000
0000
0100
0000
0000
0001
0000
0100
0000
0001
0000
0010
0000
,  // measure 34
0100
0010
0100
0010
0001
1000
0001
1000
0010
0100
0010
0100
0001
1000
0001
1000
,  // measure 35
0001
0010
0001
0100
1000
0000
1000
0100
,  // measure 36
0001
0000
0000
0000
0101
0000
0000
0000
1100
0000
1000
0100
1000
0010
0100
0001
,  // measure 37
1000
0000
0100
0000
0010
0000
0001
1000
0000
0100
0000
0010
0000
0001
0000
0000
,  // measure 38
0000
0000
0000
0001
0010
0000
0001
1000
0001
0000
1000
0010
1000
0001
0100
0001
,  // measure 39
1000
0100
0010
0001
0010
1000
0010
0001
,  // measure 40
1001
0000
0000
0000
0001
0000
0101
0000
0100
0000
0001
1000
0100
0010
0100
1000
,  // measure 41
0001
0011
0000
0000
0001
1001
0000
1000
,  // measure 42
0100
0010
0001
0010
2100
3001
0102
1003
,  // measure 43
0001
0100
0010
0100
0001
0010
0100
0010
,  // measure 44
0001
0000
0100
0000
1000
0000
0100
0000
0001
0000
1000
0000
0001
1000
0001
1000
,  // measure 45
0001
0000
0100
0000
0010
0000
1000
0000
0100
0000
0000
0010
0000
0001
0000
1000
,  // measure 46
0001
0000
0000
0001
0000
0000
0010
0000
0100
0000
1000
0000
0010
0100
0010
0100
,  // measure 47
0010
1000
0010
0001
0010
1000
0100
1000
,  // measure 48
0010
0000
0100
0000
0001
0000
0100
0000
0010
0000
1000
0000
0100
1000
0100
1000
,  // measure 49
0001
0100
0010
0100
0001
0010
0100
0010
,  // measure 50
0001
1000
0001
1000
0010
0100
0010
0100
0001
1000
0001
1000
0002
0000
0003
0000
;

//---------------dance-single - ----------------
#NOTES:
     dance-single:
     :
     Medium:
     6:
     0.451,0.567,0.493,0.085,0.095:
0000
0000
0000
0000
,
0000
0000
0000
0000
,
0000
0000
0000
0000
,
0000
0000
0000
0000
,
1000
0000
0000
1000
0000
0000
0100
0000
0000
0000
0000
0000
0110
0000
0000
0000
,
0001
0000
0000
0001
0000
0000
0100
0000
0000
0000
0000
0000
0110
0000
0000
0000
,
0100
0000
0000
0100
0000
0000
0001
0000
0000
0000
0000
0000
1001
0000
0000
0000
,
0001
0000
0000
0001
0000
0000
0010
0000
0100
0000
0001
0000
0100
0000
0010
0000
,
0001
0000
0000
0001
0000
0000
0100
0000
0000
0000
0000
0000
0110
0000
0000
0000
,
1000
0000
0000
1000
0000
0000
0100
0000
0001
0000
0100
0000
1000
0000
0010
0000
,
0100
0001
0010
0100
1000
0000
1000
0000
,
1000
0100
0001
0100
0000
0100
1000
0010
,
0100
0001
0100
1000
0100
0000
0101
0000
,
1001
0000
0000
0000
1000
0100
0010
0100
,
1000
0001
0010
0100
1000
0000
1000
0000
,
1000
0010
0001
0010
0000
0010
1000
0001
,
0100
1000
0100
0001
1000
0000
0000
0100
,
1000
0000
0000
0010
0000
0000
0100
0000
0001
0000
0000
0010
0000
0000
0100
0000
,
1100
0000
0101
0000
1001
0000
1000
0100
,
0110
0011
0101
1001
,
1000
0000
0100
0000
0010
0000
0001
0000
1000
0000
0000
0001
0000
0100
0000
0020
,
0000
0030
0000
0000
0000
0000
0000
0000
1000
0000
0100
0000
0001
0000
0100
0000
,
1100
0000
1010
0000
0011
0000
0010
0100
,
1001
1100
1001
0101
,
0000
0001
0100
0010
1000
0010
0001
0010
,
1000
0100
1000
0010
1000
0100
0010
0001
,
0100
0000
0001
0000
0000
0010
0000
0000
0200
0000
0000
0000
1300
0000
0000
0000
,
0200
0000
0301
0000
0100
1000
0010
0100
,
0001
0000
0010
0000
0000
0001
0000
0000
0100
0000
0010
0000
1000
0000
2200
0000
,
0000
0300
0001
0000
0010
0010
0000
3000
,
0001
0000
1000
0000
0000
0010
0000
0000
0200
0000
0000
0000
0301
0000
0000
0000
,
0200
0000
1300
0000
1000
0100
0001
1000
,
0001
0000
0010
0000
0000
0001
0000
0000
0100
0000
0001
0000
0100
0000
0010
0000
,
1010
1000
0100
0010
0100
1000
0010
0100
,
0001
0010
1000
0100
0001
0000
0001
0100
,
0101
0000
1100
0000
1001
0001
1000
0010
,
0100
0000
0001
0000
0010
0000
0100
1000
0000
0000
0000
0000
1001
0000
0000
0000
,
0000
0000
0000
1000
0001
0000
1000
0001
1000
0000
0100
0000
0010
0000
0001
0000
,
0100
1000
0100
0001
0010
1000
0010
0001
,
0101
0000
0100
0010
1000
0100
0010
0001
,
1001
1001
0000
0000
1010
1001
0000
0100
,
1100
1100
0101
0101
1001
1000
0010
0100
,
0101
0000
1100
0000
1001
0000
1000
0010
,
0110
0101
1001
1100
,
1000
0000
0100
0000
0010
0000
0001
0000
1000
0000
0000
0001
0000
0100
0000
0000
,
0120
0000
1030
0000
1000
0100
0001
0100
,
1100
0000
1010
0000
0011
0000
0101
0001
,
1001
1100
1001
0101
,
0001
0100
0010
1000
0100
0010
0001
1000
,
0100
0001
0100
1000
0001
0010
0002
0003
;

//---------------dance-single - ----------------
#NOTES:
     dance-single:
     :
     Easy:
     4:
     0.255,0.281,0.057,0.227,0.000:
0000
0000
0000
0000
,
0000
0000
0000
0000
,
0000
0000
0000
0000
,
0000
0000
0000
0000
,
2000
0000
0000
3000
1000
0000
0100
0000
,
0010
0001
0100
0010
,
2000
0000
0000
3000
0000
0000
0100
0000
,
0020
0000
0000
0030
0000
0000
0001
0000
,
0200
0000
0000
0300
0000
0000
0001
0000
,
2000
0001
0100
3010
,
1000
0100
0001
0100
,
1000
0001
0000
0000
,
0001
0100
1000
0010
,
0001
0000
1000
0001
,
1000
0010
0100
0001
,
0010
1000
0000
1000
,
0100
0000
0001
0000
1000
0000
0000
1000
,
0200
0000
0000
0300
0020
0000
0000
0030
,
0002
0103
2000
3010
,
0001
1000
0100
1000
,
0000
1000
0100
0001
,
0100
1000
1001
1001
,
0002
0103
2000
3010
,
0001
1000
0100
1000
,
0000
0001
0010
1000
,
0100
0001
0100
1000
,
0010
0001
0200
0310
,
2000
3100
0020
0031
,
0100
0000
0001
0000
0020
0000
0000
0130
,
0000
0000
1000
0000
0002
2000
0000
3003
,
1000
0100
2000
3001
,
0020
0130
2000
3010
,
0100
0000
0001
0000
2000
0000
0000
3001
,
1000
0001
0011
0010
,
0100
1000
0010
0001
,
0100
1000
0100
0000
,
0100
0010
0001
0100
,
0000
0100
1001
0000
,
1000
0010
0100
0001
,
0100
0000
0000
0100
0000
0000
0000
0000
,
0010
0010
0000
0000
1000
1000
0000
0000
,
0100
0001
0020
2030
,
3001
0100
1000
0010
,
0001
0100
0001
1000
,
0000
1000
0100
0010
,
0001
0000
0011
1010
,
1000
0100
0001
0010
,
1000
0100
1000
0001
,
0000
0001
0010
0100
,
2000
0000
0000
3001
0000
0000
0000
0000
;

//---------------dance-single - ----------------
#NOTES:
     dance-single:
     :
     Beginner:
     1:
     0.126,0.163,0.038,0.000,0.000:
0000
0000
0000
0000
,
0000
0000
0000
0000
,
0000
0000
0000
0000
,
0000
0000
0000
0000
,
1000
0000
0000
0010
,
0010
0000
0000
0100
,
0100
0000
0000
0001
,
0001
0000
0000
1000
,
1000
0000
0000
0010
,
0010
0000
0010
0010
,
0010
0000
1000
0000
,
0100
0100
0000
0000
,
0010
0000
0001
0000
,
0100
0000
0000
0000
,
0001
0000
1000
0000
,
0100
0100
0000
0000
,
1000
0000
0001
0000
,
0100
0000
0000
0000
,
0001
0000
0100
0000
,
1000
0000
0100
0000
,
0001
0000
1000
0000
,
0001
0000
1000
1000
,
1000
0000
0100
0000
,
0001
0000
0100
0000
,
1000
0000
0001
0000
,
1000
0000
0000
0000
,
1001
0000
0001
0000
,
1000
0000
0000
0000
,
1001
0000
1000
0000
,
0010
0000
0000
0000
,
1010
0000
1000
0000
,
0001
0000
0000
0000
,
1001
0000
0001
0000
,
0010
0000
0010
0010
,
0010
0000
0001
0000
,
1000
1000
1000
0000
,
0100
0000
0000
0000
,
0010
0000
0000
0000
,
0001
0000
1000
0000
,
0100
0000
0000
0000
,
0100
0000
0010
0000
,
0001
0001
0001
0000
,
1000
0000
0010
0000
,
0001
0000
0010
0000
,
1000
0000
0001
0000
,
1000
0000
0001
0001
,
0001
0000
0100
0000
,
0010
0000
0100
0000
,
0001
0000
1000
1000
,
1000
0000
0000
0000
;

//---------------dance-double - ----------------
#NOTES:
     dance-double:
     :
     Hard:
     8:
     0.528,0.591,0.104,0.009,0.469:
00000000
00000000
00000000
00000000
,
00000000
00000000
00000000
00000000
,
00000000
00000000
00000000
00000000
,
00000000
00000000
00000000
00000000
,
00010000
00000000
00000000
00001000
00000000
00000000
00000100
00000000
00000000
00000000
00000001
00000100
00000000
00000010
00000000
00010000
,
00001000
00000000
00000000
00010000
00000000
00000000
01000000
00000000
00000000
00000000
00000000
00000000
01000000
00100000
01000000
10000000
,
00010000
00000000
00000000
01000000
00000000
00000000
00001000
00000000
00000000
00000000
00010000
00000100
00000000
00001000
00000000
00000001
,
00001000
00000000
00000000
00000100
00000000
00000000
00000010
00000000
00000000
00000000
00000001
00000100
00000000
00000100
00000000
00000000
,
00000001
00000000
00000000
00001000
00000000
00000000
00000100
00000000
00000000
00000000
00010000
00001000
00000000
01000000
00000000
00010000
,
10000000
01000000
10000000
01000000
00100000
00010000
00100000
00010000
10000000
00000000
00010000
10000000
00010000
00000000
10000000
00010000
,
10000000
00000000
01000000
00000000
00010000
00000000
01000000
00000000
10000000
00000000
00000000
00000000
10000000
00000000
00000000
00100000
,
01000000
00000000
00001000
00000000
00010000
00000000
00000010
00000000
00000000
00000000
00001000
00000010
00000000
00000100
00000000
00000001
,
00001000
00000100
00000001
00000100
00010000
00000000
00011000
00000000
,
01001000
00000000
00000000
01000000
00000000
00000000
00100000
00000000
10000000
00000000
01000000
10000000
00100000
01000000
00010000
10000000
,
00010000
00000000
00100000
00000000
01000000
00000000
10000000
00000000
01000000
00000000
00000000
00000000
01100000
00000000
00000000
00100000
,
00001000
00000000
00010000
00000000
00000100
00000000
00000010
00000000
00000000
00000000
00000010
00000001
00000000
00001000
00000000
00000100
,
00010000
00001000
01000000
00010000
00100000
00000000
00000000
01000000
,
10000000
00000000
00000000
00100000
00000000
00000000
01000000
00000000
00001000
00000000
00010000
00000100
00001000
00000010
00000100
00000001
,
00001000
00000100
00000001
00000100
00001000
00000010
00000100
00000001
,
00000010
00001000
00010000
01000000
10000000
00100000
01000000
00000000
,
01000000
00000000
00010000
00000000
00100000
00000000
00001000
00000000
00010000
00000000
00000000
00000100
00000000
00000010
00000000
00000001
,
00001000
00000000
00000000
00000001
00000000
00000000
00000010
00000000
00001000
00000000
00010000
00000000
00100000
00000000
00010000
00000000
,
00001000
00000010
00000001
00000010
00001000
00010000
01000000
10000000
,
00100000
01000000
00010000
00100000
10000000
00100000
00010000
00000000
,
10000000
01000000
00100000
00001000
00000100
00001000
00010000
00000010
,
00000100
00000001
00000100
00000001
00001000
00000100
00001000
00000100
00000010
00000001
00000010
00000001
00001000
00000010
00001000
00000010
,
00000100
00000000
00000001
00000000
00000000
00000010
00000000
00000000
00000100
00000000
00000000
00000000
00011000
00000000
00000000
00000000
,
01000000
00000000
00000000
00000000
00011000
00000000
00000000
00000000
00010000
00000000
00001000
01000000
00010000
10000000
01000000
10000000
,
00010000
00000000
10000000
00000000
00000000
00100000
00000000
00000000
01000000
00000000
00001000
00000000
00010000
00000000
00000010
00000000
,
00000100
00000000
00000000
00000001
00000000
00000000
00000010
00000000
00000001
00000000
00000100
00000010
00000100
00000001
00000010
00000100
,
00001000
00000000
00000001
00000000
00000000
00000100
00000000
00000000
00001000
00000000
00000000
00000000
00011000
00000000
00000000
00000000
,
00010000
00000000
00000000
00000000
00011000
00000000
00000000
00000000
00001000
00000000
00010000
00001000
00000100
00000010
00000100
00001000
,
00010000
00000000
00001000
00000000
00000000
00010000
00000000
00000000
01000000
00000000
10000000
00000000
00010000
00000000
01000000
00000000
,
00100000
10000000
00100000
10000000
01000000
00100000
01000000
00100000
00010000
10000000
00010000
10000000
00100000
01000000
00100000
01000000
,
00010000
00100000
10000000
00100000
00010000
00000000
00010000
01000000
,
00001000
00000000
00000000
00000000
00011000
00000000
00000000
00000000
00010010
00000000
00010000
00000010
00001000
00000100
00001000
00000001
,
00000100
00000000
00001000
00000000
00010000
00000000
01000000
10000000
00000000
00100000
00000000
01000000
00000000
00010000
00000000
00000000
,
00000000
00000000
00000000
00010000
01000000
00000000
01000000
00100000
10000000
00000000
01000000
10000000
00100000
01000000
00001000
00010000
,
00001000
00010000
00000100
00000010
00000100
00010000
00001000
00000100
,
00001100
00000000
00000000
00000000
00000100
00000000
00000101
00000000
00000001
00000000
00000100
00000001
00001000
00000100
00000010
00000100
,
00001000
00001000
00000000
00000000
00000010
00000010
00000000
00000000
,
00000010
00010000
00100000
00010000
00001000
00000100
00001000
00010000
,
01000000
10000000
00100000
01000000
00001000
00000100
00001000
00100000
,
00010000
01000000
00100000
10000000
01000000
00010000
00001000
00000000
,
00010000
00000000
00000100
00000000
00001000
00000000
00000010
00000000
00000100
00000000
00000000
00000001
00000000
00000010
00000000
00000100
,
00001000
00000000
00000000
00001000
00000000
00000000
00000010
00000000
00000001
00000000
00000010
00000000
00001000
00000000
00000010
00000000
,
00000100
00000001
00000010
00001000
00010000
01000000
10000000
00100000
,
10000000
01000000
00010000
00001000
00000100
00000001
00001000
00000000
,
00001000
00000100
00000010
00000100
00010000
01000000
00010000
00001000
,
00100000
00010000
00100000
00010000
10000000
00100000
10000000
00100000
01000000
00010000
01000000
00010000
20000000
00000000
30000000
00000000
;

//---------------dance-double - ----------------
#NOTES:
     dance-double:
     :
     Medium:
     7:
     0.455,0.615,0.512,0.047,0.114:
00000000
00000000
00000000
00000000
,
00000000
00000000
00000000
00000000
,
00000000
00000000
00000000
00000000
,
00000000
00000000
00000000
00000000
,
00000001
00000000
00000000
00000100
00000000
00000000
00001000
00000000
00000000
00000000
00000000
00000000
00011000
00000000
00000000
00000000
,
00010000
00000000
00000000
01000000
00000000
00000000
10000000
00000000
00000000
00000000
00000000
00000000
10010000
00000000
00000000
00000000
,
10000000
00000000
00000000
01000000
00000000
00000000
00010000
00000000
00000000
00000000
00000000
00000000
00011000
00000000
00000000
00000000
,
00010000
00000000
00000000
00001000
00000000
00000000
00000010
00000000
00000000
00000000
00000000
00000000
00001001
00000000
00000000
00000000
,
00000001
00000000
00000000
00000100
00000000
00000000
00001000
00000000
00000000
00000000
00000000
00000000
00011000
00000000
00000000
00000000
,
00010000
01000000
10000000
01000000
00010000
01000000
10000000
01000000
,
00010000
00001000
00000100
00000001
00001000
00000000
00001001
00000000
,
00001000
00000010
00000100
00000001
00000000
00000000
00000001
00001000
,
00000100
00000010
00000001
00000100
00001000
00000000
00011000
00000000
,
00101000
00000000
00000000
00000000
00100000
00010000
01000000
00100000
,
10000000
01000000
00010000
01000000
10000000
00000000
10000000
00000000
,
00100000
00010000
00001000
00000100
00000000
00000000
00000001
00001000
,
00000001
00000010
00000100
00001000
00000100
00000000
00000000
00000100
,
00001000
00000000
00000000
00000010
00000000
00000000
00000100
00000000
00010000
00000000
00000000
00100000
00000000
00000000
01000000
00000000
,
11000000
00000000
01010000
00000000
00011000
00000000
00010000
00000100
,
00001100
00000000
00000101
00000000
00000011
00000000
00001010
00001000
,
00000001
00000000
00000100
00000000
00001000
00000000
00010000
00000000
00001000
00000000
00000000
00100000
00000000
00010000
00000000
10000000
,
00000000
00000000
00000000
00000000
10000000
01000000
00010000
00001000
,
00011000
00000000
00010010
00000000
00001010
00000000
00001000
00000010
,
00000110
00000101
00001001
00001100
,
00000100
00001000
00000010
00000100
00000001
00000010
00001000
00010000
,
01000000
10000000
00100000
10000000
01000000
00100000
00010000
10000000
,
00010000
00000000
00100000
00000000
00000000
01000000
00000000
00000000
20000000
00000000
00000000
00000000
31000000
00000000
00000000
00000000
,
00020000
00000000
00031000
00000000
00000100
00000001
00000010
00000001
,
00001000
00000000
00000010
00000000
00000000
00001000
00000000
00000000
00000001
00000000
00000100
00000000
00000010
00000000
00010000
00000000
,
00001000
00000000
00000000
00001000
00000000
00000000
00100000
00000000
00010000
00000000
01000000
00000000
10000000
00000000
01000000
00000000
,
00010000
00000000
00100000
00000000
00000000
00010000
00000000
00000000
02000000
00000000
00000000
00000000
13000000
00000000
00000000
00000000
,
02000000
00000000
03010000
00000000
01000000
00100000
10000000
01000000
,
00010000
00000000
00000010
00000000
00000000
00001000
00000000
00000000
00000100
00000000
00001000
00000000
00000100
00000000
00000010
00000000
,
00000001
00000100
00001000
00000100
00000001
00000100
00001000
00010000
,
00001000
00100000
00010000
10000000
01000000
00000000
01000000
10000000
,
00010000
00000000
10010000
00000000
01010000
01000000
00001000
00010000
,
00000100
00000000
00001000
00000000
00000010
00000000
00000000
00000100
00000000
00000001
00000000
00001000
00000000
00000001
00000000
00000000
,
00000000
00000000
00000000
00000001
00001000
00000000
00000001
00001000
00000001
00000000
00000010
00000000
00000001
00000000
00000100
00000000
,
00001000
00010000
01000000
10000000
00100000
01000000
00010000
00100000
,
00110000
00000000
00010000
10010000
10000000
00100000
01000000
00010000
,
10010000
10010000
00000000
00000000
00011000
00011000
00000000
00000000
,
00001001
00001001
00001100
00001100
00010100
00010100
00011000
00011000
,
00101000
00000000
00110000
00000000
10010000
00000000
10000000
00100000
,
01100000
00000000
01010000
00000000
01001000
00000000
00011000
00010000
,
00000100
00000000
00000010
00000000
00000001
00000000
00000100
00000000
00000010
00000000
00000000
00001000
00000000
00000001
00000000
00000000
,
00000011
00000000
00000000
00000001
00000000
00000000
00000010
00000000
00000001
00000000
00000010
00000000
00001000
00000000
00000010
00000000
,
00000011
00000000
00001010
00000000
00011000
00000000
00110000
00010000
,
01010000
00000000
10010000
00000000
11000000
00000000
10010000
00010000
,
10000000
00100000
00010000
00001000
00000100
00000001
00000010
00000100
,
00010000
00001000
00100000
00010000
10000000
00100000
02000000
03000000
;

//---------------dance-double - ----------------
#NOTES:
     dance-double:
     :
     Easy:
     3:
     0.240,0.284,0.066,0.180,0.000:
00000000
00000000
00000000
00000000
,
00000000
00000000
00000000
00000000
,
00000000
00000000
00000000
00000000
,
00000000
00000000
00000000
00000000
,
20000000
00000000
00000000
30000000
00000000
00000000
01000000
00000000
,
00020000
00000000
00000000
00030000
00000000
00000000
00001000
00000000
,
00000200
00000000
00000000
00000300
00000000
00000000
00000001
00000000
,
00002000
00000000
00000000
00003000
00000000
00000000
00000001
00000000
,
00000020
00000000
00000000
00000030
00000000
00000000
00001000
00000000
,
00010000
01000000
00010000
00001000
,
00100000
00010000
10000000
00100000
,
01000000
00010000
00000000
00000000
,
10000000
01000000
00010000
00001000
,
00011000
00000000
00001000
00010000
,
00000010
00000100
00000001
00001000
,
00000100
00000010
00000000
00000010
,
00000001
00000100
00000001
00000000
,
00000200
00000000
00000000
00000300
00002000
00000000
00000000
00003000
,
00010000
00001000
00000100
00001000
,
00010000
01000000
10000000
00010000
,
00000000
10000000
00100000
01000000
,
00001000
00000000
00001000
00010000
,
00000010
00000001
00000010
00001000
,
00000100
00000001
00000100
00001000
,
00000000
00000100
00001000
00000010
,
00000001
00000100
00001000
00000010
,
00000100
00000001
00000020
00000030
,
00002000
00003000
00010000
01000000
,
10000000
00100000
01000000
00001000
,
00010000
00000000
00000100
00001000
,
00000010
00000100
00000002
00000003
,
00000020
00000030
00001000
00010000
,
01000000
10000000
00010000
10000000
,
00100000
00010000
01000000
10000000
,
00010000
00001000
00000010
00000100
,
00000001
00000010
00001000
00000100
,
00000001
00000010
00000100
00010000
,
00000000
00001000
00100000
00010000
,
10000000
00100000
01000000
00001000
,
00010000
00000000
00000000
00001000
00000000
00000000
00000000
00000000
,
00011000
00000000
00001100
00000000
,
00000101
00001100
00001001
00000001
,
00000200
00001300
00000020
00000031
,
00000200
00001300
00020000
01030000
,
00000000
10000000
01000000
00100000
,
00010000
00000000
00100000
00100000
,
02000000
03010000
00200000
10300000
,
00010000
01000000
00001000
00010000
,
00000000
00000010
00001000
00000100
,
00000001
00000000
00000100
00000000
00010000
00000000
00022000
00033000
;
